#VERSION:0.83;
#TITLE:YELLOW FROG from Steel Chronicle;
#SUBTITLE:;
#ARTIST:劇団レコード;
#TITLETRANSLIT:;
#SUBTITLETRANSLIT:;
#ARTISTTRANSLIT:GEKIDAN RECORD;
#GENRE:;
#ORIGIN:;
#CREDIT:DigiMindAxel;
#BANNER:YELLOW FROG from Steel Chronicle.png;
#BACKGROUND:YELLOW FROG from Steel Chronicle-bg.png;
#PREVIEWVID:;
#JACKET:YELLOW FROG from Steel Chronicle-jacket.png;
#CDIMAGE:;
#DISCIMAGE:;
#LYRICSPATH:;
#CDTITLE:beatmania IIDX.png;
#MUSIC:YELLOW FROG from Steel Chronicle.ogg;
#OFFSET:-0.188000;
#SAMPLESTART:52.506992;
#SAMPLELENGTH:12.000000;
#SELECTABLE:YES;
#BPMS:0.000=110.000;
#STOPS:;
#DELAYS:;
#WARPS:;
#TIMESIGNATURES:0.000=4=4;
#TICKCOUNTS:0.000=4;
#COMBOS:0.000=1;
#SPEEDS:0.000=1.000=0.000=0;
#SCROLLS:0.000=1.000;
#FAKES:;
#LABELS:0.000=Song Start;
#BGCHANGES:-1.000=YELLOW FROG from Steel Chronicle.avi=1.000=1=0=0=StretchNoLoop==CrossFade==,
99999=-nosongbg-=1.000=0=0=0 // don't automatically add -songbackground-
;
#KEYSOUNDS:;
#ATTACKS:
;

//---------------dance-single - ----------------
#NOTEDATA:;
#CHARTNAME:;
#STEPSTYPE:dance-single;
#DESCRIPTION:;
#CHARTSTYLE:;
#DIFFICULTY:Easy;
#METER:3;
#RADARVALUES:0.159570,0.232836,0.250206,0.277013,0.000000,125.000000,97.000000,28.000000,31.000000,0.000000,0.000000,0.000000,0.000000,0.000000,0.159570,0.232836,0.250206,0.277013,0.000000,125.000000,97.000000,28.000000,31.000000,0.000000,0.000000,0.000000,0.000000,0.000000;
#CREDIT:;
#NOTES:
0000
0000
0000
0000
,
0000
0000
0000
0000
,
0000
0000
0000
0000
,
0000
0000
0000
0000
,
2000
0000
0000
3100
,
0020
0000
0000
0031
,
0200
0000
0000
1300
,
1001
0000
0000
0000
,
1001
0010
0100
0000
,
1000
0100
0010
0000
,
0001
0010
0100
0000
,
1000
0100
0010
0000
,
1001
0000
0000
0000
,
1001
0000
0000
0000
,
1001
0000
0000
0000
,
1001
0100
0010
0001
,
0110
0000
0000
0000
,
0110
0000
0000
0000
,
0110
0000
0000
0000
,
0110
0001
1000
0001
,
1001
0100
0010
0001
,
1000
0010
0100
0001
,
2000
0000
0001
0000
,
0001
0000
0001
3001
,
1000
0010
0100
0001
,
0100
0010
1000
0001
,
2000
0000
0001
0000
,
0001
0000
0001
3001
,
2000
0000
3200
0000
,
0320
0000
0032
0000
,
2003
0000
0000
0000
,
3002
0000
0203
0000
,
0302
0000
2003
0000
,
3002
0000
0023
0000
,
0230
0000
0000
0000
,
1300
0001
1000
0001
,
0000
1001
0000
0000
2002
0000
0000
0000
,
0000
0000
0000
3003
,
0000
0110
0000
0000
0220
0000
0000
0000
,
0000
0000
0000
0330
,
0000
1001
0000
0000
2002
0000
0000
0000
,
0000
3003
1000
1000
,
0000
0110
0000
0000
0110
0000
0000
0000
,
1001
0001
1000
0001
,
2002
0000
3003
1001
,
0220
0000
0330
0110
,
2002
0000
3003
1001
,
0220
0000
0000
0330
0000
0000
0110
0000
0000
0000
0000
0000
0000
0000
0000
0000
;

//---------------dance-single - ----------------
#NOTEDATA:;
#CHARTNAME:;
#STEPSTYPE:dance-single;
#DESCRIPTION:;
#CHARTSTYLE:;
#DIFFICULTY:Medium;
#METER:8;
#RADARVALUES:0.322969,0.423897,0.697001,0.277013,0.004468,253.000000,175.000000,78.000000,31.000000,0.000000,0.000000,0.000000,0.000000,0.000000,0.322969,0.423897,0.697001,0.277013,0.004468,253.000000,175.000000,78.000000,31.000000,0.000000,0.000000,0.000000,0.000000,0.000000;
#CREDIT:;
#NOTES:
0000
0000
0000
0000
,
0000
0000
0000
0000
,
0000
0000
0000
0000
,
0000
0000
0000
0000
,
2002
0000
3003
0010
,
0022
0000
0033
0100
,
2200
0000
3300
1000
,
2002
0000
0000
3003
,
0110
0101
0110
0101
,
1100
0110
1100
0110
,
1001
0110
1001
0110
,
1100
0110
1100
0110
,
0101
0101
0000
0000
0000
0000
0000
0000
,
1001
1001
0000
0000
0000
0000
0000
0000
,
1010
1010
0000
0000
0000
0000
1000
1000
,
1002
0000
0023
0000
0230
0000
1300
0010
,
0110
0110
0000
0000
0000
0000
0000
0000
,
0011
0011
0000
0000
0000
0000
0000
0000
,
1100
1100
0000
0000
0000
0000
0010
0010
,
0110
0000
1000
0100
0010
0001
1000
0001
,
1001
1100
0101
1100
,
1001
0101
1100
0101
,
1001
0000
0100
1000
0100
0010
0001
0000
,
1001
0000
0010
0001
0010
0100
1000
0000
,
1001
1100
0101
1100
,
1001
0101
1100
0101
,
1001
0000
0010
0100
1000
0100
0010
0000
,
1001
0000
0010
0100
0001
0100
0010
0000
,
2000
0000
3200
0000
,
0320
0000
0032
0000
,
1003
0020
0230
0302
,
0023
0000
0200
0330
,
2000
0000
3200
0000
,
0320
0000
0032
0000
,
1003
0002
0023
0230
,
0310
0110
0010
1001
,
0000
1000
1100
0000
0010
0210
0000
0001
,
0000
0001
0000
0001
0301
0000
1001
0000
,
0000
0001
0011
0000
0100
0120
0000
1000
,
0000
1000
0000
1000
1030
0000
1001
0000
,
0000
0100
1100
0000
0010
0210
0000
0001
,
0000
0001
0000
0001
0301
0000
1001
0000
,
0000
0010
0011
0000
0100
0120
0000
1030
,
1001
0110
1001
0110
,
1100
1000
0001
0100
0001
1000
1001
0000
,
0011
0001
1000
0010
1000
0001
1001
0000
,
0110
0010
0100
0001
1000
0001
1001
0000
,
0110
0000
0100
0000
0010
0000
1000
0001
0000
0000
0000
0000
0000
0000
0000
0000
;

//---------------dance-single - ----------------
#NOTEDATA:;
#CHARTNAME:;
#STEPSTYPE:dance-single;
#DESCRIPTION:;
#CHARTSTYLE:;
#DIFFICULTY:Hard;
#METER:12;
#RADARVALUES:0.568069,0.551067,0.437860,0.053615,0.929335,445.000000,396.000000,49.000000,6.000000,0.000000,0.000000,0.000000,0.000000,0.000000,0.568069,0.551067,0.437860,0.053615,0.929335,445.000000,396.000000,49.000000,6.000000,0.000000,0.000000,0.000000,0.000000,0.000000;
#CREDIT:;
#NOTES:
0000
0000
0000
0000
,
0000
0000
0000
0000
,
0000
0000
0000
0000
,
0000
0000
0000
0000
,
1000
0001
0000
0100
0000
0010
0000
0100
0000
0001
1000
0100
1000
0001
0000
1000
,
0001
1000
0000
0010
0000
0100
0000
0010
0000
1000
0001
0010
0001
1000
0000
0100
,
0010
0100
0000
1000
0000
0001
0000
0100
0000
0010
1000
0010
0100
0010
0000
0000
,
2002
0000
0000
0000
0000
3003
1001
0000
,
0010
0001
0000
1000
0000
0010
0000
1000
0000
0001
0010
0100
1000
0001
0000
0000
,
0100
0001
0000
1000
0000
0100
0000
1000
0000
0001
0100
0010
1000
0001
0000
0000
,
0010
0100
0000
1000
0000
0010
0000
1000
0000
0001
0010
0100
1000
0001
0000
0000
,
0100
0001
0000
1000
0000
0100
0000
0010
0000
0100
1000
0010
0100
0001
0000
0000
,
1001
0000
1001
0000
0000
0000
1000
0000
0010
0100
0000
0001
0000
0001
0000
0010
,
0100
0000
0110
0000
0000
0000
0000
0000
0001
1000
0000
0100
0000
0010
0000
0001
,
1000
0000
1001
0000
0000
0000
0001
0000
0100
0010
0000
1000
0000
1000
0100
0010
,
0002
0000
0000
0000
1000
0000
0000
0000
1000
0000
0000
0000
1003
0001
0010
0100
,
1000
0000
1001
0000
0000
0000
0001
0000
0010
0100
0000
1000
0000
1000
0000
0010
,
0100
0000
0110
0000
0000
0000
0000
0000
1000
0001
0000
0010
0000
0100
0000
1000
,
0001
0000
1001
0000
0000
0000
0001
0000
1000
0100
0000
0010
0001
0010
0000
0100
,
0010
0000
0001
0010
0001
0010
0100
1000
0100
1000
0001
0100
0001
0100
0010
1000
,
0010
0100
0000
0001
0000
0001
0000
0010
0000
0010
0000
1000
0000
1000
0000
0010
,
0001
1000
0000
0001
0000
0001
0000
0100
0000
0100
0000
1000
0000
1000
0000
0100
,
0001
1000
0000
0010
0000
0100
0000
0001
1000
0100
0010
0001
1000
0000
0000
0000
,
0001
1000
0000
0100
0000
0010
0000
0001
0000
1000
0001
0100
0010
0100
0010
0100
,
0010
1000
0000
0001
0000
0001
0000
0100
0000
0100
0000
1000
0000
1000
0000
0100
,
0001
1000
0000
0001
0000
0001
0000
0010
0000
0010
0000
1000
0000
1000
0000
0010
,
0001
1000
0000
0100
0000
0001
0000
0100
0000
1000
0010
0100
0010
0000
0000
0000
,
1000
0001
0000
0010
0000
1000
0000
0010
0000
0001
0100
0010
0100
0001
1000
0000
,
0011
0000
0000
0110
0000
0000
1100
0000
0000
0100
0010
0100
0010
0001
1000
0000
,
0101
0000
0000
0110
0000
0000
1010
0000
0000
0010
0100
0010
0100
0001
1000
0000
,
1001
0000
0000
1010
0000
0000
0110
0000
0000
0001
0010
0100
1000
0010
0100
0000
,
1001
0000
0000
1100
0000
0000
0110
0000
0000
0001
0100
0010
1000
0001
1000
0000
,
0100
1000
0000
1000
0100
0000
0100
0010
0000
0010
0001
1000
0010
1000
0001
0000
,
0100
0001
0000
0001
1000
0000
1000
0010
0000
0010
0100
0001
0010
0100
1000
0000
,
0100
1000
0000
1000
0001
0000
0001
0010
0000
0010
0100
1000
0010
1000
0100
0000
,
1100
0011
0110
1001
,
0000
0000
0110
0000
0110
0000
0000
0000
1001
0000
1001
0000
0000
0000
0010
1000
,
0100
0000
0100
1000
0010
0000
0100
0001
1000
0100
0000
1000
0002
0000
0000
0000
,
0003
0000
1001
0000
1001
0000
0000
0000
0110
0000
0110
0000
0000
0000
0010
0001
,
0100
0000
0100
0001
0010
0000
0100
1000
0001
0100
0000
0001
2000
0000
0000
0000
,
3000
0000
1100
0000
1100
0000
0000
0000
0101
0000
0101
0000
0000
0000
0001
0010
,
0100
0000
0100
0010
0001
0000
0100
0010
1000
0100
0000
1000
0002
0000
0000
0000
,
0003
0000
0101
0000
0101
0000
0000
0000
1100
0000
1100
0000
0000
0000
0100
0010
,
0110
1001
0110
1001
,
1000
0100
0010
0001
1000
0000
1000
0010
0100
0001
1000
0000
1001
0000
0000
0000
,
0001
0100
0010
1000
0001
0000
0001
0010
0100
1000
0001
0000
1001
0000
0000
0000
,
1000
0100
0001
0100
1000
0000
1000
0010
0001
0010
1000
0000
1001
0000
0000
0000
,
0001
0010
1000
0010
0001
0000
1000
1001
0000
0000
0000
0000
0000
0000
0000
0000
;

//---------------dance-single - ----------------
#NOTEDATA:;
#CHARTNAME:;
#STEPSTYPE:dance-single;
#DESCRIPTION:;
#CHARTSTYLE:;
#DIFFICULTY:Beginner;
#METER:1;
#RADARVALUES:0.068934,0.125996,0.116167,0.000000,0.000000,54.000000,41.000000,13.000000,0.000000,0.000000,0.000000,0.000000,0.000000,0.000000,0.068934,0.125996,0.116167,0.000000,0.000000,54.000000,41.000000,13.000000,0.000000,0.000000,0.000000,0.000000,0.000000,0.000000;
#CREDIT:;
#NOTES:
// measure 0
0000
0000
0000
0000
,  // measure 1
0000
0000
0000
0000
,  // measure 2
0000
0000
0000
0000
,  // measure 3
0000
0000
0000
0000
,  // measure 4
1001
0000
0000
0000
,  // measure 5
1001
0000
0000
0000
,  // measure 6
1001
0000
0000
0000
,  // measure 7
1001
0000
0000
0000
,  // measure 8
0100
0000
0000
0000
,  // measure 9
0010
0000
0000
0000
,  // measure 10
0100
0000
0000
0000
,  // measure 11
0010
0000
0000
0000
,  // measure 12
0100
0000
0000
0000
,  // measure 13
1000
0000
0000
0000
,  // measure 14
0001
0000
0000
0000
,  // measure 15
1001
0000
0000
0000
,  // measure 16
0110
0000
0000
0000
,  // measure 17
0010
0000
0000
0000
,  // measure 18
0100
0000
0000
0000
,  // measure 19
1001
0000
0000
0000
,  // measure 20
0001
0000
0000
0000
,  // measure 21
0010
0000
0000
0000
,  // measure 22
0100
0000
0000
0000
,  // measure 23
0010
0000
0000
0000
,  // measure 24
0001
0000
0000
0000
,  // measure 25
1000
0000
0000
0000
,  // measure 26
0100
0000
0000
0000
,  // measure 27
0010
0000
0000
0000
,  // measure 28
0100
0000
0000
0000
,  // measure 29
1000
0000
0000
0000
,  // measure 30
0010
0000
0000
0000
,  // measure 31
0100
0000
0000
0000
,  // measure 32
0001
0000
0000
0000
,  // measure 33
0100
0000
0000
0000
,  // measure 34
0010
0000
0000
0000
,  // measure 35
1001
0000
0000
0000
,  // measure 36
0000
0001
0000
0000
0000
0000
0000
0000
,  // measure 37
0000
0000
0000
0000
,  // measure 38
0000
1000
0000
0000
0000
0000
0000
0000
,  // measure 39
0000
0000
0000
0000
,  // measure 40
0000
0001
0000
0000
0000
0000
0000
0000
,  // measure 41
0000
0000
0000
0000
,  // measure 42
0000
1000
0000
0000
0000
0000
0000
0000
,  // measure 43
1001
0000
0000
0000
,  // measure 44
0110
0000
0000
0000
,  // measure 45
0110
0000
0000
0000
,  // measure 46
0110
0000
0000
0000
,  // measure 47
0110
0000
0000
0000
;

//---------------dance-single - ----------------
#NOTEDATA:;
#CHARTNAME:;
#STEPSTYPE:dance-single;
#DESCRIPTION:;
#CHARTSTYLE:;
#DIFFICULTY:Challenge;
#METER:14;
#RADARVALUES:0.679129,0.847795,1.099117,0.464667,0.951675,532.000000,409.000000,123.000000,52.000000,0.000000,0.000000,0.000000,0.000000,0.000000,0.679129,0.847795,1.099117,0.464667,0.951675,532.000000,409.000000,123.000000,52.000000,0.000000,0.000000,0.000000,0.000000,0.000000;
#CREDIT:;
#NOTES:
0000
0000
0000
0000
,
0000
0000
0000
0000
,
0000
0000
0000
0000
,
0000
0000
0000
0000
,
0010
0100
0000
0001
0000
0100
0000
1000
0000
0100
0001
0010
0100
1000
0000
0010
,
0100
0010
0000
1000
0000
0100
0000
0001
0000
0100
1000
0100
0010
0001
0000
0010
,
0100
0010
0000
0001
0000
0100
0000
1000
0000
0100
0001
0010
0100
1000
0000
0001
,
2002
0000
0000
3003
,
0101
0001
0000
1100
0000
0010
0000
0110
0000
0001
0010
0100
1000
0001
0000
0000
,
1100
1000
0000
0101
0000
0100
0000
0110
0000
0001
0010
0100
1000
0001
0000
0000
,
1100
1000
0000
0110
0000
0010
0000
0011
0000
1000
0010
0100
0001
1000
0000
0000
,
0011
0001
0000
1010
0000
1000
0000
1100
0000
0001
0100
0010
1000
0001
0000
0000
,
1001
0000
1001
0000
0000
0000
0001
0000
0100
0010
0000
1000
0000
1000
0000
0001
,
1001
0000
1001
0000
0000
0000
0000
0000
1000
0001
0000
0010
0000
0100
0000
1000
,
1001
0000
1001
0000
0000
0000
1000
0000
0010
0100
0000
0001
1000
0001
0100
0010
,
1000
0000
1000
0000
0001
0000
0001
0000
1000
0000
1000
0000
0001
0100
0010
0100
,
1001
0000
1001
0000
0000
0000
0001
0000
0010
0100
0000
1000
0000
1000
0000
0001
,
1001
0000
1001
0000
0000
0000
0000
0000
1000
0001
0000
0010
0000
0100
0000
1000
,
1001
0000
1001
0000
0000
0000
0001
0000
1000
0010
0000
0100
0001
0100
0000
0100
,
0110
0000
0001
1000
0010
1000
0001
1000
0001
0010
1000
0010
0001
0100
1000
0100
,
0001
0011
0000
1100
0000
1001
0000
1100
0000
1001
0000
1100
0000
1001
0000
1000
,
0001
0101
0000
1010
0000
1001
0000
1010
0000
0110
0000
0101
0000
0101
0000
0000
,
1001
0000
0000
1100
0000
0000
0011
0000
0100
1000
0010
0100
0002
0000
0000
0000
,
1003
0001
0000
0100
0000
1000
0000
0100
0000
0001
1000
0100
0010
0001
0010
1000
,
0010
0011
0000
1100
0000
1001
0000
1100
0000
1001
0000
1100
0000
1001
0000
0010
,
0100
0101
0000
1010
0000
1001
0000
1010
0000
0110
0000
0101
0000
0101
0000
0000
,
1001
0000
0000
0011
0000
0000
1100
0000
0010
0001
0100
0010
2000
0000
0000
0000
,
3001
1000
0000
0100
0000
0001
0000
0100
0000
1000
0010
0100
0010
1000
0100
0010
,
0102
0000
0000
2003
0000
0000
3020
0000
0000
0130
0001
0010
0100
1000
0001
0010
,
1200
0000
0000
2300
0000
0000
3002
0000
0000
0103
0010
1000
0100
0010
0001
1000
,
0001
0100
1000
0100
0000
0001
0010
0000
1000
0010
0000
0001
1000
0010
0100
0001
,
1000
0100
0001
0100
0000
1000
0010
0000
0001
0010
0000
1000
0100
0010
0001
0100
,
1020
0000
0000
0230
0000
0000
0302
0000
0000
1003
0100
0001
0100
1000
0001
0010
,
1200
0000
0000
0320
0000
0000
0032
0000
0000
1003
0010
0001
0010
1000
0100
0010
,
0001
0100
1000
0100
0000
0001
0010
0000
1000
0010
0000
0001
0010
0100
1000
0001
,
0202
0303
2020
3030
0202
0303
2020
3030
,
0000
0000
1001
0000
1001
0000
0000
0000
1100
0000
1100
0000
0000
0000
0011
0100
,
1000
0000
1100
0010
0001
0000
0011
0100
1000
1010
0000
0100
0202
0000
0303
0000
,
0000
0000
1001
0000
2002
0000
3003
0000
0011
0000
0022
0000
0033
0000
1010
0001
,
0100
0000
1010
0001
0100
0000
1010
0001
0010
0011
0000
0100
2200
0000
3300
0000
,
0000
0000
1001
0000
2002
0000
3003
0000
1100
0000
2200
0000
3300
0000
0011
0100
,
1000
0000
0011
0100
1000
0000
0011
0100
1000
1010
0000
0100
0202
0000
0303
0000
,
0000
0000
1001
0000
2002
0000
3003
0000
0101
0000
0202
0000
0303
0000
1010
0001
,
2002
3003
2200
3300
0022
0033
2002
3003
,
1100
0001
0010
0100
1010
0000
1100
0001
0010
0100
1010
0000
2002
0000
3003
0000
,
0101
1000
0010
0100
0011
0000
0101
1000
0010
0100
0011
0000
1001
0010
0100
1000
,
1100
0001
0010
0100
1010
0000
1100
0001
0010
0100
1010
0000
1001
0100
0010
0001
,
0101
1000
0100
0010
1001
0000
0011
0110
0000
0000
0000
0000
0000
0000
0000
0000
;
