#TITLE:Welcome To My Island (George Daniel & Charli XCX Remix);
#SUBTITLE:;
#ARTIST:Caroline Polachek;
#TITLETRANSLIT:;
#SUBTITLETRANSLIT:;
#ARTISTTRANSLIT:;
#GENRE:;
#CREDIT:DigiMindAxel;
#BANNER:Welcome To My Island (George Daniel & Charli XCX Remix).png;
#BACKGROUND:Welcome To My Island (George Daniel & Charli XCX Remix)-bg.png;
#LYRICSPATH:;
#CDTITLE:DigiMindAxel original simfile.png;
#MUSIC:Welcome To My Island (George Daniel & Charli XCX Remix).ogg;
#OFFSET:-0.656000;
#SAMPLESTART:43.502850;
#SAMPLELENGTH:12.000000;
#SELECTABLE:YES;
#BPMS:0.000000=134.380005
;
#STOPS:
;
#BGCHANGES:-1.250=Welcome To My Island (George Daniel & Charli XCX Remix).avi=1.000=1=0=0=StretchNoLoop==CrossFade==,
99999=-nosongbg-=1.000=0=0=0 // don't automatically add -songbackground-
;
#KEYSOUNDS:;
#ATTACKS:;

//---------------dance-single - ----------------
#NOTES:
     dance-single:
     :
     Easy:
     4:
     0.188275,0.251033,0.026896,0.116551,0.000000,147.000000,144.000000,3.000000,13.000000,0.000000,0.000000,0.188275,0.251033,0.026896,0.116551,0.000000,147.000000,144.000000,3.000000,13.000000,0.000000,0.000000:
0000
0000
0000
0000
,
0000
0000
0000
0000
,
0000
0000
0000
0000
,
0000
0000
0000
0000
,
2000
0000
0000
3002
0000
0000
0000
0000
,
0000
0000
0000
0003
,
0020
0000
0000
0230
0000
0000
0000
0000
,
0000
0000
0000
0300
,
2000
0000
0000
3020
0000
0000
0000
0000
,
0000
0000
0000
0030
,
0200
0000
0000
0302
0000
0000
0000
0000
,
0000
0000
0000
0003
,
0020
0000
0000
0230
0000
0000
0000
0000
,
0000
0000
0000
0300
,
2000
0000
0000
3020
0000
0000
0000
0000
,
0000
0000
0030
0000
,
1001
0001
0001
0000
,
0100
0100
0100
0000
,
0010
0010
0010
0000
,
1000
1000
1000
0000
,
0001
0001
0001
0000
,
1000
1000
1000
0000
,
0100
0100
0100
0000
,
0010
0010
0010
0000
,
0001
0100
0000
0001
,
1000
0001
0000
1000
,
0100
1000
0000
0010
,
0100
0010
0000
0000
,
1000
0010
0000
1000
,
0001
1000
0000
0001
,
0100
0001
0000
0000
,
0020
0000
0000
0130
,
1000
1000
1000
0000
,
0001
0001
0001
0000
,
1000
1000
1000
0000
,
0001
0001
0001
0000
,
1000
0100
0010
0001
,
1000
0100
0010
0000
,
0001
0010
0100
1000
,
0001
0010
0100
0000
,
1001
0001
0001
1000
,
0100
0010
0000
0001
,
0100
0001
1000
0100
,
0010
0000
0000
0000
,
0001
0100
0001
1000
,
0100
0010
0100
0010
,
0001
0100
0100
0100
,
0001
0001
1000
0100
,
1001
0001
0001
0001
,
1000
1000
1000
1000
,
0100
0100
0100
0100
,
0010
0010
0010
0010
,
0001
0001
0001
0001
,
0100
0100
0100
0100
,
0010
0010
0010
0010
,
1000
1000
1000
1000
,
0010
0000
0000
0000
;

//---------------dance-single - ----------------
#NOTES:
     dance-single:
     :
     Medium:
     10:
     0.343250,0.451860,0.385515,0.242068,0.071724,268.000000,225.000000,43.000000,27.000000,0.000000,0.000000,0.343250,0.451860,0.385515,0.242068,0.071724,268.000000,225.000000,43.000000,27.000000,0.000000,0.000000:
0000
0000
0000
0000
,
0000
0000
0000
0000
,
0000
0000
0000
0000
,
0000
0000
0000
0000
,
2000
0000
0000
0020
0000
0000
0000
0000
,
0000
0000
0000
3030
,
0200
0000
0000
0002
0000
0000
0000
0000
,
0000
0000
0000
0303
,
2000
0000
0000
0200
0000
0000
0000
0000
,
0000
0000
0000
3300
,
0020
0000
0000
0002
0000
0000
0000
0000
,
0000
0000
0000
0033
,
0001
0100
1000
0100
,
0001
0010
1000
0010
,
0001
0100
0010
1000
,
0100
0000
0000
0000
,
1100
1001
1100
1001
,
0110
0101
0110
0101
,
0110
1001
0110
1001
,
1100
0101
1100
0101
,
1001
1010
1001
0101
,
1010
0011
1010
0011
,
1001
1100
0110
0011
,
1100
0202
0000
0303
,
0001
1000
0100
0000
0001
0100
1000
0000
,
0001
0000
1000
0010
0000
0001
0010
0000
,
1000
0001
0100
0000
1000
0100
0001
0000
,
1000
0000
0001
0010
0000
1000
0010
0000
,
0001
1000
0010
0000
0001
0010
1000
0000
,
0001
0000
1000
0100
0000
0001
0100
0000
,
1000
0001
0010
0000
1000
0010
0001
0000
,
2000
0000
0000
3002
0000
0000
1003
0000
,
0001
0010
0001
0010
0100
0000
1000
0000
,
0010
0100
0010
0100
0001
0000
0010
0000
,
0100
0010
0100
0010
0001
0000
0100
0000
,
0010
1000
0010
1000
0001
0000
0010
0000
,
0100
0010
0100
0010
0001
0000
0100
0000
,
0010
1000
0010
1000
0001
0000
0010
0000
,
0100
0010
0100
0010
0001
0000
0100
0000
,
0010
1000
0010
1000
0001
0000
0000
0000
,
1002
0000
0000
0000
0203
0000
0000
0001
0000
0001
0000
0000
0301
0000
0000
0000
,
2000
0000
3200
0010
0000
0010
0310
0000
,
0002
0000
0000
0000
2003
0000
0000
0010
0000
0010
0000
0000
3010
0000
0000
0000
,
2000
0000
3200
0010
0000
0010
0310
0000
,
0002
0000
0000
0000
2003
0000
0000
0100
0000
0100
0000
0000
3100
0000
0000
0000
,
2000
0000
3020
0100
0000
0100
0130
0000
,
0002
0000
0000
0000
2003
0000
0000
0100
0000
0100
0000
0000
3100
0000
0000
0000
,
2000
0000
3010
0000
1000
0100
0010
0001
,
1000
0000
0000
0000
1100
0000
0000
0001
0000
1000
0000
0000
0001
0000
0000
0000
,
0101
1100
0101
1100
,
1001
0000
0000
0000
0011
0000
0000
1000
0000
0001
0000
0000
1000
0000
0000
0000
,
1010
0000
0010
0100
0001
0100
0010
0000
,
0101
0000
0000
0000
1100
0000
0000
0001
0000
1000
0000
0000
0001
0000
0000
0000
,
0010
0100
1000
0001
0000
1000
0001
0000
,
0011
0000
0000
0000
1010
0000
0000
0001
0000
1000
0000
0000
0001
0000
0000
0000
,
0010
0100
1000
0001
0000
1000
1000
0010
,
0100
0000
0000
0000
;

//---------------dance-single - ----------------
#NOTES:
     dance-single:
     :
     Hard:
     14:
     0.578914,0.651230,0.071724,0.134482,0.591721,452.000000,444.000000,8.000000,15.000000,0.000000,0.000000,0.578914,0.651230,0.071724,0.134482,0.591721,452.000000,444.000000,8.000000,15.000000,0.000000,0.000000:
// measure 0
0000
0000
0000
0000
,  // measure 1
0000
0000
0000
0000
,  // measure 2
0000
0000
0000
0000
,  // measure 3
0000
0000
0000
0000
,  // measure 4
1000
0000
0100
0000
0010
0000
0001
0000
1000
0000
0000
1000
0000
0000
0010
0000
,  // measure 5
0100
0000
0100
0000
0001
0000
0001
0000
0010
0000
0000
0100
0000
0000
1000
0000
,  // measure 6
0001
0000
0100
0000
0010
0000
0100
0000
0001
0000
0000
0010
0000
0000
0100
0000
,  // measure 7
1000
0000
1000
0000
0010
0000
0010
0000
0100
0000
0000
0001
0000
0000
1000
0000
,  // measure 8
0010
0000
0100
0000
1000
0000
0100
0000
0010
0000
0000
1000
0000
0000
0010
0000
,  // measure 9
0100
0000
0100
0000
0001
0000
0001
0000
0100
0000
0000
0010
0000
0000
1000
0000
,  // measure 10
0100
0000
0010
0000
1000
0000
0010
0000
0100
0000
0000
1000
0000
0000
0001
0000
,  // measure 11
0100
0000
0100
0000
0010
0000
0010
0000
1000
0000
0000
0100
0000
0000
0010
0000
,  // measure 12
0001
0000
0100
0010
0100
0010
0100
0000
0001
0000
1000
0100
0000
0000
1000
0000
,  // measure 13
0001
0000
0100
0000
1000
0000
0100
0000
0001
0000
0010
0100
0000
0000
1000
0000
,  // measure 14
0001
0000
0100
0000
1000
0000
0100
0000
0010
0000
1000
0001
0000
0000
0010
0000
,  // measure 15
0200
1000
1300
0000
,  // measure 16
0001
1000
0000
0000
1001
0000
0000
0100
0000
0010
0000
0000
0101
0000
0000
1000
,  // measure 17
0100
0000
0000
0000
1000
0000
2000
0000
0000
0000
3001
0000
0001
0100
0000
0000
,  // measure 18
0001
1000
0000
0000
1001
0000
0000
0100
0000
0010
0000
0000
0101
0000
0000
1000
,  // measure 19
0100
0000
0000
0000
1000
0000
2000
0000
0000
0000
3001
0000
0001
0100
0000
0000
,  // measure 20
0001
1000
0000
0000
1100
0000
0000
0010
0000
0001
0000
0000
1001
0000
0000
0001
,  // measure 21
0100
0000
0000
0000
0010
0000
0020
0000
0000
0000
0130
0000
0100
0001
0000
0000
,  // measure 22
1000
0001
0000
0000
0011
0000
0000
0100
0000
1000
0000
0000
1001
0000
0000
0010
,  // measure 23
1000
0000
0000
0000
0001
0000
0001
0000
1000
0001
1000
0001
1000
0010
0000
0000
,  // measure 24
1000
0001
1000
0000
0100
0000
1000
0000
0001
0000
1000
0000
0100
1000
0000
1000
,  // measure 25
0001
0000
0010
0000
0100
0000
0010
0000
0001
0000
0100
0000
0010
0100
0000
0100
,  // measure 26
0001
0000
1000
0000
0001
0000
0010
0000
0001
0000
1000
0000
0001
0010
0000
0010
,  // measure 27
0100
0000
0000
0000
1000
0001
1000
0001
1000
0000
0100
0000
0010
0100
0000
0000
,  // measure 28
1000
0001
1000
0000
0010
0000
1000
0000
0001
0000
1000
0000
0010
1000
0000
1000
,  // measure 29
0001
0000
0100
0000
0010
0000
0100
0000
0001
0000
1000
0000
0100
1000
0000
1000
,  // measure 30
0001
0100
0001
1000
0001
0100
0001
1000
,  // measure 31
0200
0000
0000
0000
1000
0000
2300
0000
0000
0000
0001
0000
3001
0000
1000
0001
,  // measure 32
1000
0000
0100
0000
0001
0000
1000
0000
0100
0000
0010
1000
0000
0000
1000
0000
,  // measure 33
0001
0000
0010
0000
1000
0000
0001
0000
0010
0000
0100
0001
0000
0000
0001
0000
,  // measure 34
1000
0000
0010
0000
0001
0000
0010
0000
0100
0000
0001
1000
0000
1000
0001
0000
,  // measure 35
0100
0000
1000
0000
0100
0000
0010
0000
1000
0001
1000
0001
0000
0000
0100
0010
,  // measure 36
1000
0000
0010
0000
0001
0000
0010
0000
0100
0000
0001
1000
0000
1000
0001
0000
,  // measure 37
1000
0000
0010
0000
0001
0000
0010
0000
0100
0000
0001
1000
0000
0000
0100
0010
,  // measure 38
0001
0000
1000
0010
1000
0000
0100
0000
0010
0000
0001
0100
0000
0100
0001
0000
,  // measure 39
1000
0100
1000
0000
0001
1000
0001
1000
0001
0000
0100
0000
0010
1000
0000
0000
,  // measure 40
0001
1000
0001
0000
0100
0000
0010
1000
0000
1000
0001
0000
0010
0100
1000
0000
,  // measure 41
0002
0000
0000
0000
1003
0000
0200
0000
0000
0000
1300
0000
1000
0010
0000
0000
,  // measure 42
1000
0001
1000
0000
0100
0000
0010
0001
0000
0001
1000
0000
0010
0100
0001
0000
,  // measure 43
2000
0000
0000
0000
3001
1000
0001
1000
0001
0000
0010
0100
1000
0010
0000
0000
,  // measure 44
1000
0001
1000
0000
0100
0010
0100
0010
0100
0010
0000
0000
0001
1000
0001
1000
,  // measure 45
0001
0010
0100
0000
1000
0000
0020
0000
0000
0000
0130
0000
0001
0010
0100
0000
,  // measure 46
1000
0001
0000
0100
0000
0001
1000
0100
1000
0000
0001
0010
0100
0000
1000
0000
,  // measure 47
0001
0000
0000
0000
0100
0010
0100
0000
0001
1000
0001
1000
0001
1000
0001
0000
,  // measure 48
1000
0100
0000
0001
0100
0000
0000
1000
0000
1000
0000
0010
0100
0001
0010
0100
,  // measure 49
0010
0000
0010
0000
0001
0100
0001
2000
0000
0000
3100
0000
0010
0000
0001
0000
,  // measure 50
1000
0010
0000
0001
0010
0000
0000
1000
0000
1000
0000
0100
0010
0001
0100
0010
,  // measure 51
0100
0000
0000
0000
0001
1000
0001
1000
0001
0000
0010
0100
1000
0010
0000
0000
,  // measure 52
1000
0100
0000
0001
0100
0000
0000
1000
0000
1000
0000
0010
0100
0001
0010
0100
,  // measure 53
0010
0002
0000
0000
1003
0000
2000
0000
0000
0000
3001
0000
0001
0010
0100
1000
,  // measure 54
0001
0000
0100
0000
0001
0000
1000
0100
0000
0100
0010
0000
0001
0000
0100
0000
,  // measure 55
0002
0000
0000
0000
1003
0000
2000
0000
0000
0000
3001
0000
0001
0100
0010
0000
;

//---------------dance-single - ----------------
#NOTES:
     dance-single:
     :
     Beginner:
     2:
     0.090936,0.125517,0.035862,0.000000,0.000000,71.000000,67.000000,4.000000,0.000000,0.000000,0.000000,0.090936,0.125517,0.035862,0.000000,0.000000,71.000000,67.000000,4.000000,0.000000,0.000000,0.000000:
0000
0000
0000
0000
,
0000
0000
0000
0000
,
0000
0000
0000
0000
,
0000
0000
0000
0000
,
0001
0000
0000
0000
,
0000
0000
0000
0000
,
1000
0000
0000
0000
,
0000
0000
0000
0000
,
0100
0000
0000
0000
,
0010
0000
0000
0000
,
0100
0000
0000
0000
,
0010
0000
0000
0000
,
0001
0000
0000
0000
,
1000
0000
0000
0000
,
0001
0000
0000
0000
,
1000
0000
0000
0000
,
1001
0000
0001
0000
,
0001
0000
0000
0000
,
1000
0000
1000
0000
,
1000
0000
0000
0000
,
0100
0000
0100
0000
,
0100
0000
0000
0000
,
0010
0000
0010
0000
,
0010
0000
0000
0000
,
1001
0000
0001
0000
,
0001
0000
0000
0000
,
1000
0000
1000
0000
,
1000
0000
0000
0000
,
0010
0000
0010
0000
,
0010
0000
0000
0000
,
0100
0000
0100
0000
,
0100
0000
0000
0000
,
0001
0000
0000
0000
,
0010
0000
0000
0000
,
0100
0000
0000
0000
,
1000
0000
0000
0000
,
0001
0000
0000
0000
,
0010
0000
0000
0000
,
0100
0000
0000
0000
,
1000
0000
0000
0000
,
1001
0000
0001
0000
,
0001
0000
0000
0000
,
1000
0000
1000
0000
,
1000
0000
0000
0000
,
0010
0000
0010
0000
,
0010
0000
0000
0000
,
0100
0000
0100
0000
,
0100
0000
0000
0000
,
1001
0000
0000
0000
,
1000
0000
1000
0000
,
1000
0000
0000
0000
,
0100
0000
0100
0000
,
0100
0000
0000
0000
,
0010
0000
0010
0000
,
0010
0000
0000
0000
,
0001
0000
0001
0000
,
1000
0000
0000
0000
;
