#VERSION:0.83;
#TITLE:WOOKIE WOOKIE;
#SUBTITLE:(Overhead Champion Mix);
#ARTIST:MACHOMAN;
#TITLETRANSLIT:;
#SUBTITLETRANSLIT:;
#ARTISTTRANSLIT:;
#GENRE:;
#ORIGIN:;
#CREDIT:DigiMindAxel;
#BANNER:WOOKIE WOOKIE (Overhead Champion Mix).png;
#BACKGROUND:WOOKIE WOOKIE (Overhead Champion Mix)-bg.png;
#PREVIEWVID:;
#JACKET:WOOKIE WOOKIE (Overhead Champion Mix)-jacket.png;
#CDIMAGE:;
#DISCIMAGE:;
#LYRICSPATH:WOOKIE WOOKIE (Overhead Champion Mix).lrc;
#CDTITLE:TRANCE PARADISE 4.png;
#MUSIC:WOOKIE WOOKIE (Overhead Champion Mix).ogg;
#OFFSET:-0.123000;
#SAMPLESTART:46.399010;
#SAMPLELENGTH:12.000000;
#SELECTABLE:YES;
#BPMS:0.000=145.000;
#STOPS:;
#DELAYS:;
#WARPS:;
#TIMESIGNATURES:0.000=4=4;
#TICKCOUNTS:0.000=4;
#COMBOS:0.000=1;
#SPEEDS:0.000=1.000=0.000=0;
#SCROLLS:0.000=1.000;
#FAKES:;
#LABELS:0.000=Song Start;
#BGCHANGES:;
#KEYSOUNDS:;
#ATTACKS:
;

//---------------dance-single - ----------------
#NOTEDATA:;
#CHARTNAME:;
#STEPSTYPE:dance-single;
#DESCRIPTION:;
#CHARTSTYLE:;
#DIFFICULTY:Easy;
#METER:5;
#RADARVALUES:0.259354,0.352316,0.226935,0.204241,0.000000,160.000000,140.000000,20.000000,18.000000,0.000000,0.000000,0.000000,0.000000,0.000000,0.259354,0.352316,0.226935,0.204241,0.000000,160.000000,140.000000,20.000000,18.000000,0.000000,0.000000,0.000000,0.000000,0.000000;
#CREDIT:;
#NOTES:
0000
0000
0000
0000
,
0000
0000
0000
0000
,
0000
0000
0000
0000
,
0000
0000
0000
0000
,
1000
0000
0001
0000
,
1000
0000
0001
0100
,
0010
0000
0100
0000
,
0110
0000
0000
0000
,
0001
0001
0001
0001
,
1000
1000
1000
1000
,
0002
0000
2003
0000
,
3002
0000
0003
0000
,
0010
0010
0010
0010
,
0100
0100
0100
0100
,
2000
0000
3002
0000
,
2003
0000
3000
0000
,
0001
0010
0001
0010
,
0100
1000
0100
1000
,
0020
0000
0230
0000
,
0320
0000
0030
0000
,
1000
0001
1000
0001
,
0100
0010
0100
0010
,
2000
0000
3002
0000
,
2003
0000
3000
0000
,
0001
0100
0001
0100
,
0010
1000
0010
1000
,
0100
0010
0001
1000
,
2002
0000
0000
3003
,
1001
1001
0100
0010
,
1000
0100
1000
0100
,
1001
1001
0010
0100
,
0001
0010
0001
0010
,
1001
1001
0100
0010
,
1000
0010
1000
0010
,
1001
1001
0100
0010
,
0100
0001
0100
0001
,
1001
0000
1001
0000
,
0100
0100
0010
0010
,
1001
0000
1001
0000
,
0010
0100
0010
0000
,
1001
0000
1001
0000
,
0100
0010
0100
0010
,
1001
0000
1001
0000
,
2002
0000
0000
3003
,
0100
0010
0100
0010
,
0000
1000
0000
1000
,
0010
0100
0010
0100
,
0000
0001
0000
0001
,
0010
0100
0010
0100
,
0000
1000
0000
1000
,
0100
0010
0100
0010
,
2002
0000
0000
3003
;

//---------------dance-single - ----------------
#NOTEDATA:;
#CHARTNAME:;
#STEPSTYPE:dance-single;
#DESCRIPTION:;
#CHARTSTYLE:;
#DIFFICULTY:Hard;
#METER:11;
#RADARVALUES:0.541402,0.587194,0.692151,0.181548,0.079427,334.000000,273.000000,61.000000,16.000000,0.000000,0.000000,0.000000,0.000000,0.000000,0.541402,0.587194,0.692151,0.181548,0.079427,334.000000,273.000000,61.000000,16.000000,0.000000,0.000000,0.000000,0.000000,0.000000;
#CREDIT:;
#NOTES:
0000
0000
0000
0000
,
0000
0000
0000
0000
,
0000
0000
0000
0000
,
0000
0000
0000
0000
,
1100
0000
0110
0000
0011
0000
0001
1000
,
0000
1010
0000
1010
0000
1010
0100
0010
,
0011
0000
0110
0000
1100
0000
1000
0001
,
0000
0101
0000
0101
0010
0100
1000
0000
,
0001
0000
0010
0001
0000
0000
1000
0000
0100
0000
0010
0000
0001
0000
0000
0000
,
1000
0000
0100
1000
0000
0000
0001
0000
0010
0000
0100
0000
1000
0000
0000
0000
,
0002
0000
0100
0000
0103
0000
0010
1000
,
0200
1000
1300
0010
,
1000
0000
0001
0010
0000
0000
0100
0000
0010
0000
0001
0000
0100
0000
0000
0000
,
0001
0000
1000
0100
0000
0000
0010
0000
0100
0000
1000
0000
0010
0000
0000
0000
,
2000
0000
0010
0000
3010
0000
0100
0001
,
0020
0000
0000
0000
0001
0000
0000
0000
0031
0000
0000
0000
0100
0010
0100
0010
,
1000
0000
0100
0000
1000
0000
0001
0000
0100
0010
0000
1000
0000
0000
0001
0000
,
1000
0000
0100
0000
1000
0000
0001
0000
0100
0010
0000
1000
0000
0000
0000
0000
,
0002
0000
0100
0000
0103
0000
0010
1000
,
0200
1000
1300
1001
,
0001
0000
0100
0000
0001
0000
1000
0000
0100
0010
0000
0001
0000
0000
1000
0000
,
0001
0000
0100
0000
0001
0000
1000
0000
0100
0010
0000
0001
0000
0000
0000
0000
,
2000
0000
0010
0000
3010
0000
0100
0001
,
2000
0000
0000
3000
,
0001
0010
0100
1000
0001
0000
0010
0100
,
1000
0010
0001
0010
1000
0001
1000
0000
,
1001
1100
1001
0011
,
1001
0010
0010
0010
,
1000
0010
0100
0000
0100
0010
1000
0000
,
0100
0010
0001
0100
0001
0100
0010
0000
,
1000
0010
0100
0000
0100
0010
1000
0001
,
0100
0100
1001
1001
0100
0100
1001
1001
,
0010
0100
0010
0000
0100
0010
1000
0000
,
0100
0010
0001
0100
0010
1000
0001
0000
,
0001
0100
0010
0000
0010
0100
0001
1000
,
0100
0100
1001
1001
0100
0100
1001
1001
,
0020
0230
0320
0130
,
0011
0000
1100
0000
1001
0000
1001
1001
,
0200
0320
0230
0310
,
0011
1001
1100
0010
,
1001
0001
1000
0001
1000
0001
1000
0001
,
0101
0000
1010
0000
1001
0000
1001
1001
,
1000
0001
1000
0001
0010
0100
0010
0100
,
2002
0000
0000
3003
,
1100
0000
0110
0000
0011
0000
0001
1000
,
0000
1010
0000
1010
0000
1010
0100
0010
,
0011
0000
0110
0000
1100
0000
1000
0001
,
0000
0101
0000
0101
0010
0100
1000
0001
,
0011
0000
0110
0000
1100
0000
1000
0001
,
0000
0101
0000
0101
0000
0101
0010
0100
,
1100
0000
0110
0000
0011
0000
0001
1000
,
0010
1000
0000
1000
0100
0010
0101
0000
;

//---------------dance-single - ----------------
#NOTEDATA:;
#CHARTNAME:;
#STEPSTYPE:dance-single;
#DESCRIPTION:;
#CHARTSTYLE:;
#DIFFICULTY:Medium;
#METER:9;
#RADARVALUES:0.367959,0.469755,0.317709,0.431176,0.000000,227.000000,199.000000,28.000000,38.000000,0.000000,0.000000,0.000000,0.000000,0.000000,0.367959,0.469755,0.317709,0.431176,0.000000,227.000000,199.000000,28.000000,38.000000,0.000000,0.000000,0.000000,0.000000,0.000000;
#CREDIT:;
#NOTES:
0000
0000
0000
0000
,
0000
0000
0000
0000
,
0000
0000
0000
0000
,
0000
0000
0000
0000
,
0001
0000
0010
0000
0100
0000
1000
0001
,
0000
0001
0000
0001
0000
0001
1000
0000
,
0001
0000
0010
0000
0100
0000
2000
0002
,
0000
0000
0000
3003
,
1001
0000
0001
0000
0010
0100
1000
0000
,
0001
0000
0001
0000
0100
0010
1000
0000
,
0200
0320
0230
0302
,
2003
0000
0000
0002
0000
0000
3003
0000
,
1000
0000
1000
0000
0100
0010
0001
0000
,
1000
0000
1000
0000
0010
0100
0001
0000
,
0020
0230
0320
0032
,
2003
0000
0000
0002
0000
0000
3003
0000
,
0001
0100
0010
0000
0100
0010
1000
0000
,
0010
0000
0100
0000
0001
0010
0001
0000
,
0020
0230
0320
0032
,
1003
0100
0000
2002
0000
0000
3003
0000
,
0001
0010
0100
0000
1000
0100
0010
0000
,
0001
0000
0100
0000
0010
0100
0010
0000
,
0200
0320
0230
0320
,
1030
0001
0000
2002
0000
0000
3003
0000
,
1001
0001
0010
0100
,
1000
0100
0010
0001
,
0101
1001
1010
1001
,
2002
0000
0000
3003
,
0101
0000
0101
0000
0010
1000
0010
1000
,
0001
0010
0100
1000
,
1010
0000
1010
0000
0100
0001
0100
0001
,
1000
1100
0001
0011
,
1001
0000
1001
0000
0100
0010
1000
0010
,
0100
0001
0010
0100
,
1001
0000
1001
0000
0010
0100
0001
0100
,
0010
1010
0100
0101
,
1000
1000
0001
0001
,
0100
0010
0100
0010
0100
0000
1001
0000
,
0001
0001
1000
1000
,
0100
0010
0100
0010
0100
0000
0100
0000
,
1001
0001
1000
1000
,
0220
0000
0000
0330
,
2002
3003
0220
0330
,
2002
0000
0000
3003
,
1000
0000
0100
0000
0010
0000
0001
1000
,
0000
1000
0000
1000
0000
1000
0100
0010
,
0001
0000
0100
0000
0010
0000
1000
0001
,
0000
0001
0000
0001
0010
0100
0010
0001
,
1000
0000
0100
0000
0010
0000
0001
1000
,
0000
1000
0000
1000
0000
1000
0100
0010
,
0001
0100
0010
1000
,
2002
0000
0000
3003
;

//---------------dance-single - ----------------
#NOTEDATA:;
#CHARTNAME:;
#STEPSTYPE:dance-single;
#DESCRIPTION:;
#CHARTSTYLE:;
#DIFFICULTY:Beginner;
#METER:1;
#RADARVALUES:0.097258,0.173605,0.124814,0.000000,0.000000,60.000000,49.000000,11.000000,0.000000,0.000000,0.000000,0.000000,0.000000,0.000000,0.097258,0.173605,0.124814,0.000000,0.000000,60.000000,49.000000,11.000000,0.000000,0.000000,0.000000,0.000000,0.000000,0.000000;
#CREDIT:;
#NOTES:
// measure 0
0000
0000
0000
0000
,  // measure 1
0000
0000
0000
0000
,  // measure 2
0000
0000
0000
0000
,  // measure 3
0000
0000
0000
0000
,  // measure 4
1000
0000
0000
0000
,  // measure 5
0000
0000
0000
0000
,  // measure 6
1000
0000
0000
0000
,  // measure 7
0001
0000
0000
0000
,  // measure 8
0001
0000
0000
0000
,  // measure 9
0001
0000
0000
0000
,  // measure 10
1001
0000
0000
0000
,  // measure 11
0000
0000
0000
0000
,  // measure 12
1000
0000
0000
0000
,  // measure 13
1000
0000
0000
0000
,  // measure 14
0010
0000
0000
0000
,  // measure 15
1001
0000
0000
0000
,  // measure 16
0001
0000
0000
0000
,  // measure 17
0001
0000
0000
0000
,  // measure 18
0100
0000
0000
0000
,  // measure 19
1001
0000
0000
0000
,  // measure 20
0010
0000
0000
0000
,  // measure 21
0010
0000
0000
0000
,  // measure 22
0100
0000
0000
0000
,  // measure 23
1001
0000
0000
0000
,  // measure 24
1000
0000
0000
0000
,  // measure 25
1000
0000
0000
0000
,  // measure 26
0001
0000
0001
0000
,  // measure 27
1001
0000
0000
0000
,  // measure 28
0100
0000
0100
0000
,  // measure 29
0010
0000
0010
0000
,  // measure 30
1000
0000
1000
0000
,  // measure 31
0001
0000
0000
0000
,  // measure 32
0001
0000
0001
0000
,  // measure 33
1000
0000
1000
0000
,  // measure 34
0010
0000
0010
0000
,  // measure 35
0100
0000
0000
0000
,  // measure 36
1001
0000
0000
0000
,  // measure 37
0000
0000
0000
0000
,  // measure 38
1001
0000
0000
0000
,  // measure 39
0000
0000
0000
0000
,  // measure 40
1001
0000
0000
0000
,  // measure 41
0010
0000
0000
0000
,  // measure 42
0100
0000
0110
0000
,  // measure 43
1001
0000
0000
0000
,  // measure 44
0001
0000
0000
0000
,  // measure 45
0000
0000
0000
0000
,  // measure 46
0001
0000
0000
0000
,  // measure 47
0000
0000
0000
0000
,  // measure 48
1000
0000
0000
0000
,  // measure 49
0000
0000
0000
0000
,  // measure 50
1000
0000
0000
0000
,  // measure 51
1001
0000
0000
0000
;

//---------------dance-single - ----------------
#NOTEDATA:;
#CHARTNAME:;
#STEPSTYPE:dance-single;
#DESCRIPTION:;
#CHARTSTYLE:;
#DIFFICULTY:Challenge;
#METER:14;
#RADARVALUES:0.781304,0.880791,0.760232,0.068080,0.618398,482.000000,415.000000,67.000000,6.000000,0.000000,0.000000,0.000000,0.000000,0.000000,0.781304,0.880791,0.760232,0.068080,0.618398,482.000000,415.000000,67.000000,6.000000,0.000000,0.000000,0.000000,0.000000,0.000000;
#CREDIT:;
#NOTES:
0000
0000
0000
0000
,
0000
0000
0000
0000
,
0000
0000
0000
0000
,
0000
0000
0000
0000
,
1100
0000
0110
0000
0011
0000
0001
0110
,
0000
0110
0000
0110
0000
1001
0100
0010
,
0101
0000
0110
0000
1010
0000
1000
0110
,
0001
0000
0100
0010
0000
0010
0100
0000
0001
0000
0010
0000
1100
0000
0000
0000
,
1000
0010
1000
0001
0000
0000
0100
0000
0110
0000
0010
0000
1010
0000
0000
0000
,
0001
0010
0001
1000
0000
0000
0100
0000
0110
0000
0010
0000
0011
0000
0000
0000
,
1000
0010
1000
0010
0100
0000
0000
0000
0001
0100
0001
0100
0010
0000
1000
0000
,
0100
0010
0100
0010
0001
0000
0000
0000
0010
0100
0010
0100
1000
0000
0000
0000
,
0001
0100
0001
1000
0000
0000
0100
0000
1100
0000
0010
0000
0110
0000
0000
0000
,
1000
0100
1000
0001
0000
0000
0010
0000
0110
0000
1000
0000
1010
0000
0000
0000
,
0100
0001
0100
0001
1000
0000
0000
0000
0010
1000
0010
1000
0001
0000
0010
0000
,
0100
1000
0100
1000
0001
0000
0100
0010
1000
0000
0100
1000
0001
0100
0001
0100
,
0001
0100
1000
0000
1000
0100
0001
0000
0010
0100
0000
1000
0000
0000
0001
0000
,
1000
0010
0001
0000
0001
0010
1000
0000
0100
0010
0000
0001
0000
0000
0000
0000
,
0100
0001
0100
0001
1000
0000
0000
0000
0100
1000
0100
1000
0001
0000
0010
0000
,
0100
1000
0100
1000
0001
0000
0000
0000
0100
0001
0100
0001
1000
0000
0000
0000
,
0001
0100
1000
0000
1000
0100
0001
0000
0010
0100
0000
1000
0010
0000
1000
0000
,
0001
0010
1000
0000
1000
0010
0001
0000
0100
0010
0000
1000
0010
0000
0000
0000
,
1000
0001
1000
0001
0010
0000
0000
0000
0100
1000
0100
1000
0010
0000
0000
0000
,
0200
0001
0000
0001
0000
0001
0000
0301
,
1000
0100
0010
0100
1000
0000
1000
0010
,
0100
0001
0100
0000
0010
1000
0010
0000
0100
0001
0100
0000
0001
0000
1000
0000
,
0100
1000
0100
1000
0100
1000
0100
1000
0010
0100
0010
0100
0010
0100
0001
0010
,
0200
2300
3020
0130
,
1010
1001
1010
1001
0010
0100
1100
1100
,
0010
0001
0100
0000
0010
1000
0100
0000
1000
0100
0010
0001
0100
0000
0100
0000
,
1001
0011
1001
0011
0100
1000
1010
1010
,
0100
0001
0010
0001
0100
0000
0101
0000
0010
1000
0100
1000
0010
0000
1010
0000
,
1001
0011
1001
0011
0100
1000
0110
0110
,
0001
0010
0100
0000
1000
0100
0010
0000
0001
0100
0010
1000
0100
0000
0100
0000
,
1010
1001
1010
1001
0010
0100
1010
1010
,
0001
0010
0100
0010
0001
0000
0011
0000
1000
0100
0010
0100
1000
0000
1100
0000
,
1001
0000
0000
0001
0100
0000
0000
0100
0010
0000
0000
0010
1000
0000
0000
0000
,
0001
0000
0001
0010
0100
0000
1000
0100
0010
0000
0001
0010
0100
0000
1100
0000
,
0010
0000
0000
0010
0001
0000
0000
0001
0100
0000
0000
0100
0010
0000
0000
0010
,
1000
0100
0001
0100
2000
0000
3010
0000
,
1001
0000
0000
1000
0010
0000
0000
0010
0100
0000
0000
0100
0001
0000
0000
0000
,
1001
0000
0100
0010
0001
0000
0010
0100
1000
0000
0100
0010
0001
0000
1001
0000
,
0010
0100
0010
0100
0010
0100
0010
0100
0001
0010
0001
0010
0001
0010
0100
1000
,
0020
0000
0000
0130
,
0011
0000
0110
0000
1100
0000
1000
0100
,
0001
0100
1000
0010
0001
0010
1000
0100
,
0011
0000
0110
0000
1100
0000
1000
0010
,
0001
0010
1000
0100
0001
0100
1000
0001
,
0101
0000
0110
0000
1010
0000
1000
0010
,
0001
0010
1000
0100
0001
0100
1000
0010
,
0101
0000
0110
0000
1010
0000
1000
0001
,
0101
0000
1000
0100
0000
0100
0010
0000
0001
0000
0100
0000
1010
0000
0000
0000
;
