#TITLE:WATCHINGOUT;
#SUBTITLE:;
#ARTIST:DJ NAGUREO;
#TITLETRANSLIT:;
#SUBTITLETRANSLIT:;
#ARTISTTRANSLIT:;
#GENRE:;
#CREDIT:DigiMindAxel;
#BANNER:WATCHINGOUT.png;
#BACKGROUND:WATCHINGOUT-bg.png;
#LYRICSPATH:;
#CDTITLE:beatmania.png;
#MUSIC:WATCHINGOUT.ogg;
#OFFSET:-0.525000;
#SAMPLESTART:21.551008;
#SAMPLELENGTH:12.000000;
#SELECTABLE:YES;
#BPMS:0.000000=159.750000
;
#STOPS:
;
#BGCHANGES:-1.000=WATCHINGOUT.avi=1.000=1=0=0=StretchNoLoop==CrossFade==,
99999=-nosongbg-=1.000=0=0=0 // don't automatically add -songbackground-
;
#KEYSOUNDS:;
#ATTACKS:;

//---------------dance-single - ----------------
#NOTES:
     dance-single:
     :
     Easy:
     3:
     0.173788,0.243303,0.129416,0.181183,0.000000,94.000000,84.000000,10.000000,14.000000,0.000000,0.000000,0.173788,0.243303,0.129416,0.181183,0.000000,94.000000,84.000000,10.000000,14.000000,0.000000,0.000000:
// measure 0
0000
0000
0000
0000
,  // measure 1
0000
0000
0000
0000
,  // measure 2
0000
0000
0000
0000
,  // measure 3
0000
0000
0000
0000
,  // measure 4
0000
0000
0000
0000
,  // measure 5
0000
0000
0000
0000
,  // measure 6
1000
0001
0000
0001
,  // measure 7
0000
1000
0000
1001
,  // measure 8
0001
1000
0000
0010
,  // measure 9
0000
0100
0000
0110
,  // measure 10
0100
0010
0000
1000
,  // measure 11
0000
0001
0000
1001
,  // measure 12
1000
0001
0000
0010
,  // measure 13
0000
0100
0000
0110
,  // measure 14
2000
0000
0000
0000
,  // measure 15
3002
0000
0000
0000
,  // measure 16
2003
0000
0000
0000
,  // measure 17
3001
0000
0000
0110
,  // measure 18
2000
0000
0000
0000
,  // measure 19
3002
0000
0000
0000
,  // measure 20
2003
0000
0000
0000
,  // measure 21
3001
1001
0000
1000
,  // measure 22
0000
0001
0001
0001
,  // measure 23
0000
0100
0000
0010
,  // measure 24
0000
1000
1000
1000
,  // measure 25
0000
0010
0000
0100
,  // measure 26
0000
0001
0001
0001
,  // measure 27
0000
0010
0000
0100
,  // measure 28
0000
1000
1000
1000
,  // measure 29
0000
0100
0000
0010
,  // measure 30
0001
0000
1000
0000
,  // measure 31
0001
0000
0100
0000
,  // measure 32
0010
0000
1000
0000
,  // measure 33
0100
0000
0010
0000
,  // measure 34
0001
0000
0010
0000
,  // measure 35
0100
0000
1000
0000
,  // measure 36
0001
0000
1000
0000
,  // measure 37
0001
0001
0001
0000
,  // measure 38
0120
0000
0100
0000
,  // measure 39
0230
0000
0010
0000
,  // measure 40
0320
0000
0000
0100
,  // measure 41
0130
0000
0110
0000
,  // measure 42
1002
0000
1000
0000
,  // measure 43
2003
0000
0001
0000
,  // measure 44
3002
0000
1000
0000
,  // measure 45
1003
2002
0000
0000
,  // measure 46
0000
0000
0000
0000
,  // measure 47
3003
0000
0000
0000
;

//---------------dance-single - ----------------
#NOTES:
     dance-single:
     :
     Hard:
     10:
     0.449260,0.486605,0.401191,0.194125,0.045296,243.000000,212.000000,31.000000,15.000000,0.000000,0.000000,0.449260,0.486605,0.401191,0.194125,0.045296,243.000000,212.000000,31.000000,15.000000,0.000000,0.000000:
// measure 0
0000
0000
0000
0000
,  // measure 1
0000
0000
0000
0000
,  // measure 2
0000
0000
0000
0000
,  // measure 3
0000
0000
0000
0000
,  // measure 4
0000
0000
0000
0000
,  // measure 5
0000
0000
0000
0000
,  // measure 6
1001
0000
1000
0010
1000
0001
0000
0100
,  // measure 7
0000
0100
0001
0000
1000
0100
1100
0000
,  // measure 8
1001
0000
0001
0010
0001
1000
0000
0100
,  // measure 9
0000
0100
1000
0000
0001
0100
0101
0000
,  // measure 10
1001
0000
1000
0100
1000
0001
0000
0100
,  // measure 11
0000
0100
0001
0000
1000
0100
1100
0000
,  // measure 12
1001
0000
0001
0100
0001
1000
0000
0010
,  // measure 13
0000
0010
1000
0001
0010
0100
1001
0000
,  // measure 14
1200
0000
0010
0000
1300
0001
0001
0000
,  // measure 15
0200
0000
0010
0000
1300
0001
0001
0000
,  // measure 16
0100
0000
0000
0100
0000
0000
0100
0000
0000
0000
0001
0000
1000
0000
0000
0000
,  // measure 17
1001
0000
0000
0000
1000
0000
0100
0000
0010
0000
0000
0001
0000
0000
1000
0000
,  // measure 18
1200
0000
0010
0000
1300
0001
0001
0000
,  // measure 19
0200
0000
0010
0000
1300
0001
0001
0000
,  // measure 20
0100
0000
0000
0100
0000
0000
0100
0000
0000
0000
0001
0000
1000
0000
0000
0000
,  // measure 21
1010
2010
0000
3001
,  // measure 22
1000
0010
0100
0000
0010
0100
0010
1000
,  // measure 23
0000
0001
0000
0010
0100
1000
1001
0000
,  // measure 24
0001
0100
0010
0000
0100
0010
0100
0002
,  // measure 25
0000
1000
1003
1001
,  // measure 26
0100
0010
0001
0000
0100
0010
0100
0001
,  // measure 27
0000
1000
0000
0100
0010
0001
1001
0000
,  // measure 28
0010
0100
1000
0000
0010
0100
0010
2000
,  // measure 29
0000
0001
3001
1001
,  // measure 30
1010
0000
0010
0000
0010
0000
1000
0100
,  // measure 31
0010
0000
0001
0100
1000
0100
0101
0000
,  // measure 32
1001
0000
1000
0001
0010
0000
0001
0010
,  // measure 33
0100
1000
0001
0010
0001
1000
0010
0000
,  // measure 34
0101
0000
0100
0000
0100
0000
0001
0010
,  // measure 35
0100
0000
1000
0100
0001
0100
1100
0000
,  // measure 36
1001
0000
1000
0001
0100
0000
1000
0100
,  // measure 37
0002
1000
1000
1003
,  // measure 38
0201
0000
1000
0000
0301
0100
0010
0000
,  // measure 39
1200
0000
0010
0000
1300
0010
0100
0000
,  // measure 40
1001
0000
0000
0001
0000
0000
0001
0000
0000
0000
1000
0000
0020
0000
0000
0000
,  // measure 41
0130
0000
0000
0000
0001
1000
0001
0000
0010
0000
0000
0100
0000
0000
1000
0000
,  // measure 42
0201
0000
0010
0000
0301
0010
0100
0000
,  // measure 43
1200
0000
0010
0000
1300
0100
0010
0000
,  // measure 44
1001
0000
0000
0001
0000
0000
0001
0000
0000
0000
1000
0000
0100
0000
0000
0000
,  // measure 45
1001
2002
0000
0000
,  // measure 46
0000
0000
0000
0000
,  // measure 47
3003
0000
0000
0000
;

//---------------dance-single - ----------------
#NOTES:
     dance-single:
     :
     Beginner:
     1:
     0.083196,0.145593,0.077650,0.000000,0.000000,45.000000,39.000000,6.000000,0.000000,0.000000,0.000000,0.083196,0.145593,0.077650,0.000000,0.000000,45.000000,39.000000,6.000000,0.000000,0.000000,0.000000:
// measure 0
0000
0000
0000
0000
,  // measure 1
0000
0000
0000
0000
,  // measure 2
0000
0000
0000
0000
,  // measure 3
0000
0000
0000
0000
,  // measure 4
0000
0000
0000
0000
,  // measure 5
0000
0000
0000
0000
,  // measure 6
0001
0000
0000
0000
,  // measure 7
0000
0000
0000
0000
,  // measure 8
0010
0000
0000
0000
,  // measure 9
0000
0000
0000
0000
,  // measure 10
0001
0000
0000
0000
,  // measure 11
0000
0000
0000
0000
,  // measure 12
1000
0000
0000
0000
,  // measure 13
0000
0000
0000
0000
,  // measure 14
1001
0000
0000
0000
,  // measure 15
0000
0000
0000
0000
,  // measure 16
0010
0000
0000
0000
,  // measure 17
0010
0000
0000
0000
,  // measure 18
1001
0000
0000
0000
,  // measure 19
0000
0000
0000
0000
,  // measure 20
0100
0000
0000
0000
,  // measure 21
1001
0000
0000
0001
,  // measure 22
0000
0010
0000
0010
,  // measure 23
0000
0010
0000
0000
,  // measure 24
0000
0001
0000
0001
,  // measure 25
0000
0001
0000
0000
,  // measure 26
0000
1000
0000
1000
,  // measure 27
0000
1000
0000
0000
,  // measure 28
0000
0100
0000
0100
,  // measure 29
0000
0100
0000
0000
,  // measure 30
1000
0000
0000
0000
,  // measure 31
0001
0000
0000
0000
,  // measure 32
1000
0000
0000
0000
,  // measure 33
0001
0000
0000
0000
,  // measure 34
0100
0000
0000
0000
,  // measure 35
0010
0000
0000
0000
,  // measure 36
0100
0000
0000
0000
,  // measure 37
0010
0000
0000
0000
,  // measure 38
1001
0000
0000
0000
,  // measure 39
0100
0000
0000
0000
,  // measure 40
0100
0000
0000
0000
,  // measure 41
0010
0000
0000
0000
,  // measure 42
1001
0000
0000
0000
,  // measure 43
1000
0000
0000
0000
,  // measure 44
0001
0000
0000
0000
,  // measure 45
1001
0000
0000
0000
;

//---------------dance-single - ----------------
#NOTES:
     dance-single:
     :
     Medium:
     8:
     0.371610,0.425780,0.362366,0.232949,0.025883,201.000000,173.000000,28.000000,18.000000,0.000000,0.000000,0.371610,0.425780,0.362366,0.232949,0.025883,201.000000,173.000000,28.000000,18.000000,0.000000,0.000000:
// measure 0
0000
0000
0000
0000
,  // measure 1
0000
0000
0000
0000
,  // measure 2
0000
0000
0000
0000
,  // measure 3
0000
0000
0000
0000
,  // measure 4
0000
0000
0000
0000
,  // measure 5
0000
0000
0000
0000
,  // measure 6
1001
0100
1000
0100
,  // measure 7
1000
0000
0110
0000
0001
0100
1000
0000
,  // measure 8
1001
0100
0001
0100
,  // measure 9
0001
0000
0110
0000
1000
0100
0001
0000
,  // measure 10
1001
0000
0001
1000
1000
0000
0100
0000
,  // measure 11
1000
0000
0110
0000
0001
0100
1000
0000
,  // measure 12
1001
0000
1000
0001
0001
0000
0100
0000
,  // measure 13
0001
0000
0110
0000
1000
0100
0001
0000
,  // measure 14
2001
0000
0000
0000
0000
3010
0100
0000
,  // measure 15
1002
0000
0000
0000
0000
0103
0010
0000
,  // measure 16
1000
0000
0000
1000
0000
0000
1000
0000
0000
0000
0001
0000
0010
0000
0000
0000
,  // measure 17
1001
0000
0010
0001
2000
0000
3001
0000
,  // measure 18
1002
0000
0000
0000
0000
0103
0010
0000
,  // measure 19
2001
0000
0000
0000
0000
3010
0100
0000
,  // measure 20
0001
0000
0000
0001
0000
0000
0001
0000
0000
0000
1000
0000
0100
0000
0000
0000
,  // measure 21
1001
2002
0000
3003
,  // measure 22
0001
0010
0001
0000
0010
0001
0100
0000
,  // measure 23
0010
1000
0100
1001
,  // measure 24
1000
0100
1000
0000
0100
1000
0010
0000
,  // measure 25
0100
0001
0010
1001
,  // measure 26
0001
0100
0001
0000
0100
0001
1000
0000
,  // measure 27
0100
0000
0001
0100
1000
0000
1001
0000
,  // measure 28
1000
0010
1000
0000
0010
1000
0001
0000
,  // measure 29
0100
0001
1000
1001
,  // measure 30
0002
0100
0100
0103
,  // measure 31
0010
0000
1000
0000
0010
0100
0010
0000
,  // measure 32
2000
0010
0010
3010
,  // measure 33
0100
0001
1000
1001
,  // measure 34
0002
0100
0100
0103
,  // measure 35
0010
0000
1000
0000
0010
0100
0010
0000
,  // measure 36
2000
0010
0010
3010
,  // measure 37
1001
0001
0001
0001
,  // measure 38
2001
0000
0000
0000
0000
3010
0100
0000
,  // measure 39
1002
0000
0000
0000
0000
0103
0010
0000
,  // measure 40
1000
0000
0000
1000
0000
0000
1000
0000
0000
0000
0001
0000
0100
0000
0000
0000
,  // measure 41
1001
0000
0100
1000
0002
0000
1003
0000
,  // measure 42
2001
0000
0001
0000
0000
3010
0100
0000
,  // measure 43
1002
0000
1000
0000
0000
0103
0010
0000
,  // measure 44
1000
0000
0000
1000
0000
0000
1000
0000
0000
0000
0001
0000
0100
0000
0000
0000
,  // measure 45
1001
2002
0000
0000
,  // measure 46
0000
0000
0000
0000
,  // measure 47
3003
0000
0000
0000
;

//---------------dance-single - ----------------
#NOTES:
     dance-single:
     :
     Challenge:
     12:
     0.619350,0.669083,0.685907,0.155300,0.278245,335.000000,282.000000,53.000000,12.000000,0.000000,0.000000,0.619350,0.669083,0.685907,0.155300,0.278245,335.000000,282.000000,53.000000,12.000000,0.000000,0.000000:
// measure 0
0000
0000
0000
0000
,  // measure 1
0000
0000
0000
0000
,  // measure 2
0000
0000
0000
0000
,  // measure 3
0000
0000
0000
0000
,  // measure 4
0000
0000
0000
0000
,  // measure 5
0000
0000
0000
0000
,  // measure 6
1001
0000
0001
0100
0001
1000
0100
0010
,  // measure 7
0000
0000
0010
0000
0001
0000
1000
0010
1000
0010
1000
0000
1010
0000
0000
0000
,  // measure 8
1001
0000
1000
0100
1000
0001
0100
0010
,  // measure 9
0000
0000
0010
0000
0100
0001
1000
0000
0100
1000
0100
0000
1100
0000
0000
0000
,  // measure 10
1001
0000
0001
0100
0010
0001
0010
0100
,  // measure 11
0000
0000
0001
0000
1000
0000
0010
1000
0010
1000
0010
0000
1010
0000
0000
0000
,  // measure 12
1001
0000
1000
0100
0010
1000
0010
0100
,  // measure 13
0000
0000
1000
0000
0010
1000
0001
0000
0010
0001
0010
0000
0011
0000
0000
0000
,  // measure 14
1200
0000
0000
0000
0000
0000
0010
0000
0000
0000
0000
0000
1300
0000
0000
0010
0000
0100
0001
0000
0000
0000
0000
0000
,  // measure 15
0021
0000
0000
0000
0000
0000
0100
0000
0000
0000
0000
0000
0031
0000
0000
0100
0000
0010
1000
0000
0000
0000
0000
0000
,  // measure 16
1001
0000
0000
0000
0000
0000
0000
0000
0000
0011
0000
0000
0000
0000
0000
0000
0000
0000
0011
0000
0000
0000
0000
0000
0000
0000
0000
0000
0000
0000
0100
0000
0000
0000
1000
0000
0010
0000
0000
0000
0000
0000
0000
0000
0000
0000
0000
0000
,  // measure 17
1010
0000
0000
0000
0100
0001
1000
0000
0100
1000
0100
0000
1100
0000
0000
0000
,  // measure 18
0021
0000
0000
0000
0000
0000
0100
0000
0000
0000
0000
0000
0031
0000
0000
0100
0000
0010
1000
0000
0000
0000
0000
0000
,  // measure 19
1200
0000
0000
0000
0000
0000
0010
0000
0000
0000
0000
0000
1300
0000
0000
0010
0000
0100
0001
0000
0000
0000
0000
0000
,  // measure 20
1001
0000
0000
0000
0000
0000
0000
0000
0000
1100
0000
0000
0000
0000
0000
0000
0000
0000
1100
0000
0000
0000
0000
0000
0000
0000
0000
0000
0000
0000
0010
0000
0000
0000
0001
0000
0100
0000
0000
0000
0000
0000
0000
0000
0000
0000
0000
0000
,  // measure 21
1001
1002
0000
0103
,  // measure 22
1001
0000
1000
0002
1003
0100
0010
0001
,  // measure 23
0000
0000
0001
0000
0100
0000
0010
1000
0010
1000
0001
0000
1001
0000
0000
0000
,  // measure 24
0001
0010
0001
1000
0001
0010
0100
1000
,  // measure 25
0000
0000
1000
0000
0010
0000
0100
0001
0100
0001
1000
0000
1001
0000
0000
0000
,  // measure 26
0101
0000
0001
2000
3001
0010
0100
1000
,  // measure 27
0000
0000
1000
0000
0001
0000
0100
0001
0100
0001
1000
0000
1001
0000
0000
0000
,  // measure 28
1000
0010
1000
0001
1000
0010
0100
0001
,  // measure 29
0000
0000
0001
0000
1000
0000
0100
1000
0100
1000
0001
0000
0101
0000
0000
0000
,  // measure 30
1001
0000
1000
1001
0010
0100
1000
0010
,  // measure 31
0001
0000
0010
0000
2000
0000
3001
0100
0010
0100
0001
0000
0101
0000
0000
0000
,  // measure 32
0001
0100
0001
1001
0100
0010
0001
1000
,  // measure 33
0010
0000
1000
0000
0001
0010
0100
0000
1000
0001
0100
0001
1000
0000
0001
0000
,  // measure 34
1001
0000
1000
1001
0010
0100
1000
0010
,  // measure 35
0100
0000
0010
0000
2000
0000
3001
0010
0001
0010
0100
0000
0110
0000
0000
0000
,  // measure 36
0001
0100
0001
1001
0100
0010
0001
1000
,  // measure 37
0010
0010
0010
0010
,  // measure 38
1001
0000
0000
0100
0000
0000
1100
0000
0000
0000
0000
0000
1000
0000
0000
0001
0000
0100
0001
0000
0000
0000
0000
0000
,  // measure 39
1001
0000
0000
0100
0000
0000
0101
0000
0000
0000
0000
0000
0001
0000
0000
1000
0000
0100
1000
0000
0000
0000
0000
0000
,  // measure 40
1001
0000
0000
0000
0000
0000
0000
0000
0000
0101
0000
0000
0000
0000
0000
0000
0000
0000
0101
0000
0000
0000
0000
0000
0000
0000
0000
0000
0000
0000
0001
0000
0000
0000
1000
0000
0100
0000
0000
0000
0000
0000
0000
0000
0000
0000
0000
0000
,  // measure 41
1001
0000
0000
0000
0100
1000
0020
0000
0100
0000
0000
0100
0000
0000
0130
0000
,  // measure 42
1001
0000
0000
0100
0000
0000
0101
0000
0000
0000
0000
0000
1000
0000
0000
0001
0000
0100
0001
0000
0000
1000
0000
0000
,  // measure 43
1001
0000
0000
0010
0000
0000
0011
0000
0000
0000
0000
0000
1000
0000
0000
0001
0000
0100
0010
0000
0000
0000
0000
0000
,  // measure 44
1001
0000
0000
0000
0000
0000
0000
0000
0000
1010
0000
0000
0000
0000
0000
0000
0000
0000
1010
0000
0000
0000
0000
0000
0000
0000
0000
0000
0000
0000
1000
0000
0000
0000
0100
0000
0010
0000
0000
0000
0000
0000
0000
0000
0000
0000
0000
0000
,  // measure 45
1001
2002
0000
0000
,  // measure 46
0000
0000
0000
0000
,  // measure 47
3003
0000
0000
0000
;
