#TITLE:ばらんが!!!!;
#SUBTITLE:;
#ARTIST:かめりあ feat. ななひら;
#TITLETRANSLIT:VALANGA!!!!;
#SUBTITLETRANSLIT:;
#ARTISTTRANSLIT:CAMELLIA feat. NANAHIRA;
#GENRE:;
#CREDIT:DigiMindAxel;
#BANNER:VALANGA!!!!.png;
#BACKGROUND:VALANGA!!!!-bg.png;
#LYRICSPATH:;
#CDTITLE:SOUND VOLTEX.png;
#MUSIC:VALANGA!!!!.ogg;
#OFFSET:-0.395000;
#SAMPLESTART:18.055367;
#SAMPLELENGTH:12.000000;
#SELECTABLE:YES;
#BPMS:0.000000=285.000000
;
#STOPS:
;
#BGCHANGES:;
#KEYSOUNDS:;
#ATTACKS:;

//---------------dance-single - ----------------
#NOTES:
     dance-single:
     :
     Easy:
     9:
     0.364841,0.524824,0.280928,0.136207,0.000000,300.000000,267.000000,33.000000,16.000000,0.000000,0.000000,0.364841,0.524824,0.280928,0.136207,0.000000,300.000000,267.000000,33.000000,16.000000,0.000000,0.000000:
0000
0000
0000
0000
,
0000
0000
0000
0000
,
0000
0000
0000
0000
,
0000
0000
0000
0000
,
0000
0000
0000
0000
,
0000
0000
0000
0000
,
0000
0000
0000
0000
,
0000
0000
0000
0000
,
0000
0000
0000
0000
,
0000
0000
0000
0000
,
0000
0000
0000
0000
,
1000
0000
0000
0001
0000
0000
1000
0000
,
0000
0001
0000
0000
1000
0000
0000
0001
,
0000
0000
1000
0000
0000
0001
0000
0000
,
1000
0000
0000
0001
0000
0000
1000
0000
,
0001
0010
0001
0010
,
0100
1000
0100
1000
,
0001
0100
0010
1000
,
0001
0010
0100
0000
,
1001
0000
0000
0000
,
2002
0000
0000
3003
,
1000
0000
1000
0000
,
1000
0000
0001
0000
,
0001
0000
0001
0000
,
0001
0000
0010
0000
,
0100
0000
0100
0000
,
0100
0000
0100
0000
,
1000
0001
1000
0001
,
1000
0001
1000
0001
,
0100
0000
0100
0000
,
0100
0000
0100
0000
,
0010
0000
0010
0000
,
0010
0000
1000
0000
,
0001
0000
0001
0000
,
0001
0000
0001
0000
,
2002
0000
0000
0000
,
0000
0000
0000
3003
,
0001
0000
0000
0001
0000
0000
0001
0000
,
0000
0001
0000
0000
0001
0000
0010
0000
,
0001
0000
0000
0000
,
0000
0000
0000
0000
,
1000
0000
0000
1000
0000
0000
1000
0000
,
0000
1000
0000
0000
1000
0000
0100
0000
,
1000
0000
0000
0000
,
0000
0000
0000
0000
,
0001
0000
0000
0001
0000
0000
0001
0000
,
0000
0001
0000
0000
0001
0000
0100
0000
,
0001
0000
0000
0000
,
0000
0000
0000
0000
,
1000
0000
0000
1000
0000
0000
1000
0000
,
0000
1000
0000
0000
1000
0000
0010
0000
,
1000
0000
0000
0000
,
0001
0000
0001
0000
,
1000
0000
0000
0100
0000
0000
1000
0000
,
0000
0100
0000
0000
1000
0000
0001
0000
,
1000
0000
0000
0000
,
0001
0000
0010
0000
,
0100
0000
0000
0010
0000
0000
0100
0000
,
0000
0010
0000
0000
1000
0000
0001
0000
,
1000
0000
0100
0000
,
0010
0000
0000
0000
,
0001
0000
0000
0001
0000
0000
0001
0000
,
0000
0001
0000
0000
0010
0000
0100
0000
,
1000
0000
0000
1000
0000
0000
1000
0000
,
0000
1000
0000
0000
0100
0000
0010
0000
,
0001
0000
0000
0001
0000
0000
0001
0000
,
0000
0001
0000
0000
0100
0000
0010
0000
,
1000
0000
0000
1000
0000
0000
1000
0000
,
0000
1000
0000
0000
0010
0000
0100
0000
,
0002
0000
2003
0000
,
3002
0000
2003
0000
,
3100
0000
0100
0000
,
0110
0000
0000
0000
,
1001
0000
1001
0000
,
0001
1000
0100
0010
,
0000
0001
0000
1000
,
0100
1000
0010
0000
,
1001
0000
0000
1001
,
0000
0000
1001
0000
,
0110
0000
0000
0010
,
0100
0010
0100
0001
,
0010
0000
0100
0000
,
1000
0001
1000
0001
,
0000
0100
0000
0000
,
1001
0000
0000
0000
,
1001
0000
0000
0000
,
0110
0000
0000
0000
,
0110
0000
0000
0000
,
0010
0100
0010
0100
,
1001
0000
1001
0000
,
0001
0010
0001
1000
,
0000
0010
0000
1000
,
0100
0010
0001
0100
,
0110
0000
0000
0110
,
0000
0000
0110
0000
,
1001
0000
0010
0000
,
0100
0000
1000
0000
,
0001
0000
1001
0000
,
1000
0000
0100
0000
,
0000
1000
0100
0010
,
0001
0100
0001
0000
,
1001
0000
0000
0000
,
1001
0000
0000
0000
,
1001
0000
0000
0000
,
0010
0000
0010
0000
,
0110
0000
0000
0000
,
0110
0000
0000
0000
,
0110
0000
0000
0000
,
0100
0000
0100
0000
,
1001
0000
0000
0000
,
1001
0000
0000
0000
,
2002
0000
0000
0000
,
3003
0000
0000
0000
,
0001
0000
0001
0000
,
0100
0000
0100
0000
,
0010
0000
0010
0000
,
1000
0000
1000
0000
,
0100
0000
0100
0000
,
0010
0000
0010
0000
,
0001
0010
0100
1000
,
0001
0010
0100
1000
,
0001
0000
0001
0000
,
0100
0000
0100
0000
,
0010
0000
0010
0000
,
1000
0000
1000
0000
,
0001
0100
0001
0100
,
0010
1000
0010
1000
,
0001
0000
0010
0000
0000
0000
0000
0100
,
0000
1000
0000
0001
0000
0000
0000
2002
,
0000
0000
0000
0000
0000
0000
0000
3003
,
0000
0000
0000
0000
,
0000
0000
0000
0000
,
0000
0000
0000
0000
,
2002
0000
0000
3003
,
1000
0000
0001
0000
0010
0000
0000
0100
,
0000
1000
0000
0001
0000
0000
2002
0000
,
0000
0000
0000
0000
,
3003
0000
0000
0000
;

//---------------dance-single - ----------------
#NOTES:
     dance-single:
     :
     Medium:
     13:
     0.619014,0.816393,0.578881,0.349031,0.000000,509.000000,441.000000,68.000000,41.000000,0.000000,0.000000,0.619014,0.816393,0.578881,0.349031,0.000000,509.000000,441.000000,68.000000,41.000000,0.000000,0.000000:
0000
0000
0000
0000
,
0000
0000
0000
0000
,
0000
0000
0000
0000
,
0000
0000
0000
0000
,
0000
0000
0000
0000
,
0000
0000
0000
0000
,
0000
0000
0000
0000
,
0000
0000
0000
0000
,
0000
0000
0000
0000
,
0000
0000
0000
0000
,
0000
0000
0000
0000
,
0001
0000
0000
0100
0000
0000
0001
0000
,
0000
0100
0000
0000
1000
0000
0000
0100
,
0000
0000
1000
0000
0000
0100
0000
0000
,
0001
0000
0000
0010
0000
0000
0001
0000
,
1000
1000
0010
0010
,
0100
0100
0001
0001
,
1000
0001
1000
0000
0100
1000
0100
0000
,
0010
0001
0010
0000
0100
1000
0100
0000
,
1000
0001
0000
0100
0000
0010
0000
1000
,
0002
0000
0000
0003
,
1000
0100
0010
0100
,
1000
0100
0010
0100
,
1000
0100
0010
0100
,
1000
0000
0100
0000
0010
0000
0001
1000
,
0001
0100
0010
0100
,
0001
0000
0100
0000
0010
0100
0010
0000
,
1001
1000
1100
1000
,
1001
0001
0011
0001
,
1000
0010
0100
0010
,
1000
0010
0100
0010
,
1000
0010
0100
0010
,
1000
0000
0010
0000
0100
0000
0001
1000
,
0001
0010
0100
0010
,
0001
0000
0010
0000
0100
0010
0100
0000
,
1001
0000
1001
0000
0000
0000
0000
0010
,
0000
0010
0000
0110
0000
0000
0000
0000
,
0001
1000
0000
0001
1000
0000
0001
1000
,
0000
0001
1000
0000
0001
0000
0001
0000
,
1001
0000
0000
0000
,
1000
0100
0010
0001
,
1000
0001
0000
1000
0001
0000
1000
0001
,
0000
1000
0001
0000
1000
0000
1000
0000
,
1001
0000
0000
0000
,
0020
0000
0230
0000
,
0301
1000
0000
0001
1000
0000
0001
1000
,
0000
0001
1000
0000
0001
0000
0001
0000
,
1001
0000
0000
0000
,
1000
0100
0010
0001
,
1000
0001
0000
1000
0001
0000
1000
0001
,
0000
1000
0001
0000
1000
0000
1000
0000
,
1001
0000
0000
0000
,
0010
0100
0101
0000
,
0010
1000
0000
0010
1000
0000
0001
0100
,
0000
0001
0100
0000
0001
0000
0001
0000
,
1001
0000
0100
0010
,
0001
0100
0010
1000
,
0100
0010
0000
0100
0010
0000
0001
0010
,
0000
0001
0010
0000
0100
0000
0100
0000
,
0110
0000
0001
0100
,
0020
0000
2030
0000
,
3001
0010
0000
0001
0010
0000
0100
1000
,
0000
0100
1000
0000
0010
0000
0010
0000
,
0100
0001
0000
0100
0001
0000
1000
0010
,
0000
1000
0010
0000
0100
0000
0100
0000
,
0001
1000
0000
0001
1000
0000
0100
0010
,
0000
0100
0010
0000
0001
0000
0001
0000
,
0100
0001
0000
0100
0001
0000
0010
0100
,
0000
0010
0100
0000
1000
0000
1000
0000
,
0002
0023
0230
2300
,
3002
0203
0320
2030
,
3010
0100
0000
0010
0100
0000
0001
1000
,
0001
0000
0000
0000
,
0101
0100
0101
0100
,
0001
0010
1000
0010
,
0001
0000
1001
0000
0000
0000
0100
1000
,
0010
0010
0100
0100
,
1001
0000
0000
1100
0000
0000
1001
0000
,
0000
0011
0000
0000
1001
0000
1000
0000
,
2020
0000
0000
0000
3030
0000
0100
0001
,
1000
0100
0010
0001
,
2002
3003
0220
0330
,
0001
0100
1000
0100
,
0001
0000
1001
0000
0000
0000
0100
0010
,
1000
0000
0000
1000
0000
0000
1000
0000
,
2002
0000
0000
0000
3003
0000
0010
0100
,
0001
0000
0000
0001
0000
0000
0001
0000
,
2002
0000
0000
0000
3003
0000
0100
0010
,
1000
1000
0010
0010
,
0101
0100
0101
0100
,
0001
0010
1000
0010
,
0001
0000
1001
0000
0000
0000
0010
0100
,
1000
1000
0010
0010
,
1001
0000
0000
1001
0000
0000
0110
0000
,
0000
0110
0000
0000
1001
0000
0001
0000
,
1001
0000
0011
0000
,
0110
0000
1100
0000
,
2002
3003
0220
0330
,
1000
0100
0001
0100
,
1000
0000
1001
0000
0010
0100
0010
0000
,
1000
0000
0000
1010
0000
0000
0000
0000
,
1001
0000
0000
1001
0000
0000
0000
0000
,
0110
0000
0000
0110
0000
0000
0000
0000
,
1001
0000
0000
1001
0000
0000
0000
0000
,
0102
0000
1003
0000
,
1001
0000
0000
1001
0000
0000
0000
0000
,
0011
0000
0000
0011
0000
0000
0000
0000
,
1100
0000
0000
1100
0000
0000
0000
0000
,
2002
0000
3003
0000
,
0202
0000
0000
0303
,
2020
0000
0000
3030
,
1000
0001
0000
0010
0000
0100
0000
1000
,
0002
0000
0000
0000
,
1003
0100
0010
0100
,
1000
0100
0010
0100
,
1000
0100
0010
0100
,
1000
0000
0100
0000
0010
0100
0010
0000
,
0001
0100
0010
0100
,
0001
0000
0100
0000
0010
0100
0010
0000
,
1000
0001
1000
0000
0100
1000
0100
0000
,
0010
0001
0010
0000
0001
1000
0001
0000
,
0100
0010
1000
0010
,
0100
0010
1000
0010
,
0100
0010
1000
0010
,
0100
0000
0010
0000
1000
0001
1000
0000
,
0100
0010
0001
0010
,
0100
0000
0010
0000
0001
1000
0001
1000
,
0001
0000
1001
0000
0000
0000
0000
0100
,
0000
0100
0000
0101
0000
0000
0000
2002
,
0000
0000
0000
0000
0000
0000
0000
3003
,
0000
0000
0000
0000
,
0000
0000
0000
0000
,
0000
0000
0000
0000
,
0220
0000
0000
0330
,
1001
0000
1001
0000
0000
0000
0000
0100
,
0000
0100
0000
1100
0000
0000
2002
0000
,
0000
0000
0000
0000
,
3003
0000
0000
0000
;

//---------------dance-single - ----------------
#NOTES:
     dance-single:
     :
     Hard:
     15:
     0.820892,1.049648,0.936425,0.638472,0.051078,675.000000,565.000000,110.000000,75.000000,0.000000,0.000000,0.820892,1.049648,0.936425,0.638472,0.051078,675.000000,565.000000,110.000000,75.000000,0.000000,0.000000:
0000
0000
0000
0000
,
0000
0000
0000
0000
,
0000
0000
0000
0000
,
0000
0000
0000
0000
,
0000
0000
0000
0000
,
0000
0000
0000
0000
,
0000
0000
0000
0000
,
0000
0000
0000
0000
,
0000
0000
0000
0000
,
0000
0000
0000
0000
,
0000
0000
0000
0000
,
1000
0100
1000
0100
,
0010
0100
0010
0100
,
0001
0010
0001
0010
,
0001
1000
0001
1000
,
0001
1000
0001
0000
1000
0100
1000
0000
,
0010
0100
0010
0000
0100
0001
1000
0100
,
0010
0001
1000
0100
1000
0100
0010
0001
,
0010
0001
0100
0010
1000
0010
0100
0010
,
1000
0100
0000
0100
0000
0100
0000
2000
,
0002
0000
0000
3003
,
0001
0100
0001
0000
0001
0100
0001
0000
,
0001
0100
0001
0000
0001
0100
0001
0000
,
1000
0100
1000
0000
1000
0100
1000
0000
,
1000
0100
1000
0000
1000
0100
1000
0010
,
0100
0000
0100
0001
0100
0000
0100
0001
,
0100
0000
0100
0001
1000
0100
0010
0000
,
0101
0101
1010
1010
,
1001
1001
0110
0110
,
0100
1000
0100
0000
0100
1000
0100
0000
,
0100
1000
0100
0000
0100
1000
0100
0000
,
0010
0100
0010
0000
0010
0100
0010
0000
,
0010
0100
0010
0000
0010
0100
0001
1000
,
0010
0000
0010
1000
0010
0000
0010
1000
,
0010
0000
0010
1000
0001
0010
0100
0000
,
1001
0000
1001
0000
1000
0001
0000
0101
,
0000
0101
0000
0202
0000
0000
0303
0000
,
1000
0100
0000
0010
0001
0000
1000
0100
,
0000
0010
0001
0000
0110
0000
0110
0000
,
2002
0000
0000
3003
,
1000
0100
0010
0001
1000
0100
0010
0001
,
1000
0010
0000
0100
0001
0000
1000
0010
,
0000
0100
0001
0000
0110
0000
0110
0000
,
2002
0000
0000
3003
,
0001
0000
0010
0000
0100
0000
1000
0000
0100
0000
0010
0000
,
0001
0100
0000
0010
1000
0000
0001
0100
,
0000
0010
1000
0000
0110
0000
0110
0000
,
2002
0000
0000
3003
,
0001
0100
0010
1000
0001
0100
0010
1000
,
0001
0010
0000
0100
1000
0000
0001
0010
,
0000
0100
1000
0000
0110
0000
0110
0000
,
2002
0000
0000
3003
,
2200
3300
0022
0033
,
0001
1000
0000
0010
0100
0000
0001
1000
,
0000
0010
0100
0000
0101
0000
0101
0000
,
1001
0000
0200
2300
,
3001
0010
0100
1000
0001
0010
0100
1000
,
0001
0100
0000
0010
0100
0000
0001
0100
,
0000
0010
0100
0000
0011
0000
0011
0000
,
1001
0000
0002
0203
,
0301
0000
0100
0000
0010
0000
1000
0000
0010
0000
0100
0000
,
0001
1000
0000
0100
1000
0000
0001
1000
,
0000
0100
1000
0000
0110
0000
0110
0000
,
0001
0100
0000
0001
1000
0000
0001
0100
,
0000
0001
1000
0000
0110
0000
0110
0000
,
1000
0100
0000
1000
0001
0000
1000
0100
,
0000
1000
0001
0000
0110
0000
0110
0000
,
1000
0010
0000
1000
0001
0000
1000
0010
,
0000
1000
0001
0000
0110
0000
0110
0000
,
2000
3200
0302
0203
,
2300
3200
0302
0203
,
1300
0100
0000
1000
0001
0000
0100
0001
,
1000
0100
0010
0001
,
1001
0000
1000
0100
1000
0000
1000
0100
,
1000
1001
0001
0101
,
0100
0000
1001
0000
0000
0000
0100
1000
,
0001
1001
1100
1100
,
2002
0000
3003
0220
0000
0330
2200
0000
,
3300
0220
0000
0330
0101
0000
0001
0000
,
0220
0000
0000
0000
0330
0000
0100
0010
,
1000
0100
0010
0001
,
0202
0303
2020
3030
,
0100
0001
1000
0000
1000
0000
1010
0000
,
0010
0000
1001
0000
0000
0000
0010
0100
,
0001
1000
0000
0001
1000
0000
0100
0000
,
2002
0000
0000
0000
3003
0000
0100
0010
,
1000
0001
0000
1000
0001
0000
0010
0000
,
2002
0000
0000
0000
3003
0000
0001
1000
,
0100
1100
1100
1100
,
1001
0000
0001
0100
0001
0000
0001
0100
,
0001
1001
1000
1100
,
0100
0000
1001
0000
0000
0000
0010
0100
,
0001
0001
0101
0100
,
2002
0000
3003
0220
0000
0330
2200
0000
,
3300
0220
0000
0330
0101
0000
0001
0000
,
0220
0300
2000
3000
,
0200
0300
2000
3030
,
0202
0000
0303
0000
1010
0000
0100
0010
,
1000
1100
0100
0110
,
0010
0000
1001
0000
0010
0001
1000
0000
,
2020
0000
3030
0202
0000
0303
0000
0000
,
1001
0000
0000
1001
0000
0000
0100
0000
,
1001
0000
0000
1001
0000
0000
0100
0000
,
1001
0000
0000
1001
0000
0000
0000
0000
,
0011
0100
2020
3030
,
1001
0000
0000
1001
0000
0000
0010
0000
,
1001
0000
0000
1001
0000
0000
0010
0000
,
1001
0000
0000
1001
0000
0000
0010
0000
,
2002
0000
0000
3003
,
0001
0010
0000
0010
0000
0010
0000
0010
,
0100
1000
0000
1000
0000
1000
0000
1000
,
0001
0100
0000
0101
0000
0101
0000
0002
,
2000
0000
0000
3003
,
0001
0100
0001
0000
0001
0100
0001
0000
,
0001
0100
0001
0000
0001
0100
0001
0000
,
1000
0100
1000
0000
1000
0100
1000
0000
,
1000
0100
1000
0000
1000
0010
0100
0001
,
0010
0100
0010
0000
0010
0100
0010
0000
,
0010
0100
0010
0000
0010
0100
0001
1000
,
0010
1000
0010
1000
0001
0100
0001
0100
,
0001
1000
0001
1000
0100
0010
0100
0010
,
0001
1000
0001
0000
0001
1000
0001
0000
,
0001
1000
0001
0000
0001
1000
0001
0000
,
1000
0100
1000
0000
1000
0100
1000
0000
,
1000
0100
1000
0000
1000
0100
1000
0010
,
0100
0001
0100
0001
1000
0100
0010
0100
,
1000
0010
0001
0010
1000
0100
0001
0100
,
1100
0000
1100
0000
1000
0001
0000
0101
,
0000
0101
0000
0101
0000
0000
0000
2002
,
0000
0000
0000
0000
0000
0000
0000
3003
,
0000
0000
0000
0000
,
0000
0000
0000
0000
,
0000
0000
0000
0000
,
0001
0000
0010
0000
0100
0000
1000
0000
0100
0000
0010
0000
,
0101
0000
0101
0000
0001
1000
0000
1100
,
0000
1100
0000
1100
0000
0000
2002
0000
,
0000
0000
0000
0000
,
3003
0000
0000
0000
;

//---------------dance-single - ----------------
#NOTES:
     dance-single:
     :
     Challenge:
     17:
     0.948587,1.282902,1.021555,0.689550,0.153233,780.000000,660.000000,120.000000,81.000000,0.000000,0.000000,0.948587,1.282902,1.021555,0.689550,0.153233,780.000000,660.000000,120.000000,81.000000,0.000000,0.000000:
0000
0000
0000
0000
,
0000
0000
0000
0000
,
0000
0000
0000
0000
,
0000
0000
0000
0000
,
0000
0000
0000
0000
,
0000
0000
0000
0000
,
0000
0000
0000
0000
,
0000
0000
0000
0000
,
0000
0000
0000
0000
,
0000
0000
0000
0000
,
0000
0000
0000
0000
,
1000
0100
0010
0001
1000
0100
0010
0001
,
1000
0100
0010
0001
1000
0100
0010
0001
,
1000
0010
0100
0001
1000
0010
0100
0001
,
1000
0010
0100
0001
1000
0010
0100
0001
,
1000
0100
1000
0001
0100
0001
1000
0100
,
1000
0001
0100
0001
1000
0100
1000
0010
,
1000
0100
0001
0100
1000
0010
0001
0010
,
1000
0100
1000
0010
0100
0010
0100
0001
0010
0001
0100
0010
,
1000
1001
0000
1001
0000
1001
0000
0002
,
2000
0000
0000
3003
,
1000
0100
0001
0000
1000
0100
0010
0000
,
1000
0100
0001
0000
1000
0100
0010
0000
,
1000
0010
0001
0000
1000
0010
0100
0000
,
1000
0010
0001
0000
1000
0010
0100
1000
,
0001
0010
1000
0000
0001
0010
0100
0000
,
0001
0010
1000
0000
0001
0010
0100
0001
,
2200
3300
0202
0303
2200
3300
0202
0303
,
2200
3300
0202
0303
2200
3300
0202
0303
,
0001
0100
1000
0000
0001
0100
0010
0000
,
0001
0100
1000
0000
0001
0100
0010
0000
,
0001
0010
1000
0000
0001
0010
0100
0000
,
0001
0010
1000
0000
0001
0010
0100
0001
,
1000
0100
0001
0000
1000
0100
0010
0000
,
1000
0100
0001
0000
1000
0100
0010
1000
,
1001
0000
1001
0000
0100
1000
0010
0110
,
0000
0110
0000
2002
0000
0000
3003
0000
,
1000
1100
0000
0001
0101
0000
1000
1100
,
0000
0001
0101
0000
1001
0000
1001
0000
,
0220
0000
0000
0330
,
1000
0001
0100
1000
0100
0001
1000
0001
,
1000
1100
0000
0001
0101
0000
1000
1100
,
0000
0001
0101
0000
1001
0000
1001
0000
,
0220
0000
0000
0330
,
0001
0000
0100
0000
1000
0000
0100
0000
0001
0000
0010
0000
,
0001
0011
0000
1000
1010
0000
0001
0011
,
0000
1000
1010
0000
1001
0000
1001
0000
,
0220
0000
0000
0330
,
1000
0001
0100
1000
0100
0001
0010
0100
,
1000
1010
0000
0001
0011
0000
1000
1010
,
0000
0001
0011
0000
1001
0000
1001
0000
,
0220
0000
0000
0330
,
0100
1000
0100
1000
0001
0100
0001
0000
,
1000
1100
0000
0010
0110
0000
1000
1100
,
0000
0010
0110
0000
1001
0000
1001
0000
,
0110
0010
0100
0010
,
1000
0001
0100
1000
0100
0001
1000
0100
,
0010
0110
0000
0001
0101
0000
0010
0110
,
0000
0001
0101
0000
1001
0000
1001
0000
,
0110
0100
0010
0100
,
0001
0000
0010
0000
1000
0000
0010
0000
0001
0000
0100
0000
,
0001
0100
1000
0100
0001
1000
0100
0001
,
0100
1000
0001
0100
0110
0000
0110
0000
,
1000
0010
0001
0010
1000
0001
0100
1000
,
0100
0001
1000
0010
0110
0000
0110
0000
,
0001
0100
1000
0100
0001
1000
0010
0001
,
0010
1000
0001
0010
0110
0000
0110
0000
,
1000
0010
0001
0010
1000
0001
0100
0010
,
1000
0001
1000
0010
0100
0010
0100
0001
0010
0100
1000
0001
,
2000
3020
2030
3020
,
0230
0302
0203
0302
,
0103
0110
0000
1000
1001
0000
0010
0100
,
0001
0001
0100
0100
,
1000
0001
0100
0000
0001
1000
0100
0000
,
0010
1001
0100
1001
,
0010
0000
1001
0000
0000
0000
1000
0010
,
0100
0001
1000
0100
0010
0001
1000
0000
,
2002
0000
3003
0220
0000
0330
2200
0000
,
3300
0220
0000
0330
0101
0000
1001
0000
,
0220
0000
0000
0000
0330
0000
0100
0010
,
1000
0100
0010
0001
1000
0010
0100
0000
,
0220
0000
0330
0000
1001
0000
1000
0010
,
0100
0001
1000
0000
1100
0000
0010
0000
,
0011
0000
1001
0000
0000
0000
0100
0010
,
0100
0000
0000
0110
0000
0000
0110
0000
,
2002
0000
0000
0000
3003
0000
0010
0100
,
0010
0000
0000
0110
0000
0000
0110
0000
,
2002
0000
0000
0000
3003
0000
0001
0100
,
0010
1000
0001
0010
0100
1000
0001
0000
,
1000
0001
0010
0000
0001
1000
0010
0000
,
0100
1001
0010
1001
,
0100
0000
1001
0000
0000
0000
0100
1000
,
0001
0001
0100
0100
,
2002
0000
3003
0220
0000
0330
2200
0000
,
3300
0220
0000
0330
0101
0000
1001
0000
,
0220
0000
0330
0000
1000
0100
0010
0001
,
1000
1000
0010
0010
,
0220
0000
0330
0000
1001
0000
0001
1000
,
0100
1001
0010
0110
,
0100
0000
0001
1000
0100
0000
0010
0001
,
2000
0000
0000
0020
0000
0000
3030
0000
,
1002
0000
0000
0013
0100
1000
0010
0000
,
1002
0000
0000
0013
0100
1000
0010
0000
,
1002
0000
0000
0013
0100
1000
0010
0000
,
0100
0001
1000
0100
0020
0000
0030
0000
,
2001
0000
0000
3010
0100
0001
1000
0000
,
2001
0000
0000
3010
0100
0001
1000
0000
,
2001
0000
0000
3010
0100
0001
1000
0000
,
0001
0100
0001
1000
0100
1000
0001
0000
,
0200
0001
0000
0001
0000
0001
0000
0301
,
2000
0100
0000
0100
0000
0100
0000
3100
,
0010
1001
0000
1001
0000
1001
0000
2000
,
0002
0000
0000
3003
,
0001
0100
1000
0000
0100
0010
1000
0000
,
0001
0100
1000
0000
0100
0010
1000
0000
,
0001
0010
1000
0000
0001
0010
0100
0000
,
0001
0010
1000
0000
0001
0010
0100
0001
,
1000
0100
0001
0000
1000
0100
0010
0000
,
1000
0100
0001
0000
1000
0100
0010
1000
,
0001
0010
1000
0010
0001
1000
0010
0001
,
0010
1000
0001
0100
1000
0100
0001
0010
,
0001
0100
1000
0000
0100
0010
1000
0000
,
0001
0100
1000
0000
0100
0010
1000
0000
,
0001
0010
1000
0000
0001
0010
0100
0000
,
0001
0010
1000
0000
0001
0010
0100
0001
,
1000
0100
0001
0100
1000
0010
0100
0001
,
1000
0100
1000
0010
0100
0010
0100
0001
0010
0001
0100
0010
,
1000
0000
1001
0000
0010
0100
0001
1001
,
0000
1001
0000
1001
0000
0000
0220
0000
,
0000
0000
0000
0000
,
0330
0000
0000
0000
,
0000
0000
0000
0000
,
0000
0000
0000
0000
,
1000
0000
1000
0000
0010
0000
0010
0000
0100
0000
0100
0000
,
0001
0000
1001
0000
0100
0010
1000
1001
,
0000
1001
0000
1001
0000
0000
0220
0000
,
0000
0000
0000
0000
,
0330
0000
0000
0000
;

//---------------dance-single - ----------------
#NOTES:
     dance-single:
     :
     Beginner:
     4:
     0.147153,0.346690,0.212824,0.000000,0.000000,121.000000,96.000000,25.000000,0.000000,0.000000,0.000000,0.147153,0.346690,0.212824,0.000000,0.000000,121.000000,96.000000,25.000000,0.000000,0.000000,0.000000:
// measure 0
0000
0000
0000
0000
,  // measure 1
0000
0000
0000
0000
,  // measure 2
0000
0000
0000
0000
,  // measure 3
0000
0000
0000
0000
,  // measure 4
0000
0000
0000
0000
,  // measure 5
0000
0000
0000
0000
,  // measure 6
0000
0000
0000
0000
,  // measure 7
0000
0000
0000
0000
,  // measure 8
0000
0000
0000
0000
,  // measure 9
0000
0000
0000
0000
,  // measure 10
0000
0000
0000
0000
,  // measure 11
1000
0000
0000
0000
,  // measure 12
1000
0000
0000
0000
,  // measure 13
0001
0000
0000
0000
,  // measure 14
0001
0000
0000
0000
,  // measure 15
0100
0000
0000
0000
,  // measure 16
0010
0000
0000
0000
,  // measure 17
1000
0000
0000
0000
,  // measure 18
0001
0000
0000
0000
,  // measure 19
1001
0000
0000
0000
,  // measure 20
0000
0000
0000
0000
,  // measure 21
1000
0000
0000
0000
,  // measure 22
1000
0000
0000
0000
,  // measure 23
0100
0000
0000
0000
,  // measure 24
0100
0000
0000
0000
,  // measure 25
0010
0000
0000
0000
,  // measure 26
0010
0000
0000
0000
,  // measure 27
0001
0000
1000
0000
,  // measure 28
0001
0000
1000
0000
,  // measure 29
0001
0000
0000
0000
,  // measure 30
0001
0000
0000
0000
,  // measure 31
0100
0000
0000
0000
,  // measure 32
0100
0000
0000
0000
,  // measure 33
0010
0000
0000
0000
,  // measure 34
0010
0000
0000
0000
,  // measure 35
1001
0000
0000
0000
,  // measure 36
0000
0000
0000
0000
,  // measure 37
1001
0000
0000
0000
,  // measure 38
0000
0000
0000
0000
,  // measure 39
0000
0000
0000
0000
,  // measure 40
0000
0000
0000
0000
,  // measure 41
0110
0000
0000
0000
,  // measure 42
0000
0000
0000
0000
,  // measure 43
0000
0000
0000
0000
,  // measure 44
0000
0000
0000
0000
,  // measure 45
1001
0000
0000
0000
,  // measure 46
0000
0000
0000
0000
,  // measure 47
0000
0000
0000
0000
,  // measure 48
0000
0000
0000
0000
,  // measure 49
0110
0000
0000
0000
,  // measure 50
0000
0000
0000
0000
,  // measure 51
0000
0000
0000
0000
,  // measure 52
0000
0000
0000
0000
,  // measure 53
1001
0000
0000
0000
,  // measure 54
0001
0000
0000
0000
,  // measure 55
0001
0000
0000
0000
,  // measure 56
1000
0000
0000
0000
,  // measure 57
1001
0000
0000
0000
,  // measure 58
1000
0000
0000
0000
,  // measure 59
1000
0000
0000
0000
,  // measure 60
0001
0000
0000
0000
,  // measure 61
1001
0000
0000
0000
,  // measure 62
0000
0000
0000
0000
,  // measure 63
1001
0000
0000
0000
,  // measure 64
0000
0000
0000
0000
,  // measure 65
0110
0000
0000
0000
,  // measure 66
0000
0000
0000
0000
,  // measure 67
0110
0000
0000
0000
,  // measure 68
0000
0000
0000
0000
,  // measure 69
1000
0000
0000
0000
,  // measure 70
0000
0000
0000
0000
,  // measure 71
0000
0000
0000
0000
,  // measure 72
0000
0000
0000
0000
,  // measure 73
1001
0000
0000
0000
,  // measure 74
0001
0000
0000
0000
,  // measure 75
0001
0000
0000
0000
,  // measure 76
0100
0000
0000
0000
,  // measure 77
0110
0000
0000
0000
,  // measure 78
0000
0000
0000
0000
,  // measure 79
0000
0000
0000
0000
,  // measure 80
0010
0000
0000
0000
,  // measure 81
0010
0000
0000
0000
,  // measure 82
1000
0000
0000
0000
,  // measure 83
1000
0000
0000
0000
,  // measure 84
0100
0000
0000
0000
,  // measure 85
0100
0000
0000
0000
,  // measure 86
0010
0000
0000
0000
,  // measure 87
0010
0000
0000
0000
,  // measure 88
0001
0000
0000
0000
,  // measure 89
1000
0000
0000
0000
,  // measure 90
0001
0000
0000
0000
,  // measure 91
0010
0000
0000
0000
,  // measure 92
0001
0000
0000
0000
,  // measure 93
1001
0000
0000
0000
,  // measure 94
0000
0000
0000
0000
,  // measure 95
1000
0000
0000
0000
,  // measure 96
1000
0000
0000
0000
,  // measure 97
0010
0000
0000
0000
,  // measure 98
0100
0000
0000
0000
,  // measure 99
0010
0000
0000
0000
,  // measure 100
0000
0000
0000
0000
,  // measure 101
1001
0000
0000
0000
,  // measure 102
0001
0000
0000
0000
,  // measure 103
1001
0000
0000
0000
,  // measure 104
0000
0000
0000
0000
,  // measure 105
1001
0000
0000
0000
,  // measure 106
1000
0000
0000
0000
,  // measure 107
1001
0000
0000
0000
,  // measure 108
0000
0000
0000
0000
,  // measure 109
1001
0000
0000
0000
,  // measure 110
0110
0000
0000
0000
,  // measure 111
1001
0000
0000
0000
,  // measure 112
0000
0000
0000
0000
,  // measure 113
0001
0000
0000
0000
,  // measure 114
0001
0000
0000
0000
,  // measure 115
0100
0000
0000
0000
,  // measure 116
0100
0000
0000
0000
,  // measure 117
0010
0000
0000
0000
,  // measure 118
0010
0000
0000
0000
,  // measure 119
1000
0000
0001
0000
,  // measure 120
1000
0000
0001
0000
,  // measure 121
1000
0000
0000
0000
,  // measure 122
1000
0000
0000
0000
,  // measure 123
0001
0000
0000
0000
,  // measure 124
0001
0000
0000
0000
,  // measure 125
0100
0000
0000
0000
,  // measure 126
0100
0000
0000
0000
,  // measure 127
0110
0000
0000
0000
,  // measure 128
0000
0000
0000
0000
,  // measure 129
0000
0000
0000
0000
,  // measure 130
0000
0000
0000
0000
,  // measure 131
0000
0000
0000
0000
,  // measure 132
0000
0000
0000
0000
,  // measure 133
0010
0000
0000
0000
,  // measure 134
0110
0000
0000
0000
,  // measure 135
0000
0000
0000
1001
;
