#TITLE:海のトリトン(SEXY MERMAID MIX);
#SUBTITLE:;
#ARTIST:KAORU feat. RIE;
#TITLETRANSLIT:UMI NO TRITON(SEXY MERMAID MIX);
#SUBTITLETRANSLIT:;
#ARTISTTRANSLIT:;
#GENRE:;
#CREDIT:DigiMindAxel;
#BANNER:UMI NO TRITON(SEXY MERMAID MIX).png;
#BACKGROUND:UMI NO TRITON(SEXY MERMAID MIX)-bg.png;
#LYRICSPATH:UMI NO TRITON(SEXY MERMAID MIX).lrc;
#CDTITLE:Konami original REMIX.png;
#MUSIC:UMI NO TRITON(SEXY MERMAID MIX).ogg;
#OFFSET:-0.419000;
#SAMPLESTART:24.351879;
#SAMPLELENGTH:12.000000;
#SELECTABLE:YES;
#BPMS:0.000000=140.000000
;
#STOPS:
;
#BGCHANGES:;
#KEYSOUNDS:;
#ATTACKS:;

//---------------dance-single - ----------------
#NOTES:
     dance-single:
     :
     Easy:
     4:
     0.188567,0.252956,0.036413,0.236684,0.000000,145.000000,141.000000,4.000000,26.000000,0.000000,0.000000,0.188567,0.252956,0.036413,0.236684,0.000000,145.000000,141.000000,4.000000,26.000000,0.000000,0.000000:
0000
0000
0000
0000
,
0000
0000
0000
0000
,
0000
0000
0000
0000
,
0000
0000
0000
0000
,
0000
0000
0000
0000
,
0000
0000
0000
0000
,
2000
0000
0000
3000
,
0002
0000
0000
0003
,
2000
0000
0000
3000
,
0002
0000
0000
0003
,
0020
0000
0000
0030
,
0200
0000
0000
0300
,
0020
0000
0000
0030
,
0200
0000
0000
0300
,
1000
0001
1000
0000
,
0001
1000
0001
0010
,
0200
0000
0000
0000
,
0300
0000
0000
0000
,
1000
0001
1000
0000
,
0001
1000
0001
0010
,
0200
0000
0000
0000
,
0300
1000
0010
1000
,
0002
0000
0013
0000
,
0000
0100
1000
0100
,
2000
0000
3010
0000
,
0000
0000
0100
0001
,
0200
0000
0320
0000
,
0030
1000
0100
0010
,
0002
0000
2003
0000
,
3001
0001
1000
1000
,
0001
0100
0001
0000
,
1000
0010
1000
0100
,
0020
0000
0000
0000
,
0030
0000
0000
0000
,
0001
1000
0001
0000
,
1000
0001
1000
0010
,
0200
0000
0000
0000
,
0300
0001
1000
0100
,
2000
0000
3002
0000
,
0003
0100
0010
0100
,
0002
0000
2003
0000
,
3000
0000
0100
0010
,
0002
0000
0203
0000
,
0320
0000
1030
0100
,
0020
0000
0000
0000
,
0031
0001
1000
1000
,
0001
1001
0000
0000
,
0100
0010
1000
0010
,
0100
0110
0000
0000
,
0001
0010
0100
0010
,
0001
1001
0000
0000
,
0100
0010
1000
0001
,
1000
1001
0000
0000
,
0010
0100
0001
0010
,
0100
1000
0100
1000
,
0010
0100
0010
0100
,
0001
0010
0001
0010
,
0001
1000
0001
1000
,
0100
0010
0100
0010
,
0001
0100
0001
0100
,
0010
1000
0010
1000
,
0100
0010
0001
1000
;

//---------------dance-single - ----------------
#NOTES:
     dance-single:
     :
     Medium:
     8:
     0.336820,0.422021,0.136549,0.646330,0.045516,259.000000,244.000000,15.000000,71.000000,0.000000,0.000000,0.336820,0.422021,0.136549,0.646330,0.045516,259.000000,244.000000,15.000000,71.000000,0.000000,0.000000:
0000
0000
0000
0000
,
0000
0000
0000
0000
,
0000
0000
0000
0000
,
0000
0000
0000
0000
,
0000
0000
0000
0000
,
0000
0000
0000
0000
,
1000
0100
0001
0000
0100
0000
1000
0000
,
0020
0230
0302
2003
,
3001
0010
1000
0000
0010
0000
0001
0000
,
0020
0230
2300
3002
,
1003
0100
0001
0000
0100
0000
1000
0000
,
0200
0320
0032
2003
,
3001
0010
1000
0000
0010
0000
0001
0000
,
1000
0000
0100
0000
0010
0000
0001
0000
0000
0000
0100
0000
0000
0100
0000
0000
,
1002
0203
2300
3200
,
0302
0000
1003
0000
0001
0010
0100
1000
,
0020
0100
0100
0130
,
0010
0010
0010
0010
,
2000
3020
0032
0023
,
2030
0000
3001
0000
1000
0010
0100
0001
,
0020
0100
0100
0130
,
2000
0000
3200
0000
0320
0000
0031
1000
,
0002
0000
0000
1000
2000
0000
0000
0000
,
3003
0000
0000
0000
0001
0000
0000
0000
0010
0000
0000
0100
0000
0000
1000
0000
,
0002
0000
0000
1000
2000
0000
0000
0000
,
0000
3003
1000
0100
,
0020
0000
0002
0000
,
0033
0000
0000
0000
0001
0000
0000
0000
1000
0000
0000
0010
0000
0000
0100
0000
,
0002
0000
0000
1000
2000
0000
3003
0000
,
0001
0000
0010
0000
0100
0000
1000
0000
0000
0000
0010
0000
0000
0010
0000
0000
,
2000
3200
0302
0023
,
2030
0000
3001
0000
1000
0100
0010
0001
,
2000
0010
0010
3010
,
1100
1100
0011
0011
,
0002
0203
2300
3020
,
0032
0000
1003
0000
0001
0100
0010
1000
,
0200
0010
0010
0310
,
0002
0000
2003
0000
3001
0000
1000
0100
,
0020
0000
0002
0000
,
0033
0000
0000
0000
1000
0000
0000
0000
0001
0000
0000
0100
0000
0000
0010
0000
,
2000
0000
0000
0001
0002
0000
0000
0000
,
0000
3003
2000
3020
,
0230
0000
0000
0000
0300
0000
0000
0000
0001
0000
0000
0010
0000
0000
0100
0000
,
2000
0000
3002
0203
,
0320
0100
0100
0130
,
0001
0000
0010
0000
0100
0000
1000
0000
0000
0000
0010
0000
0000
0010
0000
0000
,
1001
2002
0000
3003
,
1000
0100
0000
0012
0000
0000
1003
0010
,
1000
2002
0000
3003
,
0001
0010
0000
2100
0000
0000
3001
0100
,
0001
2002
0000
3003
,
1000
0010
0000
0102
0000
0000
1003
0001
,
1000
2002
0000
3003
,
1000
0000
0010
0000
0100
0000
0001
0000
0000
0000
0100
0000
0000
0100
0000
0000
,
1001
0000
0001
0010
0100
0010
0100
0000
,
1000
0000
0001
0010
0100
1000
0100
0010
,
0001
0000
0100
0010
0100
0010
1000
0000
,
0100
0000
0000
0000
1000
0000
0000
0000
0010
0000
0100
0000
0000
0001
0000
0000
,
1001
0000
0100
0010
0100
0010
0001
0000
,
0100
0000
0001
0100
0010
1000
0010
0100
,
0001
0000
0100
0000
0010
0100
0001
0000
,
1000
0000
0100
0000
0010
0000
0001
0000
0000
0000
0100
0000
0000
0100
0000
0000
;

//---------------dance-single - ----------------
#NOTES:
     dance-single:
     :
     Hard:
     12:
     0.508481,0.597400,0.163858,0.464265,0.377784,391.000000,373.000000,18.000000,51.000000,0.000000,0.000000,0.508481,0.597400,0.163858,0.464265,0.377784,391.000000,373.000000,18.000000,51.000000,0.000000,0.000000:
// measure 0
0000
0000
0000
0000
,  // measure 1
0000
0000
0000
0000
,  // measure 2
0000
0000
0000
0000
,  // measure 3
0000
0000
0000
0000
,  // measure 4
0000
0000
0000
0000
,  // measure 5
0000
0000
0000
0000
,  // measure 6
0001
0000
0010
0002
0000
0000
0000
0000
0000
0000
0003
0000
1000
0010
0100
0001
,  // measure 7
2000
0000
0000
0000
3002
0000
0000
0000
1003
0100
0010
0100
2000
0000
0000
0000
,  // measure 8
3001
0000
0100
0002
0000
0000
0000
0000
0000
0000
0003
0000
1000
0100
0010
0001
,  // measure 9
2000
0000
0000
0000
3002
0000
0000
0000
1003
0010
0100
0010
2000
0000
0000
0000
,  // measure 10
3001
0000
0010
0002
0000
0000
0000
0000
0000
0000
0003
0000
1000
0010
0100
0001
,  // measure 11
2000
0000
0000
0000
3002
0000
0000
0000
1003
0100
0010
0100
2000
0000
0000
0000
,  // measure 12
3010
0000
0100
0020
0000
0000
0000
0000
0000
0000
0030
0000
1000
0100
0010
0001
,  // measure 13
1000
0000
1000
0000
0010
0100
0001
2000
0000
0000
3100
0010
0000
0010
0001
0000
,  // measure 14
1000
0010
1000
0001
1000
0010
1000
0001
,  // measure 15
1000
0010
1000
0001
0010
1000
0010
0001
,  // measure 16
2000
0000
0000
0000
0001
0000
0000
0001
0000
0000
3001
0000
0000
1000
0000
1000
,  // measure 17
0100
0000
0000
0000
0010
0000
0000
0010
0000
0000
0010
0001
1000
0000
1000
0000
,  // measure 18
0001
0100
0001
1000
0001
0100
0001
1000
,  // measure 19
0001
0100
0001
1000
0100
0001
0100
1000
,  // measure 20
0002
0000
0000
0000
1000
0000
0000
1000
0000
0000
1003
0000
0000
0001
0000
0001
,  // measure 21
0200
0000
0000
0000
0320
0000
0000
0000
1030
0000
0010
0100
0001
0000
0001
0000
,  // measure 22
1000
0100
0001
0100
2000
0000
0010
0000
,  // measure 23
3010
0000
0000
0000
0200
0000
0000
0000
0301
0000
0000
0010
0000
0000
0100
0000
,  // measure 24
1000
0010
0001
0010
2000
0000
0001
0000
,  // measure 25
0001
0000
0000
0000
3001
0000
0000
0000
1000
0000
0010
1000
0001
0000
0001
0000
,  // measure 26
1000
0100
0001
0100
2000
0000
0100
0000
,  // measure 27
3100
0000
0000
0000
0020
0000
0000
0000
0031
0000
0000
0100
0000
0000
0010
0000
,  // measure 28
1000
0010
0001
0010
2000
0000
0001
0000
,  // measure 29
3001
0000
0001
0000
1000
0010
0100
0001
0000
0000
1000
0001
0000
0001
0010
0000
,  // measure 30
0100
0000
0000
0100
1000
0000
0000
1000
0010
0000
0000
0010
0001
0000
0000
0001
,  // measure 31
0010
0000
0000
0010
1000
0000
0000
0000
0100
0000
0010
0000
0001
0000
0010
0000
,  // measure 32
0200
0000
0000
0000
1000
0000
0000
1000
0000
0000
1300
0000
0000
0001
0000
0001
,  // measure 33
0100
0000
0000
0000
0010
0000
0000
0010
0000
0000
0010
1000
0001
0000
0001
0000
,  // measure 34
0100
0000
0000
0100
0001
0000
0000
0001
0100
0000
0000
0100
1000
0000
0000
1000
,  // measure 35
0100
0000
0000
0100
0001
0000
0000
0000
0010
0000
0100
0000
1000
0000
0010
0000
,  // measure 36
0200
0000
0000
0000
0001
0000
0000
0001
0000
0000
0301
0000
0000
1000
0000
1000
,  // measure 37
0020
0000
0000
0000
0230
0000
0000
0000
0301
0000
0100
0001
1000
0000
1000
0000
,  // measure 38
0001
0010
1000
0010
0002
0000
0100
0000
,  // measure 39
0103
0000
0000
0000
0020
0000
0000
0000
1030
0000
0000
0100
0000
0000
0010
0000
,  // measure 40
0001
0100
1000
0100
0002
0000
1000
0000
,  // measure 41
1000
0000
0000
0000
1003
0000
0000
0000
0001
0000
0000
0001
1000
0000
0200
0000
,  // measure 42
2000
0000
0000
0000
3300
0000
0000
0000
1000
0000
0000
1000
0001
0000
0200
0000
,  // measure 43
0002
0000
0000
0000
0303
0000
0000
0000
0001
0000
0000
0001
1000
0000
0100
0000
,  // measure 44
0020
0000
0000
0000
0001
0000
0000
0001
0000
0000
0001
0000
0000
0001
0000
0031
,  // measure 45
1000
0000
1000
0000
0001
0100
0010
1000
0000
0000
0001
1000
0000
1000
0100
0000
,  // measure 46
0101
0202
0000
0303
,  // measure 47
0001
0011
0000
2010
0000
0000
0010
3010
,  // measure 48
1001
2002
0000
3003
,  // measure 49
0100
1100
0000
0102
0000
0000
0100
0103
,  // measure 50
1010
2020
0000
3030
,  // measure 51
0100
0101
0000
2100
0000
0000
0100
3100
,  // measure 52
1001
2002
0000
3003
,  // measure 53
1000
0000
1000
0000
0001
0010
0100
1000
0000
0000
0001
1000
0000
1000
0010
0000
,  // measure 54
1000
0001
0100
0001
1000
0001
0100
0001
,  // measure 55
1001
0000
2000
0000
0000
0000
3100
0010
0001
0000
0001
0000
0100
0001
0000
0001
,  // measure 56
1000
0100
1000
0001
1000
0100
1000
0001
,  // measure 57
1001
0000
2000
0000
0000
0000
3010
0000
0000
0000
0100
0001
1000
0000
1000
0000
,  // measure 58
0001
0010
0001
1000
0001
0010
0001
1000
,  // measure 59
1001
0000
0002
0000
0000
0000
0103
0010
1000
0000
1000
0000
0100
1000
0000
1000
,  // measure 60
0001
0100
0001
1000
0001
0100
0001
1000
,  // measure 61
1001
0000
0001
0000
1000
0100
0010
0001
0000
0000
0100
0001
0000
0001
2000
0000
,  // measure 62
0000
0000
3000
0000
;

//---------------dance-single - ----------------
#NOTES:
     dance-single:
     :
     Beginner:
     1:
     0.067624,0.138824,0.036413,0.000000,0.000000,52.000000,48.000000,4.000000,0.000000,0.000000,0.000000,0.067624,0.138824,0.036413,0.000000,0.000000,52.000000,48.000000,4.000000,0.000000,0.000000,0.000000:
0000
0000
0000
0000
,
0000
0000
0000
0000
,
0000
0000
0000
0000
,
0000
0000
0000
0000
,
0000
0000
0000
0000
,
0000
0000
0000
0000
,
1000
0000
0000
0000
,
0100
0000
0000
0000
,
1000
0000
0000
0000
,
0001
0000
0000
0000
,
1000
0000
0000
0000
,
0100
0000
0000
0000
,
1000
0000
0000
0000
,
0001
0000
0000
0000
,
0010
0000
0000
0000
,
0010
0000
0000
0000
,
0010
0000
0000
0000
,
0000
0000
0000
0000
,
0100
0000
0000
0000
,
0100
0000
0000
0000
,
0100
0000
0000
0000
,
0000
0000
0000
0000
,
1000
0000
0000
0000
,
0001
0000
0000
0000
,
1000
0000
0000
0000
,
0000
0000
0000
0000
,
0001
0000
0000
0000
,
1000
0000
0000
0000
,
0001
0000
0000
0000
,
0000
0000
0000
0000
,
0010
0000
0000
0000
,
0001
0000
0000
0000
,
0100
0000
0000
0000
,
0000
0000
0000
0000
,
0010
0000
0000
0000
,
1000
0000
0000
0000
,
0100
0000
0000
0000
,
0000
0000
0000
0000
,
1000
0000
0000
0000
,
0001
0000
0000
0000
,
0100
0000
0000
0000
,
0000
0000
0000
0000
,
0001
0000
0000
0000
,
1000
0000
0000
0000
,
0100
0000
0000
0000
,
0000
0000
0000
0000
,
1001
0000
0000
0000
,
1000
0000
0000
0000
,
1001
0000
0000
0000
,
0001
0000
0000
0000
,
1001
0000
0000
0000
,
1000
0000
0000
0000
,
1001
0000
0000
0000
,
0001
0000
0000
0000
,
0010
0000
0000
0000
,
0001
0000
0000
0000
,
0100
0000
0000
0000
,
0010
0000
0000
0000
,
1000
0000
0000
0000
,
0100
0000
0000
0000
,
1000
0000
0000
0000
,
0001
0000
0000
0000
;
