#VERSION:0.83;
#TITLE:Synchronized Love '95 Original Version;
#SUBTITLE:;
#ARTIST:JOE RINOIE;
#TITLETRANSLIT:;
#SUBTITLETRANSLIT:;
#ARTISTTRANSLIT:;
#GENRE:;
#ORIGIN:;
#CREDIT:DigiMindAxel;
#BANNER:Synchronized Love '95 Original Version.png;
#BACKGROUND:Synchronized Love '95 Original Version-bg.png;
#PREVIEWVID:;
#JACKET:Synchronized Love '95 Original Version-jacket.png;
#CDIMAGE:;
#DISCIMAGE:;
#LYRICSPATH:Synchronized Love '95 Original Version.lrc;
#CDTITLE:DigiMindAxel original simfile.png;
#MUSIC:Synchronized Love '95 Original Version.ogg;
#OFFSET:-0.585000;
#SAMPLESTART:72.126869;
#SAMPLELENGTH:12.000000;
#SELECTABLE:YES;
#BPMS:0.000=124.000;
#STOPS:48.000=0.483871;
#DELAYS:;
#WARPS:;
#TIMESIGNATURES:0.000=4=4;
#TICKCOUNTS:0.000=4;
#COMBOS:0.000=1;
#SPEEDS:0.000=1.000=0.000=0;
#SCROLLS:0.000=1.000;
#FAKES:;
#LABELS:0.000=Song Start;
#BGCHANGES:;
#KEYSOUNDS:;
#ATTACKS:
;

//---------------dance-single - ----------------
#NOTEDATA:;
#CHARTNAME:;
#STEPSTYPE:dance-single;
#DESCRIPTION:;
#CHARTSTYLE:;
#DIFFICULTY:Beginner;
#METER:2;
#RADARVALUES:0.128571,0.174125,0.070000,0.000000,0.000000,90.000000,83.000000,7.000000,0.000000,0.000000,0.000000,0.000000,0.000000,0.000000,0.128571,0.174125,0.070000,0.000000,0.000000,90.000000,83.000000,7.000000,0.000000,0.000000,0.000000,0.000000,0.000000,0.000000;
#CREDIT:;
#NOTES:
// measure 0
0000
0000
0000
0000
,  // measure 1
0000
0000
0000
0000
,  // measure 2
0000
0000
0000
0000
,  // measure 3
0000
0000
0000
0000
,  // measure 4
0010
0000
0100
0000
,  // measure 5
0010
0000
0000
0000
,  // measure 6
1000
0000
0001
0000
,  // measure 7
1000
0000
0000
0000
,  // measure 8
0100
0000
0010
0000
,  // measure 9
0100
0000
0000
0000
,  // measure 10
1000
0000
0001
0000
,  // measure 11
1000
0100
0010
0001
,  // measure 12
0000
0000
0000
1001
,  // measure 13
0000
0010
0000
0001
,  // measure 14
0000
1000
0000
0001
,  // measure 15
0000
0010
0000
0100
,  // measure 16
0000
1000
0000
0001
,  // measure 17
0000
1000
0000
0100
,  // measure 18
0000
0010
0000
0001
,  // measure 19
0000
0000
0000
1000
,  // measure 20
0000
0000
0000
1001
,  // measure 21
0000
0010
0000
0100
,  // measure 22
0000
1000
0000
0001
,  // measure 23
0000
1000
0000
0010
,  // measure 24
0000
0100
0000
0001
,  // measure 25
0000
0000
0000
0010
,  // measure 26
0000
0100
0000
1000
,  // measure 27
0000
0001
1000
0001
,  // measure 28
0000
0000
0000
0110
,  // measure 29
0000
0000
0000
0000
,  // measure 30
0000
0000
0000
1001
,  // measure 31
0000
0000
0000
0001
,  // measure 32
0010
0100
1000
0001
,  // measure 33
0000
0000
0000
0000
,  // measure 34
0000
0000
0000
1000
,  // measure 35
0000
0000
0000
0001
,  // measure 36
1000
0001
1000
0001
,  // measure 37
0000
0001
0000
1000
,  // measure 38
0000
1000
0000
0010
,  // measure 39
0000
0010
0000
0100
,  // measure 40
0000
0100
0000
0001
,  // measure 41
0000
0001
0000
1000
,  // measure 42
0000
1000
0000
0100
,  // measure 43
0000
0100
0000
0010
,  // measure 44
0000
0010
0000
1001
,  // measure 45
0000
0000
0000
0000
,  // measure 46
0010
0100
0010
1001
,  // measure 47
0000
0000
0000
0000
,  // measure 48
0100
0010
0100
0001
,  // measure 49
0000
1000
0000
0110
;

//---------------dance-single - ----------------
#NOTEDATA:;
#CHARTNAME:;
#STEPSTYPE:dance-single;
#DESCRIPTION:;
#CHARTSTYLE:;
#DIFFICULTY:Medium;
#METER:8;
#RADARVALUES:0.370000,0.399500,0.350000,0.100000,0.035000,259.000000,224.000000,35.000000,10.000000,0.000000,0.000000,0.000000,0.000000,0.000000,0.370000,0.399500,0.350000,0.100000,0.035000,259.000000,224.000000,35.000000,10.000000,0.000000,0.000000,0.000000,0.000000,0.000000;
#CREDIT:;
#NOTES:
0000
0000
0000
0000
,
0000
0000
0000
0000
,
0000
0000
0000
0000
,
0000
0000
0000
0000
,
0010
0100
0001
0010
0100
0000
1000
0000
,
1001
1100
0010
1001
,
0001
0010
0001
0100
0000
0010
0000
0010
,
0100
1001
0011
1100
,
0010
0001
0010
0001
0000
1000
0100
0010
,
0001
0100
0101
1010
,
0100
0010
1000
0100
0010
0000
0001
0000
,
0101
1100
0110
1001
,
0000
0000
0000
1001
,
0010
0100
1000
0000
0010
0000
0100
0000
,
0001
0010
1000
1001
,
0100
0010
0001
0000
0100
0000
0010
0000
,
1000
0000
0100
1000
0100
0010
0001
0000
,
0010
0000
0100
0010
0001
0010
0100
0000
,
1000
0100
0000
0001
0000
0100
1000
0000
,
0001
0000
1000
0000
0100
0010
0002
0000
,
0000
2003
0000
0000
3000
0000
1001
0000
,
1000
0010
0100
0001
1000
0100
1000
0000
,
0100
0000
0001
0000
0100
0000
1000
0100
,
0010
0100
1000
0010
0100
0010
0000
1000
,
0000
0100
0000
0001
0100
1000
0001
0000
,
1000
0000
0000
0000
0100
0000
0000
0000
0010
0000
0000
0000
1001
0000
0000
1000
,
0000
0000
1000
0000
0001
0000
0000
0001
0000
0000
0001
0000
1000
0000
0000
0000
,
0100
0010
0001
0000
0011
0000
1002
0000
,
0000
2000
3003
0120
,
0000
0100
0000
0001
,
0000
1000
0030
0210
,
0000
0001
0000
1300
,
1010
0001
0101
1001
,
0100
0010
0000
0010
1000
0100
0010
0000
,
0001
0100
0000
0100
0001
0010
0100
0000
,
0001
0000
1000
0000
0000
0000
1000
0000
0100
0000
0000
0000
1000
0010
0000
0000
,
1000
0010
0000
0000
0100
0001
0000
0000
0100
0001
0000
0000
0100
0000
0010
0000
,
1000
0100
1000
0000
0000
1010
0000
0010
,
0100
0001
0010
0000
0000
0101
0000
0100
,
0010
1000
0100
0010
0001
1000
1000
0001
,
0100
0000
1001
0000
0000
1100
0000
1000
,
0100
0010
0001
0000
0000
0101
0000
0001
,
0010
0100
1000
0000
0000
1010
0000
1000
,
0010
0100
0001
0000
1001
0000
1000
0100
,
0010
0000
1001
0000
0010
0100
2000
0000
,
0000
0000
3002
0000
0000
0103
0000
0001
,
0010
0100
0010
0001
1000
0000
0200
0000
,
0000
0000
0320
0000
0000
0031
0000
1000
,
0010
0100
0010
1000
0100
0001
0100
0000
,
1100
0000
0000
0000
1000
0000
0000
0000
1010
0000
0000
0000
0110
0000
0000
0110
;

//---------------dance-single - ----------------
#NOTEDATA:;
#CHARTNAME:;
#STEPSTYPE:dance-single;
#DESCRIPTION:;
#CHARTSTYLE:;
#DIFFICULTY:Easy;
#METER:4;
#RADARVALUES:0.228571,0.323375,0.170000,0.120000,0.000000,160.000000,143.000000,17.000000,12.000000,0.000000,0.000000,0.000000,0.000000,0.000000,0.228571,0.323375,0.170000,0.120000,0.000000,160.000000,143.000000,17.000000,12.000000,0.000000,0.000000,0.000000,0.000000,0.000000;
#CREDIT:;
#NOTES:
0000
0000
0000
0000
,
0000
0000
0000
0000
,
0000
0000
0000
0000
,
0000
0000
0000
0000
,
1000
1000
1000
0001
,
0000
1000
0100
0010
,
0001
0001
0001
1000
,
0000
0001
0100
0010
,
1000
1000
1000
0001
,
0000
0010
0100
1000
,
0001
0001
0001
1000
,
0001
0010
0100
1000
,
0000
0000
0000
0010
,
0100
0001
0010
0200
,
0000
0000
0300
1000
,
0001
0100
0010
0200
,
0000
0000
0300
0001
,
1000
0001
0010
0100
,
1000
0010
0100
0020
,
0000
0000
0030
1000
,
0000
1001
0000
0000
0000
0000
1001
0000
,
0010
0100
1000
0002
,
0000
0000
0003
1000
,
0010
0100
0010
2000
,
0000
3002
0000
1003
,
0001
1000
0001
0110
,
0000
0110
0000
1001
,
0000
1001
0100
0020
,
0000
0032
0000
1003
,
0000
0100
1000
0010
,
0100
1001
0000
0110
,
0000
0100
0001
1000
,
0100
0010
0001
1001
,
0000
1000
0000
0000
1000
0000
0001
0000
,
0000
0001
0000
0000
0001
0000
1000
0000
,
0000
1000
0000
0000
1000
0000
0010
0000
,
0010
0010
1001
0001
,
0001
0001
0000
1000
,
1000
1000
0000
0001
,
0010
0100
1000
0010
,
0110
0010
1000
0001
,
0001
0001
0000
1000
,
1000
1000
0000
0100
,
0010
0001
0100
0110
,
0010
0110
0110
1002
,
0000
0000
2003
0000
0000
3001
0000
0000
,
1000
0100
0010
1002
,
0000
0000
2003
0000
0000
3001
0000
0000
,
1000
0010
0100
0001
,
1000
0001
0001
0110
;

//---------------dance-single - ----------------
#NOTEDATA:;
#CHARTNAME:;
#STEPSTYPE:dance-single;
#DESCRIPTION:;
#CHARTSTYLE:;
#DIFFICULTY:Hard;
#METER:11;
#RADARVALUES:0.498571,0.549312,0.380000,0.350000,0.320000,349.000000,311.000000,38.000000,35.000000,0.000000,0.000000,0.000000,0.000000,0.000000,0.498571,0.549312,0.380000,0.350000,0.320000,349.000000,311.000000,38.000000,35.000000,0.000000,0.000000,0.000000,0.000000,0.000000;
#CREDIT:;
#NOTES:
0000
0000
0000
0000
,
0000
0000
0000
0000
,
0000
0000
0000
0000
,
0000
0000
0000
0000
,
1000
0001
1000
0000
0100
0000
0010
0001
0000
0000
0100
0010
1000
0001
0100
0010
,
0000
1002
0023
0230
,
1300
0000
1000
0000
0010
0000
0100
0001
0000
1000
0100
1000
0000
0100
0010
0100
,
0000
0102
0023
0230
,
1300
0000
1000
0000
0010
0000
0100
0001
0000
0000
0010
0100
1000
0100
0010
0001
,
0000
1002
0203
0320
,
1030
0000
1000
0000
0100
0000
0010
0001
1000
0010
1000
0010
0000
0100
0001
0100
,
0002
0023
0230
2300
,
3000
0000
0000
0000
0001
0100
0000
0001
0100
0001
1000
0000
1001
0000
0010
0000
,
0100
0000
1000
0000
1010
0000
0000
0110
0000
0000
0101
0000
0000
0000
1000
0000
,
0000
1000
0000
0000
0001
0000
0000
0001
0000
0000
1000
0001
0000
0000
0010
0000
,
0100
0000
1000
0000
1010
0000
0000
0110
0000
0000
0101
0000
0000
0000
1000
0000
,
0000
1000
0000
0000
0001
0000
1000
0000
0100
0000
0010
0000
0000
0000
0001
0000
,
0000
0001
0000
0000
1000
0000
0001
0000
0010
0000
0100
0000
2000
0000
0000
0000
,
3001
0200
0000
0301
0010
0100
1000
0001
,
0000
0001
0000
0000
1000
0000
0000
1000
0000
0000
0001
1000
0002
0000
0000
0000
,
0000
2000
0000
0000
3003
0000
1001
0100
,
0010
0000
1000
0000
1100
0000
0000
0110
0000
0000
0011
0000
0000
0000
1000
0000
,
0000
1000
0000
0000
0001
0000
0000
0001
0000
0000
1000
0001
0000
0000
0010
0000
,
0100
0000
1000
0000
0011
0000
0000
0110
0000
0000
1100
0000
0000
0000
0010
0000
,
0001
2000
0000
3100
0010
0002
0000
0103
,
0000
0100
0000
0000
0010
0000
0000
0010
0000
0000
0100
0010
0200
0000
0000
0001
,
0000
0000
0301
0000
2000
0000
0000
0100
0000
0000
3100
0000
0020
0000
0000
0000
,
0031
0100
0020
0000
2030
0000
3200
0000
,
0000
0000
0000
0000
1300
0001
1000
0001
1000
0000
0100
0010
0100
0000
0000
1001
,
0000
1000
0010
0001
0010
1000
0011
0100
,
1000
0000
0010
0000
1001
0000
0000
1010
0000
0000
0000
0000
0101
0000
0000
1001
,
0000
1000
0010
0001
0010
1000
0011
0100
,
1000
0010
0100
0010
1010
0000
1002
0000
,
1000
2003
0000
0001
3002
0000
0100
0000
,
0100
0100
0000
1000
1003
0000
0210
0000
,
0010
0000
0320
0000
0000
0000
1000
0000
2030
0000
0000
0000
3010
0100
0000
0000
,
0001
0100
0000
0000
1000
0100
0000
0000
0001
1000
0000
0000
0011
0000
0100
0000
,
1000
0001
0101
0000
0000
1002
0000
1003
,
0010
0100
0101
0000
0000
1002
0000
1003
,
0010
0001
0010
1000
0100
0010
0001
1000
,
0001
0100
0000
0000
1000
0100
0000
0000
0001
1000
0000
1001
0000
0000
0010
0000
,
0100
1000
1010
0000
0000
1002
0000
1003
,
0100
0001
0100
1000
0000
1020
0000
0130
,
0001
0010
1000
0010
0001
1000
0100
0010
,
0100
0000
1000
0010
1000
0010
0100
0000
0001
1000
0001
0000
1000
0000
0100
0000
,
1000
0010
1000
0001
1000
1001
0000
0010
,
0100
1000
0001
0100
0001
0000
1000
0100
,
1000
0010
1000
0001
1000
1001
0000
0010
,
0100
0000
1000
0000
0001
0100
0001
0000
1000
0001
1000
0000
0100
0000
0010
0000
,
0100
0000
1000
0000
0010
0000
1000
0000
0001
0010
0001
0000
1000
0010
0100
0001
;
