#TITLE:SYNC-ANTHEM;
#SUBTITLE:;
#ARTIST:Tatsh feat. 星野奏子;
#TITLETRANSLIT:;
#SUBTITLETRANSLIT:;
#ARTISTTRANSLIT:Tatsh feat. KANAKO HOSHINO;
#GENRE:;
#CREDIT:DigiMindAxel;
#BANNER:SYNC-ANTHEM.png;
#BACKGROUND:SYNC-ANTHEM-bg.png;
#LYRICSPATH:SYNC-ANTHEM.lrc;
#CDTITLE:beatmania IIDX.png;
#MUSIC:SYNC-ANTHEM.ogg;
#OFFSET:0.631000;
#SAMPLESTART:50.185005;
#SAMPLELENGTH:12.000000;
#SELECTABLE:YES;
#BPMS:0.000000=160.000000
,262.000000=166.000000
;
#STOPS:
;
#BGCHANGES:;
#KEYSOUNDS:;
#ATTACKS:;

//---------------dance-single - ----------------
#NOTES:
     dance-single:
     :
     Beginner:
     5:
     0.247099,0.322352,0.094347,0.102209,0.000000,220.000000,208.000000,12.000000,13.000000,0.000000,0.000000,0.247099,0.322352,0.094347,0.102209,0.000000,220.000000,208.000000,12.000000,13.000000,0.000000,0.000000:
0000
0000
0000
0000
,
0000
0000
0000
0000
,
0000
0000
0000
0000
,
0000
0000
0000
0000
,
0000
0000
0000
0000
,
0000
0000
0000
0000
,
0001
0100
0001
0100
,
0001
1000
0001
1000
,
0100
1000
0100
1000
,
0010
0100
0010
0000
,
1000
0100
1000
0100
,
1000
0001
1000
0001
,
0100
0001
0100
0001
,
0010
0000
0100
0100
,
0110
0000
0010
0000
,
0100
0000
0010
0000
,
0100
0000
0010
0000
,
0100
0000
0001
0000
,
1000
0000
0001
0000
,
1000
0000
0001
0000
,
1000
0000
0001
0000
,
0010
0000
0100
0000
,
0110
0000
0000
0000
,
1001
0000
0000
0000
,
0110
0000
0000
0000
,
0001
0000
0000
0000
,
1000
0000
0001
0000
,
1000
0000
0100
0000
,
0010
0000
0001
0000
,
0100
0000
0010
0000
,
0100
0000
0001
0000
,
1000
0000
0001
0000
,
1000
0001
1000
0000
,
0001
1000
0001
0000
,
1001
1000
0001
0000
,
0010
0001
0010
0000
,
0100
1000
0100
0000
,
1000
0100
0010
0001
,
1000
0001
1000
0000
,
0001
1000
0001
0000
,
0100
0001
0100
0000
,
0010
1000
0010
1000
,
0001
1000
0001
0000
,
0010
0001
0010
0000
,
0100
1000
0100
0000
,
1000
0001
1000
0000
,
0010
0110
0000
0000
,
0100
0110
0000
0000
,
0010
0110
0000
0000
,
1000
0001
1000
0001
,
0010
0100
1000
0010
,
0100
0100
0100
0000
,
0001
1000
0001
1000
,
0010
0010
0010
0000
,
1000
0001
1000
0001
,
0100
0100
0100
0000
,
0010
0100
0010
0100
,
0001
0001
0001
0000
,
1000
0001
0010
0100
,
1000
2002
0000
0000
,
3003
0000
0000
0000
,
0001
2002
0000
0000
,
3003
0000
0000
0000
,
0200
0000
0000
0310
,
0200
0000
0000
0310
,
0000
0000
1001
0000
,
1000
0000
0001
0100
,
0001
1000
0100
0000
,
1000
0000
0100
0010
,
0001
0100
0010
0000
,
0100
0000
0001
0010
,
0100
1000
0001
0000
,
0010
0000
0001
1000
,
0010
0100
0002
0000
,
1003
0001
2000
0000
,
3001
1000
0002
0000
,
1003
0001
2000
0000
,
3002
0000
0103
0010
,
0100
0010
0100
0001
,
0010
0100
1000
0001
,
0010
0100
1000
1000
,
1000
1000
2002
0000
,
3003
0000
0000
0000
;

//---------------dance-single - ----------------
#NOTES:
     dance-single:
     :
     Easy:
     10:
     0.405468,0.547999,0.188694,0.212281,0.000000,361.000000,337.000000,24.000000,27.000000,0.000000,0.000000,0.405468,0.547999,0.188694,0.212281,0.000000,361.000000,337.000000,24.000000,27.000000,0.000000,0.000000:
// measure 0
0000
0000
0000
0000
,  // measure 1
0000
0000
0000
0000
,  // measure 2
0000
0000
0000
0000
,  // measure 3
0000
0000
0000
0000
,  // measure 4
0000
0000
0000
0000
,  // measure 5
0000
0000
0000
0000
,  // measure 6
1000
0100
1000
0001
,  // measure 7
0100
0001
1000
0100
,  // measure 8
0010
0001
0100
0010
,  // measure 9
0100
0001
0010
0100
,  // measure 10
1000
0001
1000
0000
0100
0000
0010
0000
,  // measure 11
0001
1000
0001
0000
0010
0000
0100
0000
,  // measure 12
0010
0001
0010
0000
0100
0000
1000
0000
,  // measure 13
0110
0000
0000
0000
0100
0010
0100
0010
,  // measure 14
0100
1000
0010
0100
,  // measure 15
0001
1000
0001
1000
,  // measure 16
0001
0010
0100
1000
,  // measure 17
0010
0000
0100
0000
0010
0100
0010
0000
,  // measure 18
1001
0100
0010
0001
,  // measure 19
1000
0001
1000
0001
,  // measure 20
1000
0000
0010
0000
0100
0001
0100
0001
,  // measure 21
1000
0000
0000
1001
0000
0000
0000
0000
,  // measure 22
0201
0000
0310
1000
,  // measure 23
0200
0000
1300
0010
,  // measure 24
0200
0000
0301
0010
,  // measure 25
0200
0000
0000
1300
,  // measure 26
0010
0100
0001
0010
,  // measure 27
0100
1000
0100
1000
,  // measure 28
1001
0000
0001
0000
0100
0010
0100
0000
,  // measure 29
0001
0000
1000
0000
0100
1000
0100
0000
,  // measure 30
1000
0001
2000
0000
0100
0000
3100
0000
,  // measure 31
0010
0001
0020
0000
0100
0000
0130
0000
,  // measure 32
1000
0001
1000
0001
1000
0100
1000
0100
,  // measure 33
2000
0000
0001
0000
0000
3001
0000
0000
,  // measure 34
1001
0100
1100
0010
,  // measure 35
0001
1000
0001
0010
0100
0000
0000
0000
,  // measure 36
0010
0001
0011
0100
,  // measure 37
1000
0001
0000
0100
0000
0001
0000
0000
,  // measure 38
1001
0010
0011
0100
,  // measure 39
1000
0001
1000
0100
0010
0000
0000
0000
,  // measure 40
0100
0000
1000
0000
0010
0100
0000
0010
,  // measure 41
0100
0001
0100
0000
0010
1000
0010
0000
,  // measure 42
1001
0100
0110
1000
,  // measure 43
0001
0100
0001
0000
1000
0100
1000
0000
,  // measure 44
0010
0100
0110
0001
,  // measure 45
1000
0001
0000
0010
0000
0100
0000
1000
,  // measure 46
0000
0000
1001
0000
0000
0000
0100
1000
,  // measure 47
0100
0000
1001
0000
0000
0000
0100
0001
,  // measure 48
0100
1001
0000
0000
,  // measure 49
1001
1000
0001
1000
,  // measure 50
1001
0000
0010
0100
0001
0000
0100
0000
,  // measure 51
0001
1000
0001
0010
0100
1000
0001
0000
,  // measure 52
2000
3200
0320
0032
,  // measure 53
1003
0001
1000
0010
0100
0001
1000
0000
,  // measure 54
0002
0203
0320
2030
,  // measure 55
3001
1000
0001
0010
0100
1000
0001
0000
,  // measure 56
2000
3200
0320
0032
,  // measure 57
1003
0001
1000
0010
0100
0001
1000
0000
,  // measure 58
0001
0000
1000
0000
0010
0100
0001
1000
,  // measure 59
0001
1001
0000
0000
,  // measure 60
1000
0001
1000
0001
,  // measure 61
1000
1001
0000
0000
,  // measure 62
0001
1000
0001
1000
,  // measure 63
0020
0000
0000
0130
,  // measure 64
0020
0000
0000
0130
,  // measure 65
0000
0000
1001
1000
,  // measure 66
0001
0100
0010
0000
0100
0000
0001
0000
,  // measure 67
0010
0001
1000
0000
0100
0000
0010
0000
,  // measure 68
0100
1000
0010
0000
0100
0010
0100
0000
,  // measure 69
0001
1000
0001
0000
1001
0000
1000
0000
,  // measure 70
0001
0100
0010
0000
0100
0000
0001
0000
,  // measure 71
1000
0100
0010
0000
0100
0000
1000
0000
,  // measure 72
0010
0100
0001
1000
,  // measure 73
0001
1000
0001
1000
0002
0000
0100
0000
,  // measure 74
0100
0103
0020
1000
,  // measure 75
1000
1030
0200
0010
,  // measure 76
0010
0310
0002
1000
,  // measure 77
1000
1003
1001
0010
,  // measure 78
0100
0000
1000
0000
0001
1000
0001
1000
,  // measure 79
0001
1000
0001
1000
0001
0010
0100
1000
,  // measure 80
0100
0010
0001
1000
0100
0000
0100
0000
,  // measure 81
0100
0100
2002
0000
,  // measure 82
3003
0000
0000
0000
;

//---------------dance-single - ----------------
#NOTES:
     dance-single:
     :
     Medium:
     13:
     0.585176,0.773646,0.503184,0.125796,0.106140,521.000000,457.000000,64.000000,16.000000,0.000000,0.000000,0.585176,0.773646,0.503184,0.125796,0.106140,521.000000,457.000000,64.000000,16.000000,0.000000,0.000000:
0000
0000
0000
0000
,
0000
0000
0000
0000
,
0000
0000
0000
0000
,
0000
0000
0000
0000
,
0000
0000
0000
0000
,
0000
0000
0000
0000
,
1001
1100
1001
1100
,
1001
0101
1001
0101
,
1001
0110
1001
0110
,
1001
1100
0011
1100
,
1001
0000
0010
1000
0100
1000
0010
0000
,
1001
0000
0100
0010
0001
0010
0100
0000
,
1001
0000
0001
0010
0100
1000
0001
0000
,
0101
0000
0000
0000
0100
0100
0100
0100
,
0001
0010
0100
0000
0010
0001
0010
0000
,
0100
0010
0001
0000
1000
0010
0100
0000
,
0010
0100
0010
0000
0100
0010
1000
0000
,
0001
1000
0001
0100
0001
0010
0100
1000
,
1001
0000
0001
0000
0100
0001
0010
0000
,
0100
1000
0100
0000
0010
0100
1000
0000
,
0100
1000
0001
0000
1000
0100
0001
0100
,
1100
0000
0000
0100
0000
0000
1001
0000
0000
0000
0100
0000
0010
0000
0100
0000
,
0201
0000
0000
0010
0310
0000
0110
0000
,
1020
0000
0000
0100
0130
0010
0100
0000
,
0021
0000
0000
0100
0130
0000
1100
0000
,
0200
0000
0000
0010
0310
1000
0100
0010
,
0011
0000
0010
0100
0001
0000
0100
0001
,
0010
0000
0100
0010
0001
0000
1000
0010
,
1010
0000
0100
0001
0010
0100
0010
0001
,
0100
0000
0010
1000
0100
0010
0100
1000
,
0010
0000
0000
0100
0000
0000
0001
0000
0000
0000
0100
0000
0010
0000
0100
0000
,
0001
0000
0000
0010
0000
0000
0100
0000
0000
0000
1000
0000
0010
0000
1000
0000
,
0001
0010
1000
0010
0001
0100
1000
0100
,
0001
0010
0100
1000
0001
0001
0000
0000
,
1001
0000
1010
0000
0101
0000
0010
0100
,
0001
0000
0010
0000
0100
0000
1000
0000
0001
0100
0001
0000
1000
0000
0000
0000
,
1001
0000
1100
0000
0011
0000
0100
0010
,
1000
1000
0000
0100
0010
0001
1000
0000
,
1001
0000
1010
0000
0101
0000
0010
0100
,
0001
0010
0100
1000
0001
0000
0001
1000
,
0010
0000
0110
0000
0100
0002
0000
1000
,
1003
0100
0001
0100
1000
0010
0100
0001
,
1001
0000
0011
0000
1100
0000
0010
0100
,
0001
0000
0010
0000
0100
0000
1000
0000
0001
0100
0001
0000
1000
0000
0000
0000
,
1001
0000
0101
0000
1010
0000
0100
0010
,
1000
1000
0000
0100
0010
0001
1000
0100
,
1000
0000
2002
0000
3003
1000
0001
0100
,
0001
0000
2002
0000
3003
0001
0010
0100
,
0010
0220
0000
0330
,
1001
0100
0110
0110
,
1001
0100
0010
0001
1000
0010
1000
0001
,
0100
0000
0100
0000
0100
0000
0000
0001
0000
1000
0000
0000
0001
0000
0001
0000
,
1000
0100
0001
0100
1000
0010
0001
0010
,
1000
0000
1000
0000
1000
0000
0000
0010
0000
0100
0000
0000
0001
0000
0001
0000
,
1000
0010
0001
0010
1000
0100
0001
0100
,
1000
0000
1000
0000
1000
0000
0000
0100
0000
0010
0000
0000
0001
0000
0001
0000
,
1000
0100
0001
0100
1000
0010
0001
0010
,
1000
0000
1000
0000
1000
0000
0000
0001
0000
0010
0000
0000
0001
0000
0001
0000
,
1000
0000
0000
0000
0100
0000
0010
0000
0001
0100
0001
0000
1000
0010
1000
0000
,
0001
0101
0010
0100
,
0010
0100
0010
0100
,
1010
1010
0100
0010
,
0100
0010
0100
0010
,
2001
0000
0000
0000
0000
0000
3100
0110
,
0002
0000
0010
0013
,
0000
0000
0000
0000
0001
0100
0010
0100
,
0001
0010
0001
0010
0100
1000
0100
1000
,
0010
0000
0010
0000
1000
0100
1000
0100
,
0010
0100
1000
0001
0100
0000
0101
0000
,
1010
0000
1001
0000
0010
0100
0010
0100
,
0001
0010
0100
0010
0001
1000
0010
0100
,
0001
1000
0100
0000
1000
0100
0001
0100
,
1000
0010
0100
0001
0100
0010
1000
0000
,
0001
1000
0001
0000
1000
0001
1000
0000
1001
0000
0000
0001
0000
0000
1000
0000
,
0000
0000
0100
0000
0010
0000
0001
0000
1000
0000
0000
0100
0000
0000
1000
0000
,
0000
0000
0001
0000
0100
0000
0010
0000
1000
0000
0000
0100
0000
0000
0001
0000
,
0000
0100
1000
0010
0100
0100
0001
0001
,
0100
0100
1000
1000
1002
0000
0100
0000
,
1000
0000
0000
0000
0103
0000
0000
0000
0001
1000
0001
0000
1000
0010
1000
0000
,
0100
0000
0010
0000
0001
0100
0001
0000
1000
0100
1000
0000
0100
0010
0100
0000
,
1000
0000
0010
0000
0100
0001
0100
0001
1000
0000
0000
0000
1000
0000
0000
0000
,
1000
1000
2002
0000
,
3003
0000
0000
0000
;

//---------------dance-single - ----------------
#NOTES:
     dance-single:
     :
     Hard:
     16:
     0.790718,1.063763,0.322352,0.117934,0.660429,704.000000,663.000000,41.000000,15.000000,0.000000,0.000000,0.790718,1.063763,0.322352,0.117934,0.660429,704.000000,663.000000,41.000000,15.000000,0.000000,0.000000:
0000
0000
0000
0000
,
0000
0000
0000
0000
,
0000
0000
0000
0000
,
0000
0000
0000
0000
,
0000
0000
0000
0000
,
0000
0000
0000
0000
,
0101
0000
0000
0100
0000
0000
0001
0000
0000
1000
0000
0000
0010
0000
0100
0010
,
0100
0000
0000
0001
0000
0000
0010
0000
0000
0100
0000
0000
1000
0001
1000
0000
,
0100
0000
0000
1000
0000
0000
0010
0000
0000
0100
0000
0000
0010
0000
1000
0001
,
1000
0000
0000
0001
0000
0000
0100
0000
0000
0010
1000
0001
1000
0001
1000
0000
,
1001
0000
0001
0100
0000
0000
0001
0000
1000
0100
0000
0000
1000
0000
0001
1000
,
0001
0000
0010
0001
0000
0000
1000
0000
0100
1000
0000
0000
0010
0100
0010
0000
,
1001
0000
0001
1000
0000
0000
0100
0000
1000
0010
0000
0000
0100
0000
0001
1000
,
0002
0000
0000
0000
1003
1000
0001
0001
,
1000
0100
1000
0100
1000
0001
1000
0001
,
1000
0010
1000
0010
1000
0001
1000
0001
,
0010
0100
0010
0100
0010
0001
0010
0001
,
0100
0000
0001
0000
0100
0000
0001
0000
1000
0000
0010
0100
0000
0010
0100
0000
,
0001
0010
0001
0010
0001
1000
0001
1000
,
0010
1000
0010
1000
0100
0010
0100
0010
,
0100
1000
0100
1000
0001
0100
1000
0100
,
0101
0000
0000
0100
0000
0000
1001
0000
0100
0010
0100
0000
0001
1000
0001
0100
,
0020
0000
0000
1000
1030
0000
0110
0000
,
0021
0000
0000
0100
0130
1000
1000
0000
,
2010
0000
0000
0100
3100
0000
1001
0000
,
0012
0000
0000
0000
0000
0000
0100
0000
0103
0000
0001
0000
1000
0100
1000
0010
,
0100
0001
0010
0001
0100
0000
0100
0001
,
0010
0100
1000
0001
1000
0000
1000
0100
,
0010
0001
0010
0100
0010
0000
0010
0001
,
0100
0010
1000
0100
1000
0000
1000
0100
,
0011
0000
0000
0110
0000
0000
1100
0000
0000
0000
0010
0000
0001
0000
1000
0000
,
1010
0000
0000
0110
0000
0000
0101
0000
0000
0000
0010
0000
0100
0000
0001
0000
,
1000
0100
1000
0100
1000
0100
1000
0000
0001
1000
0001
1000
0001
1000
0001
0000
,
0100
0001
0100
0001
0100
0001
0100
0000
0001
1000
0020
0000
0000
0000
0030
0000
,
0101
0010
0100
1000
0001
1000
0010
0100
,
0001
0000
0010
0000
0100
0000
1000
0000
0001
0100
0010
0100
0001
0000
0000
0000
,
0010
0100
0010
0001
1000
0001
0100
0010
,
1000
0000
1010
0000
0000
0000
0110
0000
0010
0100
0001
0010
0001
0000
0000
0000
,
1010
0100
0010
0001
1000
0001
0100
0010
,
1000
0100
1000
0100
0010
0001
0100
0000
0000
0000
0100
0000
0001
0000
0010
0000
,
0100
1000
0001
1000
0010
0100
0010
1000
,
0001
0010
0001
0010
0001
0010
0001
0000
0100
0010
0100
0010
0100
0010
0100
0000
,
1001
0010
0100
1000
0001
1000
0010
0100
,
0001
0000
0100
0000
0001
0000
1000
0000
0010
0100
0010
1000
0100
0000
1000
0000
,
0001
0100
0010
1000
0001
1000
0100
0010
,
0001
0100
0010
0000
0000
0000
0100
0000
0001
1000
0001
0000
0100
0000
1000
0000
,
0100
0001
2002
0000
3003
1000
0100
0001
,
0100
1000
2002
0000
3003
0001
0010
1000
,
0010
0000
0001
0000
2002
0000
0000
0000
3003
0000
0000
0000
1000
0000
0001
1000
,
0001
0100
0101
1010
,
1001
0100
0010
0001
0100
1000
0100
0001
,
1000
0000
0010
0000
0100
0000
0010
1000
0000
0001
0000
1000
0010
0000
0010
0000
,
1000
0000
0001
0000
1000
0100
0000
0100
0010
0000
0001
2000
0000
0000
3000
0000
,
0001
0000
0100
0000
0010
0000
0100
0001
0000
1000
0000
0100
1000
0000
1000
0000
,
0001
0010
0001
0000
1000
0100
1000
0000
0100
0010
0100
0010
0001
1000
0001
0000
,
1000
0000
0100
0000
0010
0000
0100
1000
0000
0001
0000
0100
0001
0000
0001
0000
,
1000
0010
0000
0100
0000
0000
0001
0000
0010
0100
0000
0100
1000
0000
0001
0000
,
1000
0000
0100
0000
0010
0000
0100
1000
0000
0001
0000
0100
0001
0000
0001
0000
,
1000
0000
0001
0000
0010
0000
0001
0000
1000
0010
1000
0010
0100
0001
0100
0001
,
1000
0000
0000
0000
1100
0000
0001
1000
0001
0000
0000
0000
0010
0000
0100
0010
,
0100
0000
0000
0000
1000
0000
0001
0100
0001
0000
0000
0000
0010
0000
0000
0000
,
0011
0000
0000
0000
0011
0000
1000
0001
1000
0000
0000
0000
0100
0000
1000
0010
,
1000
0000
0000
0000
0100
0000
0010
0001
0010
0000
0000
0000
0100
0000
0000
0000
,
1000
0100
0010
0100
1000
0100
0010
0100
1000
0100
0010
0100
1000
0000
1001
0000
,
0001
0010
0100
0010
0001
0010
0100
0010
0001
1000
0010
1000
0001
0010
0002
0000
,
0000
0000
0000
0000
0000
0000
0000
0000
1003
0000
0001
0010
0001
0000
1000
0000
,
0010
0100
0010
0000
1000
0000
0001
0000
0010
0100
0010
0000
0001
0000
0010
0000
,
0100
1000
0100
0000
1000
0001
1000
0000
0001
0010
0001
0000
0010
0000
0100
0000
,
1000
0010
1000
0000
0100
0000
0010
0000
0001
0100
0001
0000
0110
0000
0000
0000
,
1100
0000
0000
0000
0011
0000
0000
0000
1001
0000
0100
0001
0100
0000
0010
0000
,
1000
0001
1000
0000
0100
0000
0010
0000
0001
1000
0001
0000
0100
0000
0010
0000
,
1000
0001
1000
0000
0010
0100
0010
0000
1000
0000
0100
0000
0001
0000
0100
0000
,
1000
0010
0001
0010
1000
0100
0010
0001
,
1000
0100
1000
0100
0010
0001
0010
0001
1000
0000
0000
1010
0000
0000
0110
0000
,
0000
0000
0001
0000
0010
0100
1000
0100
0010
0000
0000
0101
0000
0000
0110
0000
,
0000
0000
1000
0000
0010
0100
0001
0100
0010
0000
0000
0110
0000
0000
1010
0000
,
0000
0000
0100
0000
0001
0010
0100
1000
0001
0010
0001
1000
0010
1000
0010
1000
,
0001
0000
0001
0100
0010
1000
0001
1000
0001
0000
0000
0000
1000
0001
1000
0001
,
1000
0000
0000
0000
0001
1000
0001
1000
0001
0010
0001
0010
0100
1000
0100
1000
,
0010
0100
0010
0100
0010
1000
0010
1000
0010
0100
0001
0100
0001
1000
0001
1000
,
0001
0010
0100
1000
0100
0010
0001
1000
0001
0010
0001
0010
0001
1000
0010
1000
,
0001
0010
0001
0010
0001
1000
0010
1000
0002
0000
0000
0000
0000
0000
0000
0000
,
0003
0000
0000
0000
;

//---------------dance-single - ----------------
#NOTES:
     dance-single:
     :
     Challenge:
     17:
     0.941224,1.192704,0.597531,0.133658,1.045680,838.000000,762.000000,76.000000,17.000000,0.000000,0.000000,0.941224,1.192704,0.597531,0.133658,1.045680,838.000000,762.000000,76.000000,17.000000,0.000000,0.000000:
0000
0000
0000
0000
,
0000
0000
0000
0000
,
0000
0000
0000
0000
,
0000
0000
0000
0000
,
0000
0000
0000
0000
,
0000
0000
0000
0000
,
0001
0000
0100
0001
0000
1000
0100
0000
0010
0001
0000
0000
1000
0000
1000
0010
,
0100
0000
0001
0100
0000
0001
1000
0000
0100
0010
0000
0000
0001
1000
0001
0000
,
0010
0000
0100
1000
0000
0001
0100
0000
0001
1000
0000
0000
0001
0000
0001
0010
,
0100
0000
1000
0010
0000
1000
0001
0000
0010
0100
1000
0001
0100
0001
0000
0000
,
1000
0010
0100
0001
0000
1000
0100
0000
0010
0001
0000
0000
1000
0000
1000
0010
,
0100
0001
0010
0100
0000
1000
0010
0000
0100
0001
0000
0000
1000
0100
1000
0000
,
0001
0010
0100
1000
0000
0001
0100
0000
0010
1000
0000
0000
0100
0010
0001
1000
,
0020
0000
0000
0030
0101
0101
1010
1010
,
0001
0010
0001
0010
0100
0010
0100
0010
,
0001
0100
0001
0100
0001
1000
0001
1000
,
0010
0100
0010
0100
0001
0010
0001
0010
,
0100
0000
1000
0010
0000
0010
0100
0000
0001
0000
0010
0100
0000
0100
1000
0000
,
0010
0100
0010
0100
0001
1000
0001
1000
,
0100
0010
0100
0010
0001
0100
0001
0100
,
0010
1000
0010
1000
0001
0010
1000
0010
,
0011
0000
0000
0000
1100
0000
1001
0000
0010
0100
1000
0100
0010
0001
1000
0100
,
0020
0000
0000
0001
0031
0000
0100
0010
,
1200
0000
0000
1000
1300
0001
0001
0000
,
0201
0000
0000
0010
0310
1000
0100
0000
,
1020
0000
0000
0000
0000
0000
0100
0000
0130
0000
0001
0000
1000
0100
1000
0010
,
0100
0000
0001
0010
0000
0010
0001
0000
0100
0010
0000
0000
1010
0000
0000
0000
,
1000
0000
0100
1000
0000
1000
0100
0000
0010
0100
0000
0000
0101
0000
0000
0000
,
0010
0000
1000
0100
0000
0100
1000
0000
0001
0010
0000
0010
0100
0000
1000
0000
,
0010
0000
0100
0001
0000
0001
0100
0000
0001
0010
0000
0010
0100
0000
1000
0000
,
1100
0000
0000
0011
0000
0000
1100
0000
0000
0000
0010
0000
0100
0000
1000
0000
,
0101
0000
0000
0110
0000
0000
1010
0000
0000
0000
0001
0000
0010
0000
0100
0000
,
1000
0100
0010
0100
1000
0010
1000
0100
0001
0100
1000
0010
0001
0010
1000
0000
,
0001
0010
0100
0010
0001
1000
0001
0100
1000
0100
0001
0010
1000
0010
0001
0000
,
1001
0010
0011
0010
1001
0000
1100
0001
,
0010
0000
0100
0000
1000
0000
0001
0000
1000
0001
0100
0001
1000
0000
0001
0000
,
1001
0100
1100
0100
1001
0000
0011
0100
,
1000
0000
1010
0000
0000
0000
0101
0000
0010
0100
0001
0100
0010
0000
0000
0000
,
1001
0100
0101
0100
1001
0000
0011
0100
,
1000
0001
0100
0001
1000
0001
0100
0000
0000
0000
1010
0000
0100
0000
0010
0000
,
1001
0100
1100
0000
0010
0110
0000
0101
,
0010
1000
0100
0001
0100
1000
0001
1000
0010
0001
0010
1000
0100
0010
0100
1000
,
0001
0100
0001
0000
1001
0000
1000
0000
1100
0000
0000
0000
0011
0000
0100
0000
,
1000
0000
0001
0000
1000
0001
0100
0000
0001
0100
0010
0100
0001
1000
0100
0000
,
1000
0100
1000
0000
0101
0000
0001
0000
1001
0000
0000
0000
1100
0000
0010
0000
,
0001
0100
0010
0000
0000
0000
0110
0000
1000
0100
0010
0100
1000
0000
0010
0000
,
0100
0010
2002
0000
3003
0010
0100
0010
,
1000
0100
0010
0000
0202
0000
0000
0000
0303
0000
0100
0000
0010
0000
0100
0000
,
0001
0010
0100
0000
2020
0000
0000
0000
3030
0000
0000
0000
0000
0000
0100
0001
,
2000
3100
0011
1100
,
0010
0001
0010
0001
1000
0010
1000
0010
0100
0001
0100
0001
0010
0100
0010
0100
,
1000
0000
1100
0000
1001
0000
0001
0100
0000
0100
0000
0001
0100
0000
0100
0000
,
0001
0000
1000
0000
0001
0100
0000
0100
0010
0000
0010
2000
0000
0000
3000
0000
,
0001
0000
0101
0000
1001
0000
1000
0010
0000
0010
0000
1000
0010
0000
0010
0000
,
1000
0100
1000
0100
0001
0100
0001
0100
1000
0010
1000
0010
0100
0001
0010
0000
,
1001
0000
0011
0000
1001
0000
1000
0010
0000
0010
0000
1000
0010
0000
0010
0000
,
1000
0001
0000
0001
0010
0000
0100
0000
1000
0010
0000
0010
0100
0000
0001
0000
,
1000
0000
1100
0000
1001
0000
0001
0100
0000
0100
0000
0001
0100
0000
0100
0000
,
0001
0000
1000
0000
0001
0000
1000
0000
0001
0010
0100
0010
0001
1000
0010
0100
,
1001
0000
0000
0000
1100
0000
0001
0100
0001
0000
0000
0000
0010
0000
0100
1000
,
0100
0010
0000
0000
0001
0000
0100
0001
0100
0000
0000
0000
0100
0000
0000
0000
,
1001
0000
0000
0000
0011
0000
1000
0001
1000
0000
0000
0000
0100
0000
0010
0001
,
0010
0100
0000
0000
1000
0000
0010
0100
0010
0000
0100
0000
0010
0000
0000
0000
,
1000
0100
0001
0100
1000
0100
0001
0100
1000
0100
0001
0100
1001
0000
1001
0000
,
0001
0100
1000
0100
0001
0100
1000
0100
0001
0010
0100
1000
0001
0010
0002
0000
,
0000
0000
0000
0000
0000
0000
0003
0000
1000
0100
1000
0001
0100
0001
1000
0100
,
1000
0000
0001
0100
0000
1000
0100
0000
0001
0010
0001
1000
0010
1000
0001
0100
,
1000
0100
0001
0010
0100
1000
0010
0000
1000
0100
1000
0001
0100
0001
1000
0100
,
0010
0000
0001
0100
0000
1000
0100
0000
0001
0010
0100
1000
0001
0100
0001
0100
,
1000
0100
1000
0100
0010
0100
0010
0000
0001
1000
0100
1000
0001
0100
0010
0100
,
0001
0010
1000
0010
0001
0100
0010
1000
0001
0010
0001
1000
0010
1000
0001
0010
,
0100
1000
0100
0010
0001
0100
0010
0000
1000
0100
1000
0001
0100
0001
1000
0100
,
1000
0001
0100
0001
0010
0100
1000
0001
1000
0100
0010
0100
1000
0100
0001
0100
,
1000
0010
0100
0010
1000
0001
0010
0001
1100
0000
0000
0011
0000
0000
1001
0000
,
0000
0000
0101
0000
0001
1000
0100
1000
0101
0000
0000
1010
0000
0000
1001
0000
,
0000
0000
0011
0000
0010
0100
1000
0100
0011
0000
0000
0110
0000
0000
1100
0000
,
0000
0000
1010
0000
0010
0100
0001
0100
0010
1000
0100
1000
0100
0001
0100
0001
,
0100
1000
0010
0001
0010
1000
0100
0010
0002
0000
0000
0000
0103
0010
0100
0010
,
0200
0000
0000
0000
0310
0100
0010
0100
0001
0010
1000
0010
0001
1000
0100
0001
,
0100
0000
0000
1000
0000
0000
0001
0000
0000
0100
0000
0000
0001
0000
1000
0000
0001
0000
1000
0000
0000
0010
0000
0000
0001
0000
0000
0010
0000
0000
1000
0000
0000
0100
0000
0000
0001
0000
0000
0100
0000
0000
1000
0000
0000
0010
0000
0000
,
0100
0000
0000
0001
0000
0000
0010
0000
0000
0100
0000
0000
1000
0000
0001
0000
1000
0000
0001
0000
0000
0100
0000
0000
0010
0000
0000
1000
0000
0000
0100
0000
0000
0010
0000
0000
0001
0000
1000
0000
0001
0000
1000
0000
0000
0010
0000
0000
,
0100
0000
0000
1000
0000
0000
0010
0000
0000
0100
0000
0000
0001
0000
1000
0000
0001
0000
1000
0000
0010
0000
0100
0000
0002
0000
0000
0000
0000
0000
0000
0000
0000
0000
0000
0000
0000
0000
0000
0000
0000
0000
0000
0000
0000
0000
0000
0000
,
0003
0000
0000
0000
;
