#TITLE:SPECIALZ;
#SUBTITLE:;
#ARTIST:King Gnu;
#TITLETRANSLIT:;
#SUBTITLETRANSLIT:;
#ARTISTTRANSLIT:;
#GENRE:;
#CREDIT:DigiMindAxel;
#BANNER:SPECIALZ.png;
#BACKGROUND:SPECIALZ-bg.png;
#LYRICSPATH:SPECIALZ.lrc;
#CDTITLE:DigiMindAxel original simfile.png;
#MUSIC:SPECIALZ.ogg;
#OFFSET:-0.308000;
#SAMPLESTART:51.544785;
#SAMPLELENGTH:12.000000;
#SELECTABLE:YES;
#BPMS:0.000000=117.000000
;
#STOPS:
;
#BGCHANGES:-1.000=SPECIALZ.avi=1.000=1=0=0=StretchNoLoop==CrossFade==,
99999=-nosongbg-=1.000=0=0=0 // don't automatically add -songbackground-
;
#KEYSOUNDS:;
#ATTACKS:;

//---------------dance-single - ----------------
#NOTES:
     dance-single:
     :
     Easy:
     4:
     0.190985,0.285058,0.077341,0.176780,0.000000,121.000000,114.000000,7.000000,16.000000,0.000000,0.000000,0.190985,0.285058,0.077341,0.176780,0.000000,121.000000,114.000000,7.000000,16.000000,0.000000,0.000000:
0000
0000
0000
0000
,
0000
0000
0000
0000
,
0000
0000
0000
0000
,
0000
0000
0000
0000
,
0000
0000
0000
0000
,
1002
0000
2003
0000
,
3002
0000
0203
0000
,
0320
0000
2030
0000
,
3002
0000
1003
0001
,
1000
1000
0010
0000
,
0100
0100
0001
0000
,
1000
0100
0010
0001
,
1000
0100
0010
0001
,
1000
1000
0010
0000
,
0100
0100
0001
0000
,
0010
0100
1000
0001
,
0010
0100
1000
0001
,
0200
0000
0000
0000
,
0320
0000
0000
0000
,
0230
0000
0000
0000
,
0302
0000
0000
0000
,
2003
0000
0000
0000
,
3002
0000
0000
0000
,
0203
0000
0000
0000
,
0310
0000
0110
0110
,
1001
0001
0010
0001
,
1000
0100
1000
0100
,
0010
0010
0100
0100
,
0010
0010
0001
0001
,
0100
0010
0100
0010
,
1000
0010
1000
0010
,
0100
0100
0001
0001
,
1000
0100
0010
0001
,
1000
0100
1000
0100
,
0010
0001
0010
0001
,
0100
0100
0010
0010
,
1000
0001
0010
0100
,
1000
0001
0100
0001
,
1000
0100
1000
0001
,
0100
0100
0010
0010
,
1000
0100
0010
0001
,
0000
0000
0110
0110
,
2002
0000
0000
0000
,
3003
0000
0000
0000
;

//---------------dance-single - ----------------
#NOTES:
     dance-single:
     :
     Medium:
     8:
     0.364609,0.403832,0.364609,0.088390,0.000000,231.000000,198.000000,33.000000,8.000000,0.000000,0.000000,0.364609,0.403832,0.364609,0.088390,0.000000,231.000000,198.000000,33.000000,8.000000,0.000000,0.000000:
0000
0000
0000
0000
,
0000
0000
0000
0000
,
0000
0000
0000
0000
,
0000
0000
0000
0000
,
0000
0000
0000
0000
,
1200
0000
0000
1300
0020
0000
0000
0130
,
0002
0000
1003
0100
0010
0001
1000
0000
,
0200
0000
0000
1300
0020
0000
0000
0130
,
0002
0000
1000
0000
1003
0100
0001
0100
,
1100
0010
1001
1001
,
0011
0100
1001
1001
,
0100
1000
0100
0000
0010
0001
1000
0000
,
0001
0100
0001
0000
0100
0010
1000
0100
,
0011
0100
1001
1001
,
1010
0010
1001
1001
,
0010
0001
0100
0000
0001
1000
0100
0000
,
0010
0001
0100
0001
1000
0100
0010
0001
,
1000
0100
1000
0100
,
0010
0001
0010
0001
,
1000
0010
1000
0010
,
0100
0001
0100
0001
,
1000
0001
1000
0000
0100
0000
0010
0000
,
0001
1000
0001
0000
0010
0000
0100
0000
,
1000
0001
1000
0000
0100
0000
0010
0000
,
0101
0000
0000
0000
0100
0010
1000
0001
,
1001
0011
1001
1100
,
1000
0001
0100
0001
1000
0100
0010
0001
,
0000
1000
0100
1000
0000
0001
0010
0001
,
0000
1000
0100
1000
0001
0100
0110
0000
,
1001
0110
1001
0110
,
1000
0001
0010
0000
0100
1000
0001
0100
,
0000
0001
0100
0001
0000
1000
0010
1000
,
0000
0001
0100
0001
0010
0100
1000
0000
,
1001
0101
1001
1010
,
0100
0001
0010
0000
0100
1000
0001
0100
,
0000
0001
1000
0001
0000
1000
0100
1000
,
0000
0001
0010
0001
1000
0010
0100
0000
,
1001
1100
1001
0011
,
0100
1000
0010
0000
0100
0001
0010
0100
,
0000
1000
0010
1000
0000
0001
0100
0001
,
0000
1000
0100
1000
0001
0100
0010
0000
,
1001
0000
0000
0000
0100
0010
1000
0001
,
2002
0000
0000
0000
,
3003
0000
0000
0000
;

//---------------dance-single - ----------------
#NOTES:
     dance-single:
     :
     Hard:
     11:
     0.500350,0.570115,0.364609,0.121536,0.303841,317.000000,284.000000,33.000000,11.000000,0.000000,0.000000,0.500350,0.570115,0.364609,0.121536,0.303841,317.000000,284.000000,33.000000,11.000000,0.000000,0.000000:
0000
0000
0000
0000
,
0000
0000
0000
0000
,
0000
0000
0000
0000
,
0000
0000
0000
0000
,
0000
0000
0000
0000
,
0012
0000
1003
0100
0012
0000
1003
0010
,
0102
0000
1003
0010
0010
0100
0100
0001
,
2100
0000
3001
0010
2100
0000
3001
0100
,
0100
0000
0010
0000
0010
0000
1000
0000
0100
0010
0100
0010
0001
0000
0100
0010
,
1000
0000
0000
1000
0100
0000
0000
0100
0001
0000
0000
0001
0100
0000
0000
0100
,
1000
0000
0000
1000
0010
0000
0000
0010
0100
0000
0001
0000
0101
0000
0000
0000
,
0001
1000
0100
0001
0100
1000
0010
0001
,
0010
1000
0001
0100
0010
0010
1000
1000
,
0001
0000
0000
0001
0100
0000
0000
0100
1000
0000
0000
1000
0100
0000
0000
0100
,
0001
0000
0000
0001
0010
0000
0000
0010
0100
0000
1000
0000
1010
0000
0000
0000
,
0001
1000
0010
0001
0010
1000
0100
0001
,
0100
0000
1000
0000
0010
0000
0100
0000
0001
1000
0001
1000
0100
0000
0100
0000
,
1002
0100
1000
0103
,
2000
0001
0100
3001
,
0200
0010
0001
0310
,
2000
0001
0100
3001
,
0010
0010
0010
0010
0001
0001
0001
0001
,
0100
0100
0100
0100
0010
0010
0010
0010
,
1000
1000
1000
1000
0010
0010
0010
0010
,
1001
0000
0000
0000
0000
0000
0000
0000
0010
0100
0010
0100
1000
0000
1000
0000
,
0101
0000
0000
0000
1100
0000
0000
0000
0101
0000
0000
0110
0000
0000
1100
0000
,
1000
0001
0100
1000
0100
0001
0010
0100
,
0000
0000
1000
0010
0100
0010
1000
0000
0000
0000
0001
0100
0010
0100
0001
0000
,
0000
0000
0010
0100
0010
0100
1000
0000
0010
1000
0010
1000
0001
0000
0100
0000
,
0101
0000
0000
0000
1100
0000
0000
0000
0101
0000
0000
0110
0000
0000
1100
0000
,
1000
0001
0010
1000
0010
0001
0100
0010
,
0000
0000
1000
0100
0010
0100
1000
0000
1000
0000
0001
0010
0100
0010
0001
0000
,
0001
0000
0100
0010
0100
0010
1000
0000
0001
0010
0001
0010
0100
0000
0000
0000
,
1010
0000
0000
0000
0011
0000
0000
0000
1010
0000
0000
0110
0000
0000
0011
0000
,
0001
0100
0100
0100
1000
0001
0010
0100
,
0000
0000
1000
0010
0001
0010
1000
0000
0000
0000
0001
0010
1000
0010
0001
0000
,
0100
0000
0010
1000
0010
1000
0001
0000
0010
0100
0010
0100
1000
0000
0000
0000
,
1010
0000
0000
0000
0011
0000
0000
0000
1010
0000
0000
0110
0000
0000
0011
0000
,
0001
0100
0100
1000
0010
0100
0001
0010
,
0000
0000
0001
0100
1000
0100
0001
0000
0001
0000
1000
0100
0001
0100
1000
0000
,
0000
0000
0100
0010
0100
0010
0001
0000
1001
0000
0100
0000
1100
0000
0000
0000
,
1001
0000
0000
0000
0000
0000
0000
0000
0010
1000
0100
1000
0010
0000
0010
0000
,
2002
0000
0000
0000
,
3003
0000
0000
0000
;

//---------------dance-single - ----------------
#NOTES:
     dance-single:
     :
     Beginner:
     1:
     0.086812,0.185619,0.121536,0.000000,0.000000,55.000000,44.000000,11.000000,0.000000,0.000000,0.000000,0.086812,0.185619,0.121536,0.000000,0.000000,55.000000,44.000000,11.000000,0.000000,0.000000,0.000000:
// measure 0
0000
0000
0000
0000
,  // measure 1
0000
0000
0000
0000
,  // measure 2
0000
0000
0000
0000
,  // measure 3
0000
0000
0000
0000
,  // measure 4
0000
0000
0000
0000
,  // measure 5
1001
0000
1000
0000
,  // measure 6
1000
0000
0000
0000
,  // measure 7
1001
0000
0001
0000
,  // measure 8
0001
0000
0000
0000
,  // measure 9
0110
0000
0000
0000
,  // measure 10
0000
0000
0000
0000
,  // measure 11
0100
0000
0100
0000
,  // measure 12
0100
0000
0000
0000
,  // measure 13
0110
0000
0000
0000
,  // measure 14
0000
0000
0000
0000
,  // measure 15
0010
0000
0010
0000
,  // measure 16
0010
0000
0000
0000
,  // measure 17
1001
0000
0000
0000
,  // measure 18
0000
0000
0000
0000
,  // measure 19
0000
0000
0000
0000
,  // measure 20
0000
0000
0000
0000
,  // measure 21
1000
0000
0000
0000
,  // measure 22
1000
0000
0000
0000
,  // measure 23
0001
0000
0000
0000
,  // measure 24
0001
0000
0000
0000
,  // measure 25
1001
0000
0000
0000
,  // measure 26
1000
0000
0000
0000
,  // measure 27
0100
0000
0100
0000
,  // measure 28
1000
0000
0000
0000
,  // measure 29
1001
0000
0000
0000
,  // measure 30
0001
0000
0000
0000
,  // measure 31
0010
0000
0010
0000
,  // measure 32
0001
0000
0000
0000
,  // measure 33
0110
0000
0000
0000
,  // measure 34
0100
0000
0000
0000
,  // measure 35
0010
0000
0010
0000
,  // measure 36
1000
0000
0000
0000
,  // measure 37
0110
0000
0000
0000
,  // measure 38
0100
0000
0000
0000
,  // measure 39
0100
0000
0100
0000
,  // measure 40
0001
0000
0001
0000
,  // measure 41
1001
0000
1000
1000
,  // measure 42
1001
0000
0000
0000
;
