#TITLE:シカ色デイズ;
#SUBTITLE:;
#ARTIST:シカ部;
#TITLETRANSLIT:SHIKAIRO DAYS;
#SUBTITLETRANSLIT:;
#ARTISTTRANSLIT:SHIKA-BU;
#GENRE:;
#CREDIT:DigiMindAxel;
#BANNER:SHIKAIRO DAYS.png;
#BACKGROUND:SHIKAIRO DAYS-bg.png;
#LYRICSPATH:SHIKAIRO DAYS.lrc;
#CDTITLE:DigiMindAxel original simfile.png;
#MUSIC:SHIKAIRO DAYS.ogg;
#OFFSET:-0.721000;
#SAMPLESTART:51.339970;
#SAMPLELENGTH:12.000000;
#SELECTABLE:YES;
#BPMS:0.000000=183.000000
;
#STOPS:
;
#BGCHANGES:-4.000=SHIKAIRO DAYS.avi=1.000=1=0=0=StretchNoLoop==CrossFade==,
99999=-nosongbg-=1.000=0=0=0 // don't automatically add -songbackground-
;
#KEYSOUNDS:;
#ATTACKS:;

//---------------dance-single - ----------------
#NOTES:
     dance-single:
     :
     Easy:
     5:
     0.330969,0.372140,0.123114,0.044769,0.000000,207.000000,196.000000,11.000000,4.000000,0.000000,0.000000,0.330969,0.372140,0.123114,0.044769,0.000000,207.000000,196.000000,11.000000,4.000000,0.000000,0.000000:
0000
0000
0000
0000
,
0000
0000
0000
0000
,
0000
0000
0000
0000
,
0000
0000
0000
0000
,
0001
0010
0100
1000
,
0001
0001
0001
0000
,
1000
0100
0010
0001
,
1000
1000
1000
0000
,
1001
1000
0001
1000
,
0100
0000
0000
0000
,
1001
1000
0000
0000
,
0010
0100
0001
0010
,
1001
0001
1000
0100
,
1000
0010
0100
0000
,
1001
1000
0001
1000
,
0001
0010
0100
1000
,
0001
0001
1000
1000
,
0001
0001
1000
1000
,
0100
0100
1000
1000
,
0001
0001
1000
1000
,
0010
0010
0100
0100
,
0001
0001
0100
0100
,
0010
0010
1000
1000
,
0001
0010
0100
0000
,
1000
0001
1000
0001
,
0100
0010
0100
0000
,
0001
1000
0001
1000
,
0020
0000
0230
0000
,
0301
0010
0001
0000
,
1000
0100
1000
0000
,
0001
1000
0001
0100
,
0010
1000
0100
0000
,
2000
0000
0000
0000
,
0000
0000
3002
0000
,
0000
0003
0000
0000
,
1000
0000
0000
1000
0000
0000
1000
0000
,
0000
0000
0000
0000
0000
0000
0000
0010
,
0000
0100
0000
0000
0110
0000
0000
0000
,
1000
0100
0010
0001
,
1000
0000
1001
0000
,
0001
0100
0010
0000
,
1000
0000
1001
0000
,
0001
0010
0100
1000
,
0001
0100
0010
0100
,
0001
1000
0100
0000
,
1000
0100
0010
0001
,
1000
0000
0000
0000
,
0001
0000
1001
0000
,
0100
0010
1000
0000
,
0001
0000
1001
0000
,
0010
0100
1000
0001
,
0100
0000
0110
0000
,
1000
0100
0010
0000
,
0001
0100
0010
0000
,
0100
0010
1000
0001
,
0100
0100
0010
0010
,
1000
0100
0010
0000
,
0001
1000
0001
1000
,
0100
0010
0001
0000
,
0100
0010
0100
0010
,
1000
0000
0100
0000
0010
0000
0000
0001
,
0000
0100
0010
0100
,
0001
0001
0000
0000
,
1000
0100
1000
0100
,
0010
0010
0010
0000
,
0001
0100
0001
0100
,
0010
0010
0110
0000
;

//---------------dance-single - ----------------
#NOTES:
     dance-single:
     :
     Medium:
     11:
     0.548417,0.595425,0.772261,0.100730,0.000000,343.000000,274.000000,69.000000,9.000000,0.000000,0.000000,0.548417,0.595425,0.772261,0.100730,0.000000,343.000000,274.000000,69.000000,9.000000,0.000000,0.000000:
0000
0000
0000
0000
,
0000
0000
0000
0000
,
0000
0000
0000
0000
,
0000
0000
0000
0000
,
1000
0001
0010
0001
,
1000
0010
1000
0000
1010
0000
0000
0000
,
1000
0001
0010
0001
,
1000
0010
1000
0000
1010
0000
0000
0000
,
1001
0000
1001
0000
0001
0100
0010
1000
,
0000
2000
0000
0000
0000
0000
3000
0000
,
1001
0000
1001
0000
1000
0010
0000
0000
,
1001
0100
0010
0001
,
1001
0000
1001
0000
1000
0010
0100
0001
,
0000
0002
0000
0000
0000
0000
0003
0000
,
1001
1001
0010
0100
,
1000
0001
0100
0000
0010
0100
0010
0000
,
1000
0100
1000
0000
0011
0000
0011
0000
,
1000
0100
1000
0000
0011
0000
0011
0000
,
1000
0100
1000
0000
0011
0000
0011
0000
,
0100
0010
0100
0000
1001
0000
1001
0000
,
0100
0001
0100
0000
0100
0010
0100
0000
,
0100
0001
0100
0000
1001
0000
1001
0000
,
0100
1000
0100
0000
0100
0010
0100
0000
,
0100
1000
0100
0000
1001
0000
0000
0000
,
0011
0000
0001
0000
1000
0010
0100
0000
,
1001
0010
1100
1100
,
0010
0001
1000
0000
1000
0000
0010
0100
,
0001
1000
0000
0100
1000
0010
0100
0000
,
0001
0100
1000
0110
,
1000
0100
0001
0110
,
0001
1000
0001
0000
0001
0100
0001
0000
,
1100
1001
0011
0000
,
0200
0000
1000
1300
,
0010
0001
0200
0000
,
0010
0310
0000
0000
,
1001
0000
0000
0110
0000
0000
2002
0000
,
0000
0000
0000
0000
0000
3003
0000
0100
,
0000
0100
0010
0000
0100
0010
0000
0001
,
1000
0100
0010
0001
,
0101
0101
1001
1001
,
1010
0000
0100
0001
0010
0001
0000
0000
,
1001
0000
1001
0000
1100
0000
0000
1001
,
0000
0100
0010
0100
0000
1000
0001
0000
,
1000
1100
1100
1001
,
0101
0000
0010
1000
0100
1000
0000
0000
,
1001
0000
1001
0000
0010
0001
0010
0200
,
0000
0000
0000
1300
,
1001
1001
0011
0011
,
1100
0000
0010
0001
1000
0001
0000
1000
,
0100
1000
0000
0001
0010
0001
0000
1001
,
0000
0000
0010
0000
0100
0000
1000
0001
,
0100
1001
1001
0011
,
1100
0000
0010
0001
1000
0001
0000
1001
,
0000
0000
0100
0000
0100
0000
0000
1001
,
0000
0010
0100
1000
,
0001
0100
0001
0000
1000
0010
1000
0000
,
0010
0100
0001
0010
0100
0000
0000
0000
,
1000
0100
1000
0000
0001
0010
0001
0000
,
0010
0100
1000
0001
0000
1000
1000
0000
,
0001
0100
0001
0000
1000
0010
1000
0000
,
0010
0100
0001
0010
0100
0000
0000
1001
,
0000
0110
0110
0110
,
1001
2002
0000
3003
,
1000
0100
0010
0100
,
1000
0010
1000
0000
1010
0000
0000
0000
,
1000
0100
0010
0100
,
1000
0010
1000
0000
1010
0000
0000
0000
;

//---------------dance-single - ----------------
#NOTES:
     dance-single:
     :
     Hard:
     13:
     0.709905,0.744281,0.660339,0.235036,0.050365,444.000000,385.000000,59.000000,21.000000,0.000000,0.000000,0.709905,0.744281,0.660339,0.235036,0.050365,444.000000,385.000000,59.000000,21.000000,0.000000,0.000000:
0000
0000
0000
0000
,
0000
0000
0000
0000
,
0000
0000
0000
0000
,
0000
0000
0000
0000
,
1000
0100
0010
0001
0010
0001
0010
0001
,
0101
0110
1010
0000
,
1000
0100
0010
0001
0010
0001
0010
0001
,
0101
0110
1010
0110
,
1001
0000
1001
0000
1000
0001
0010
0200
,
0000
0310
0001
0001
0100
0100
0010
0100
,
1001
0000
1002
0000
0100
0103
0000
0000
,
0001
1000
0001
0000
0010
0000
0100
0000
1000
0000
0100
0000
0010
0000
0000
0000
,
1001
0000
1001
0000
0001
1000
0100
0020
,
0000
0000
0031
0000
1000
0010
0200
0000
0000
0000
0310
0000
0100
0000
0010
0000
,
1001
0000
2001
0000
0010
3010
0000
0000
,
1000
0001
1000
0000
0100
0000
0010
0000
0001
0000
0010
0000
0100
0000
0000
0000
,
1000
0010
0100
0010
1000
1000
0001
0001
,
1000
0100
0010
0100
1000
1000
0001
0001
,
0010
0010
0100
0100
1000
1000
0001
0001
,
1000
0010
0001
0010
1000
0100
0010
0001
,
1000
0001
0100
0001
1000
0100
0001
0100
,
1000
1000
0001
0001
1000
0010
0100
0001
,
1000
0100
0010
0000
0001
0010
0100
0000
,
1000
0001
0100
0000
2002
0000
3003
0000
,
0100
0001
0100
0010
1000
0000
1000
0001
,
0010
0100
0000
0100
0010
0001
1000
0010
,
0100
0001
1000
0000
1000
0001
0010
0100
,
1000
0001
0000
0001
1000
0100
0010
0000
,
0100
1000
0100
0010
0100
1000
1000
1000
,
0001
0100
0010
0100
0001
1000
1000
1000
,
0100
0010
0100
0010
0001
0100
0001
0100
,
0110
1010
0202
0303
,
0001
0001
0100
1000
,
0010
0001
2000
0000
,
0010
0020
0000
3030
,
2002
0000
3003
0220
0000
0330
2002
0000
,
3003
0000
1000
0000
1000
0000
1000
0001
,
0000
0100
0101
0000
0010
1010
0000
0001
,
1001
0100
0010
0001
1000
0100
0010
0001
,
1001
0000
1001
0000
1100
0000
1100
0001
,
0000
0001
1000
0010
0001
0010
0000
1000
,
0100
0010
0000
0001
0010
0100
0000
1001
,
0000
1000
0010
0210
0000
0000
0001
0301
,
0000
0000
1001
0000
1001
0000
0101
1000
,
0000
1000
0001
0100
1000
0100
0000
0001
,
0100
0000
0010
0000
0100
0000
0000
0000
0001
1000
0001
1000
0001
0000
2000
0000
,
0000
3010
0010
0100
0100
0001
0001
1000
,
1001
0000
1001
0000
1000
0100
1000
0001
,
0000
0001
1000
0010
0001
0010
0000
1000
,
0100
0010
0000
0001
0010
0100
0000
1001
,
0000
1000
0010
0210
0000
0000
0001
0301
,
0000
0000
1001
0000
1001
0000
0101
1000
,
0000
1000
0001
0100
1000
0100
0000
1001
,
0000
0000
0010
0000
0100
0000
1000
0000
0010
0100
0010
0100
0010
0000
1001
0000
,
0000
0000
0100
0000
0010
0000
0001
0000
0100
0010
0100
0010
0100
0000
0000
0000
,
0001
1000
0100
1000
0001
1000
0100
1000
,
0001
0100
1000
0100
0001
0000
0010
0100
,
1000
1000
0001
0001
1000
0010
0100
0010
,
1000
0100
0100
0100
0000
1001
1001
0000
,
0001
1000
0100
1000
0001
0100
0010
0100
,
0001
1000
1010
0000
1010
0000
0000
1001
,
0000
0100
0101
0000
0110
0000
0110
0000
,
1001
0000
2001
0000
0000
3100
0010
0001
,
1000
0100
0010
0001
0010
0001
0010
0001
,
0101
0110
1010
0000
,
1000
0100
0010
0001
0010
0001
0010
0001
,
0101
0110
1010
0000
;

//---------------dance-single - ----------------
#NOTES:
     dance-single:
     :
     Beginner:
     2:
     0.121515,0.186070,0.078345,0.000000,0.000000,76.000000,69.000000,7.000000,0.000000,0.000000,0.000000,0.121515,0.186070,0.078345,0.000000,0.000000,76.000000,69.000000,7.000000,0.000000,0.000000,0.000000:
// measure 0
0000
0000
0000
0000
,  // measure 1
0000
0000
0000
0000
,  // measure 2
0000
0000
0000
0000
,  // measure 3
0000
0000
0000
0000
,  // measure 4
1000
0000
1000
0000
,  // measure 5
0010
0000
0000
0000
,  // measure 6
1000
0000
1000
0000
,  // measure 7
0010
0000
0000
0000
,  // measure 8
1001
0000
0000
0000
,  // measure 9
0000
0000
0000
0000
,  // measure 10
0001
0000
0000
0000
,  // measure 11
1000
0000
1000
0000
,  // measure 12
1001
0000
0000
0000
,  // measure 13
0000
0000
0000
0000
,  // measure 14
0001
0000
0000
0000
,  // measure 15
1000
0000
1000
0000
,  // measure 16
1001
0000
0000
0000
,  // measure 17
0010
0000
0000
0000
,  // measure 18
0100
0000
0000
0000
,  // measure 19
1000
0000
0000
0000
,  // measure 20
0001
0000
0000
0000
,  // measure 21
0010
0000
0000
0000
,  // measure 22
0100
0000
0000
0000
,  // measure 23
1000
0000
0000
0000
,  // measure 24
0010
0000
0000
0000
,  // measure 25
0010
0000
0000
0000
,  // measure 26
0100
0000
0000
0000
,  // measure 27
0100
0000
0000
0000
,  // measure 28
0010
0000
0000
0000
,  // measure 29
0010
0000
0000
0000
,  // measure 30
0100
0000
0000
0000
,  // measure 31
0100
0000
0000
0000
,  // measure 32
0110
0000
0000
0000
,  // measure 33
0000
0000
0000
0000
,  // measure 34
0000
0000
0000
0000
,  // measure 35
1001
0000
0000
0000
,  // measure 36
0000
0000
0000
0000
,  // measure 37
0001
0000
0000
0000
,  // measure 38
0001
0000
0000
0000
,  // measure 39
1000
0000
0000
0000
,  // measure 40
0010
0000
0000
0000
,  // measure 41
0100
0000
0000
0000
,  // measure 42
0010
0000
0000
0000
,  // measure 43
1000
0000
0000
0000
,  // measure 44
0001
0000
0000
0000
,  // measure 45
0010
0000
0000
0000
,  // measure 46
0001
0000
0000
0000
,  // measure 47
0100
0000
0000
0000
,  // measure 48
0100
0000
0000
0000
,  // measure 49
0010
0000
0000
0000
,  // measure 50
0010
0000
0000
0000
,  // measure 51
1000
0000
0000
0000
,  // measure 52
0001
0000
0000
0000
,  // measure 53
0010
0000
0000
0000
,  // measure 54
0010
0000
0000
0000
,  // measure 55
0001
0000
0001
0000
,  // measure 56
0001
0000
0000
0000
,  // measure 57
1000
0000
1000
0000
,  // measure 58
1000
0000
0000
0000
,  // measure 59
0001
0000
0001
0000
,  // measure 60
0001
0000
0000
0000
,  // measure 61
1000
0000
1000
0000
,  // measure 62
1001
0000
0000
0000
,  // measure 63
1000
0000
1000
0000
,  // measure 64
0010
0000
0000
0000
,  // measure 65
1000
0000
1000
0000
,  // measure 66
0010
0000
0110
0000
;
