#TITLE:Refrain;
#SUBTITLE:;
#ARTIST:お月さま交響曲;
#TITLETRANSLIT:;
#SUBTITLETRANSLIT:;
#ARTISTTRANSLIT:OTSUKISAMA KOUKYOUKYOKU;
#GENRE:;
#CREDIT:DigiMindAxel;
#BANNER:Refrain.png;
#BACKGROUND:Refrain-bg.png;
#LYRICSPATH:;
#CDTITLE:MUSECA.png;
#MUSIC:Refrain.ogg;
#OFFSET:-1.526000;
#SAMPLESTART:77.310051;
#SAMPLELENGTH:12.000000;
#SELECTABLE:YES;
#BPMS:0.000000=163.000000
;
#STOPS:
;
#BGCHANGES:;
#KEYSOUNDS:;
#ATTACKS:;

//---------------dance-single - ----------------
#NOTES:
     dance-single:
     :
     Easy:
     6:
     0.236284,0.322527,0.115779,0.281178,0.000000,200.000000,186.000000,14.000000,34.000000,0.000000,0.000000,0.236284,0.322527,0.115779,0.281178,0.000000,200.000000,186.000000,14.000000,34.000000,0.000000,0.000000:
// measure 0
0000
0000
0000
0000
,  // measure 1
0000
0000
0000
0000
,  // measure 2
0000
0000
0000
0000
,  // measure 3
0000
0000
0000
0000
,  // measure 4
0000
0000
0000
0000
,  // measure 5
1002
0000
0000
0000
,  // measure 6
0203
0000
0000
0000
,  // measure 7
0320
0000
0000
0230
0000
0000
0000
0302
,  // measure 8
0000
0000
0000
0003
,  // measure 9
2002
0000
0000
3003
,  // measure 10
1001
0000
0000
0000
,  // measure 11
0110
0000
0000
0000
,  // measure 12
1001
0000
0000
0000
,  // measure 13
0001
0000
1000
0000
,  // measure 14
0100
1000
0100
1000
,  // measure 15
0100
0010
0100
0010
,  // measure 16
2002
0000
0000
3003
,  // measure 17
0020
0000
0000
0230
0000
0000
0320
0000
,  // measure 18
0000
0200
0000
0000
0000
0000
0000
0000
,  // measure 19
0330
0000
0001
1000
,  // measure 20
0001
1000
0001
0100
,  // measure 21
0001
0100
0010
1000
,  // measure 22
0010
1000
0100
0010
,  // measure 23
0001
0000
1000
0100
,  // measure 24
1000
0100
1000
0001
,  // measure 25
1000
0001
0100
0010
,  // measure 26
0100
0010
2000
0000
,  // measure 27
3001
0000
0100
0001
,  // measure 28
0100
0001
1000
0100
,  // measure 29
1000
0100
0010
0001
,  // measure 30
0010
0001
0100
0010
,  // measure 31
1000
0000
0001
1000
,  // measure 32
0001
1000
0010
0100
,  // measure 33
0010
0100
0001
0010
,  // measure 34
0001
0010
0200
0000
,  // measure 35
0310
0000
0001
1000
,  // measure 36
0001
0000
1000
0001
,  // measure 37
1000
0000
0100
1000
,  // measure 38
0100
0000
0010
0001
,  // measure 39
0010
0000
0110
0000
,  // measure 40
0110
0000
2001
0000
,  // measure 41
0000
0000
3002
0000
,  // measure 42
0203
0000
0302
0000
,  // measure 43
0000
0000
0000
0000
,  // measure 44
0000
0000
2003
0000
,  // measure 45
0000
0000
0000
0000
,  // measure 46
0000
0000
3002
0000
,  // measure 47
0000
0000
0203
0000
,  // measure 48
0000
0000
0320
0000
,  // measure 49
0230
0000
0320
0000
,  // measure 50
0000
0000
0030
0000
,  // measure 51
0000
0000
1000
0001
,  // measure 52
1000
0100
1000
0001
,  // measure 53
0100
0000
0010
1000
,  // measure 54
0100
1000
0010
0100
,  // measure 55
0001
0000
1000
0100
,  // measure 56
0001
0100
1000
0100
,  // measure 57
0001
0100
1001
0000
,  // measure 58
0110
0000
2002
0000
,  // measure 59
0000
3003
0001
0100
,  // measure 60
0010
0100
0001
1000
,  // measure 61
0001
0000
0010
0001
,  // measure 62
0010
0100
1000
0010
,  // measure 63
0100
0000
0010
1000
,  // measure 64
0100
0010
0001
0100
,  // measure 65
0001
1000
0200
0000
,  // measure 66
2300
0000
0000
0000
,  // measure 67
0000
0000
3001
0100
,  // measure 68
0010
0100
0001
1000
,  // measure 69
0100
0001
0100
1000
,  // measure 70
0001
0100
0002
0000
,  // measure 71
1003
0000
1001
0001
,  // measure 72
0010
0100
0010
0001
,  // measure 73
1000
0010
0100
0010
,  // measure 74
1000
0100
0001
0100
,  // measure 75
2000
0000
0000
0000
3020
0000
0000
0030
,  // measure 76
2002
0000
0000
0000
,  // measure 77
0000
0000
0000
0000
,  // measure 78
3003
0000
0000
0000
;

//---------------dance-single - ----------------
#NOTES:
     dance-single:
     :
     Medium:
     11:
     0.431218,0.548296,0.363877,0.289448,0.095104,365.000000,321.000000,44.000000,35.000000,0.000000,0.000000,0.431218,0.548296,0.363877,0.289448,0.095104,365.000000,321.000000,44.000000,35.000000,0.000000,0.000000:
// measure 0
0000
0000
0000
0000
,  // measure 1
0000
0000
0000
0000
,  // measure 2
0000
0000
0000
0000
,  // measure 3
0000
0000
0000
0000
,  // measure 4
0000
0000
0000
0000
,  // measure 5
2000
0000
0000
0100
0000
0000
3100
0000
,  // measure 6
0020
0000
0000
0001
0000
0000
0031
0000
,  // measure 7
2000
0000
0000
3001
0000
0010
0000
2200
,  // measure 8
0000
0000
0000
3300
,  // measure 9
2002
0000
0000
3003
,  // measure 10
0101
0100
0100
0100
,  // measure 11
1001
0001
0001
0001
,  // measure 12
1100
1000
1000
1000
,  // measure 13
0110
0001
1100
0011
,  // measure 14
1001
0000
1000
0100
0001
0000
0100
0000
,  // measure 15
1000
0000
0001
0010
1000
0000
0010
0000
,  // measure 16
0001
0000
0000
0010
0000
0000
0100
0000
0000
1000
0000
0000
0001
0000
0010
0000
,  // measure 17
0100
0010
0001
1000
0010
0100
0001
1000
,  // measure 18
0100
0000
0000
0010
0000
0000
0100
0000
0000
0010
0000
0000
0001
0000
0000
1000
,  // measure 19
0000
0000
0000
0000
0001
0100
0001
0000
,  // measure 20
1000
0000
0100
0010
0100
1000
0100
0000
,  // measure 21
0010
0001
0201
0320
,  // measure 22
2030
0000
3200
0000
0310
0001
0010
1100
,  // measure 23
0000
0000
0110
0000
0001
0010
0001
0000
,  // measure 24
0100
0000
0010
0100
0001
0100
0010
0000
,  // measure 25
1000
0100
0011
1000
,  // measure 26
0011
0000
1000
0000
0012
0000
0000
1000
,  // measure 27
1003
0000
0000
0000
0001
0100
0010
0000
,  // measure 28
0100
0000
0001
0010
0100
0010
0001
0000
,  // measure 29
1000
0000
0100
0010
0100
0000
2000
0000
,  // measure 30
3020
0000
0230
0000
0301
1000
0100
0011
,  // measure 31
0000
0000
0110
0000
1000
0100
0010
0000
,  // measure 32
0001
0000
0100
0010
1000
0010
0100
0000
,  // measure 33
0001
0010
0100
0000
2001
0000
3200
0000
,  // measure 34
0320
0000
0031
0100
0020
0000
0000
0100
,  // measure 35
0130
0000
0001
0001
,  // measure 36
0001
0010
0001
0000
1000
0000
1000
0000
,  // measure 37
1000
0100
1000
0000
0001
0000
0001
0000
,  // measure 38
0001
0100
0001
0000
1000
0000
1000
0000
,  // measure 39
1000
0000
0010
0000
0100
0000
0001
0000
1000
0000
0000
1000
0000
0000
1000
0000
,  // measure 40
0001
0000
0000
0001
0000
0000
0000
0000
0201
0000
0000
0000
0000
0000
0000
0000
,  // measure 41
0320
0000
2030
0000
,  // measure 42
3002
0000
1003
0010
,  // measure 43
0001
0000
0000
0000
0010
0000
0000
0000
1000
0000
0000
0100
0000
0000
0010
0000
,  // measure 44
0001
0000
1000
0010
,  // measure 45
0001
0000
0000
0000
0010
0000
0000
0000
1000
0000
0000
0100
0000
0000
0010
0000
,  // measure 46
0001
0000
1001
0100
,  // measure 47
0001
0000
0000
0000
0100
0000
0000
0000
1000
0000
0000
0001
0000
0000
0010
0000
,  // measure 48
0100
1000
1001
0010
,  // measure 49
1000
0010
1002
0000
,  // measure 50
0200
0000
0000
0000
,  // measure 51
0000
0000
0303
0000
0010
1000
0000
0001
,  // measure 52
0010
0100
0010
0001
0200
0000
0001
0000
,  // measure 53
0301
0000
0000
0000
1000
0001
0000
0100
,  // measure 54
0010
1000
0010
0100
0002
0000
1000
0000
,  // measure 55
1003
0000
0000
0000
0001
0010
0000
1000
,  // measure 56
0010
0001
0010
0100
1000
0010
0000
0001
,  // measure 57
0010
0000
0000
1000
0000
0000
0100
0000
0000
0010
0000
0000
0001
0000
0000
0000
0000
0000
1000
0000
0010
0000
1000
0000
,  // measure 58
0010
0000
0000
0100
0001
0100
0002
0000
0000
1000
0000
0000
,  // measure 59
1003
0000
0000
0000
0001
0010
0000
1000
,  // measure 60
0010
0001
0010
0100
2000
0000
0010
0000
,  // measure 61
3010
0000
0000
0000
1000
0100
0000
0001
,  // measure 62
0100
1000
0001
0010
0200
0000
0010
0000
,  // measure 63
0310
0000
0000
0000
0001
0100
0000
1000
,  // measure 64
0100
0001
0010
0100
1000
0000
1010
0000
,  // measure 65
1001
0000
0000
0010
0000
0000
0100
0000
1000
0000
0000
1000
0000
0000
1000
0000
,  // measure 66
0001
0000
0000
0002
0000
0000
0000
0000
0000
0000
0000
0000
0000
0000
0000
0000
,  // measure 67
0003
0000
0011
1001
,  // measure 68
1001
0000
1001
0100
0010
0000
0101
0000
,  // measure 69
0101
0000
0000
0010
0000
0000
0100
0000
1000
0000
0000
0000
1100
0000
0000
0000
,  // measure 70
1100
0000
0000
0010
0000
0000
0001
0000
0100
0000
0000
0000
0010
0000
0000
0000
,  // measure 71
0110
0000
0000
0100
0000
0000
0100
0000
0001
0000
0000
0000
1001
0000
0000
0000
,  // measure 72
1001
0000
1001
0100
0010
0000
0101
0000
,  // measure 73
0101
0000
0000
0010
0000
0000
0100
0000
1000
0000
0000
0000
0110
0000
0000
0000
,  // measure 74
0110
0000
0000
0001
0000
0000
1000
0000
0100
0000
0000
0000
0011
0000
0000
0000
,  // measure 75
1001
0000
0000
0100
0000
0000
0010
0000
0202
0000
0000
0000
0000
0000
0303
0000
,  // measure 76
0220
0000
0000
0000
,  // measure 77
0000
0000
0000
0000
,  // measure 78
0330
0000
0000
0000
;

//---------------dance-single - ----------------
#NOTES:
     dance-single:
     :
     Hard:
     14:
     0.572988,0.774065,0.620245,0.463116,0.343202,485.000000,410.000000,75.000000,56.000000,0.000000,0.000000,0.572988,0.774065,0.620245,0.463116,0.343202,485.000000,410.000000,75.000000,56.000000,0.000000,0.000000:
// measure 0
0000
0000
0000
0000
,  // measure 1
0000
0000
0000
0000
,  // measure 2
0000
0000
0000
0000
,  // measure 3
0000
0000
0000
0000
,  // measure 4
0000
0000
0000
0000
,  // measure 5
1100
0000
0000
0100
0000
0000
0200
0000
0000
0000
0000
0000
0310
0000
0000
0000
,  // measure 6
0011
0000
0000
0010
0000
0000
0020
0000
0000
0000
0000
0000
0130
0000
0000
0000
,  // measure 7
1002
0000
0000
0203
0000
0320
0000
2000
,  // measure 8
0000
0000
0000
3030
,  // measure 9
1001
0000
0000
0001
0000
0000
0001
0000
2000
0000
0000
0000
3100
0000
0000
0000
,  // measure 10
0012
1000
0010
1003
,  // measure 11
2001
0100
0001
3100
,  // measure 12
1002
0100
1000
0103
,  // measure 13
2001
0000
0000
0100
0000
0000
3001
0010
0100
0020
0000
0000
,  // measure 14
0031
1000
0001
1000
0001
1000
0001
0010
,  // measure 15
0100
1000
0100
1000
0100
1000
0100
1000
,  // measure 16
1010
0000
0000
0110
0000
0000
0101
0000
0000
0110
0000
0000
1001
0000
0010
0100
,  // measure 17
0010
0000
1000
0000
0010
0100
0010
0000
1000
0000
0010
0100
0010
0000
1000
0000
,  // measure 18
1001
0000
0000
0011
0000
0000
0110
0000
0000
1100
0000
0000
0110
0000
0000
0011
,  // measure 19
0000
0000
0000
0000
0001
1000
0010
1000
,  // measure 20
0001
1000
0020
0000
0130
0001
0010
0100
,  // measure 21
0010
0001
0010
0100
1001
0000
0101
0000
,  // measure 22
0010
0000
0000
0100
0000
0000
1000
0000
0001
0000
0100
0000
0001
0000
0201
0000
,  // measure 23
0000
0010
0310
0000
1000
0010
0100
1000
,  // measure 24
0100
0000
0010
0000
1000
0000
0010
0000
0200
0000
0000
0302
0000
0000
0013
0000
,  // measure 25
0200
0000
0000
2300
0000
0000
3001
0000
0101
0000
0000
0000
0110
0000
0000
0000
,  // measure 26
1010
0000
0000
0100
0000
0000
0010
0000
1002
0000
0000
0000
0000
0000
0010
0000
,  // measure 27
0013
0000
0000
0000
0001
0100
1000
0100
,  // measure 28
0010
1000
0001
0100
0010
1000
0100
0010
,  // measure 29
0100
1000
0001
0100
1002
0000
0203
0000
,  // measure 30
0310
0000
0000
1000
0000
0000
0100
0000
0010
0000
0001
0000
1000
0000
1020
0000
,  // measure 31
0000
0100
0130
0000
0001
0100
1000
0100
,  // measure 32
0001
0000
0010
0000
0100
0000
0010
0000
0002
0000
0000
0203
0000
0000
0310
0000
,  // measure 33
2000
0000
0000
3200
0000
0000
0310
0000
1001
0000
0000
0000
1100
0000
0000
0000
,  // measure 34
0011
0000
0000
0100
0000
0000
1000
0000
0020
0000
0000
0000
0000
0000
0100
0000
,  // measure 35
0130
0000
0001
0001
,  // measure 36
0001
0000
0100
0010
0000
0100
0010
0000
1000
0000
0000
0000
1000
0000
0000
0000
,  // measure 37
1000
0000
0010
0100
0000
0010
0100
0000
0001
0000
0000
0000
0001
0000
0000
0000
,  // measure 38
0001
0000
0010
0100
0000
0010
0100
0000
1000
0000
0000
1000
0000
0000
1000
0000
,  // measure 39
0100
0000
0010
0000
0001
0000
1000
0000
1100
0000
0000
1100
0000
0000
1001
0000
,  // measure 40
0011
0000
0000
0011
0000
0000
0100
0000
1002
0000
0000
0000
0000
0000
0000
0000
,  // measure 41
2003
3001
0200
0000
,  // measure 42
0020
0330
1001
0200
,  // measure 43
0320
0000
0000
0000
0032
0000
0000
0000
0103
0000
0000
0010
0000
0000
2000
0000
,  // measure 44
0002
0000
0000
0000
3003
0000
0000
0000
1001
0000
0000
0001
0000
0000
0010
0000
,  // measure 45
0100
0000
0000
0100
0000
0000
1000
0000
0001
0000
0000
0100
0000
0000
0010
0000
,  // measure 46
2000
3001
0201
0010
,  // measure 47
0301
0000
0000
0010
0000
0000
0100
0000
1000
0000
0000
0010
0000
0000
0100
0000
,  // measure 48
0002
0000
0000
0000
1003
0000
0000
0000
1010
0000
0000
0100
0000
0000
0010
0000
,  // measure 49
0001
0000
0000
0100
0000
0000
0001
0000
2001
0000
0000
0000
0000
0000
0000
0000
,  // measure 50
0200
0000
0000
0000
,  // measure 51
0000
0000
0000
0000
3300
0000
0000
0000
1000
0000
0010
1000
0000
0000
1000
0000
,  // measure 52
0100
0010
0001
1000
0020
0000
0000
0100
,  // measure 53
0200
0000
0000
0000
0330
0000
0000
0000
0001
0000
0010
0001
0000
0000
0001
0000
,  // measure 54
0010
0100
1000
0001
0200
0000
0000
0010
,  // measure 55
0020
0000
0000
0000
0330
0000
0000
0000
1000
0000
0010
1000
0000
0000
1000
0000
,  // measure 56
0010
0000
0100
0001
1000
0000
0100
0000
0010
0000
0001
0010
0000
0000
0010
0000
,  // measure 57
0001
0000
0000
0000
0000
0000
0100
0000
0000
0010
0000
0000
0100
0000
0000
0000
0000
0000
0001
0000
0000
0000
0000
0000
1000
0000
0000
0000
0000
0000
0000
0000
1000
0000
0000
0000
0100
0000
0000
0000
0001
0000
0000
0000
0100
0000
0000
0000
,  // measure 58
1000
0000
0001
0100
1000
0100
0002
0000
0000
0203
0000
0000
,  // measure 59
0020
0000
0000
0000
0330
0000
0000
0000
1000
0000
0100
1000
0000
0000
1000
0000
,  // measure 60
0100
0010
0001
0100
0001
0010
1000
0020
,  // measure 61
0002
0000
0000
0000
0033
0000
0000
0000
1000
0000
0010
1000
0000
0000
1000
0000
,  // measure 62
0010
0100
0001
0010
0001
0100
1000
0200
,  // measure 63
0002
0000
0000
0000
0303
0000
0000
0000
1000
0000
0100
1000
0000
0000
1000
0000
,  // measure 64
0100
0000
0010
0100
0010
0000
0001
0000
0101
0000
0000
0000
0110
0000
0000
0000
,  // measure 65
1010
0000
0000
0100
0000
0000
0010
0000
1001
0000
0000
1100
0000
0000
0011
0000
,  // measure 66
1001
0000
0000
0220
0000
0000
0000
0000
0000
0000
0000
0000
0000
0000
0000
0000
,  // measure 67
0330
0000
0000
0000
0001
1000
0001
1000
0001
0000
0000
0001
0100
0000
0000
0100
,  // measure 68
0010
0000
0000
1010
0000
0000
0110
0000
1001
0000
0000
0001
0010
0000
0000
0010
,  // measure 69
0100
0000
0000
1100
0000
0000
0011
0000
1001
0000
0000
1000
0010
0000
0000
0010
,  // measure 70
0100
0000
0000
0101
0000
0000
0110
0000
1001
0000
0000
0000
1100
0000
0000
0000
,  // measure 71
0011
0000
0000
0110
0000
0000
1100
0000
0001
0000
0000
0001
0100
0000
0000
0100
,  // measure 72
0010
0000
0000
1100
0000
0000
0011
0000
1001
0000
0000
1000
0010
0000
0000
0010
,  // measure 73
0100
0000
0000
0011
0000
0000
1100
0000
1001
0000
0000
0001
0010
0000
0000
0010
,  // measure 74
0100
0000
0000
1010
0000
0000
0101
0000
1001
0000
0000
1000
0100
0000
0000
0100
,  // measure 75
0010
0000
0000
0101
0000
0000
1010
0000
0100
0010
0100
0000
0100
0010
0100
0000
,  // measure 76
2002
0000
0000
0000
,  // measure 77
0000
0000
0000
0000
,  // measure 78
3003
0000
0000
0000
;

//---------------dance-single - ----------------
#NOTES:
     dance-single:
     :
     Challenge:
     16:
     0.896697,1.064340,0.587165,0.231558,0.992392,759.000000,688.000000,71.000000,28.000000,0.000000,0.000000,0.896697,1.064340,0.587165,0.231558,0.992392,759.000000,688.000000,71.000000,28.000000,0.000000,0.000000:
// measure 0
0000
0000
0000
0000
,  // measure 1
0000
0000
0000
0000
,  // measure 2
0000
0000
0000
0000
,  // measure 3
0000
0000
0000
0000
,  // measure 4
0000
0000
0000
0000
,  // measure 5
1001
0000
0000
0001
0000
0000
0201
0000
0000
0000
0010
0000
0310
0000
0000
0000
,  // measure 6
1001
0000
0000
1000
0000
0000
1200
0000
0000
0000
0010
0000
0310
0000
0000
0000
,  // measure 7
1002
0000
0000
0100
0000
0010
0000
0200
,  // measure 8
0000
0000
0000
0303
,  // measure 9
1001
0000
0000
1001
0000
0000
1100
0000
0012
0000
0000
0000
1003
0000
0000
0000
,  // measure 10
1001
0000
0000
0000
0101
0000
0010
1000
0001
0000
0010
0100
0000
0010
0100
0000
,  // measure 11
1001
0000
0000
0000
1100
0000
0010
0001
1000
0000
0010
0100
0000
0010
0100
0000
,  // measure 12
1001
0000
0000
0000
0011
0000
0100
1000
0010
0000
0100
0001
0000
0100
0001
0000
,  // measure 13
1001
0000
0000
0000
0000
0000
0000
0000
0000
0000
0000
0000
1100
0000
0000
0000
0000
0000
0010
0000
0000
0001
0000
0000
1000
0000
0000
0000
0100
0000
0000
0000
0001
0000
0000
0000
0100
0000
0000
0000
1000
0000
0000
0000
0001
0000
0000
0000
,  // measure 14
1001
0000
0100
1000
0010
0000
0100
0010
1000
0000
0100
0010
0000
0100
0010
0000
,  // measure 15
1001
0000
0100
0010
0001
0000
0010
0001
0100
0000
0010
0100
0000
0010
0100
0000
,  // measure 16
1001
0000
0001
0010
0000
0010
1000
0000
1000
0100
0000
0100
0001
0010
0100
1000
,  // measure 17
0001
0100
1000
0100
0001
0010
1000
0010
0001
0100
1000
0100
0001
0010
1000
0010
,  // measure 18
0001
0100
0010
1000
0100
0010
0001
1000
0010
0100
0010
1000
0001
0010
0100
1000
,  // measure 19
0000
0000
0000
0000
0000
0000
0000
0000
1001
0000
0010
1000
0010
1000
0010
0000
,  // measure 20
1001
0000
0001
0000
0110
0000
0100
0000
1001
0000
0010
0001
0010
0001
0010
0000
,  // measure 21
0100
0010
0100
0010
0100
0000
1000
0000
1001
0000
0100
0001
0100
0001
0100
0000
,  // measure 22
0010
0100
0010
0100
0010
0000
1000
0000
0001
0100
0001
1000
0100
1000
0020
0000
,  // measure 23
0000
0000
1030
0000
0001
0010
0100
1000
0001
0000
0010
0001
0010
0001
0010
0000
,  // measure 24
1001
0000
1000
0000
0110
0000
0010
0000
1001
0000
0010
1000
0010
1000
0010
0000
,  // measure 25
0100
0010
0100
0010
0100
0000
0001
0000
1001
0000
0100
0001
0100
0001
0100
0000
,  // measure 26
1001
0000
0010
0100
0010
1000
0100
0010
0002
0000
0000
0000
0000
0000
0000
0000
,  // measure 27
1003
0100
0001
0100
1000
0010
0001
0010
1000
0000
0001
0100
0001
0000
1000
0001
,  // measure 28
0010
0000
0100
1000
0100
0000
0010
0000
0001
0000
0100
0010
0100
0000
0001
1000
,  // measure 29
0100
0000
1000
0001
1000
0000
0100
0000
1001
0000
0010
0001
0010
0000
0001
0010
,  // measure 30
0100
0000
1000
0010
1000
0000
0001
0000
0100
0010
0100
0001
0010
0001
2000
0000
,  // measure 31
0000
0000
0000
0000
3001
0010
0100
1000
0001
0000
0100
0010
0100
0000
0001
1000
,  // measure 32
0100
0000
1000
0100
0010
0000
0001
0000
0100
0000
0010
1000
0010
0000
1000
0001
,  // measure 33
0010
0000
0001
0010
0100
0000
1000
0000
1001
0000
0010
0100
0010
0100
0010
0000
,  // measure 34
1001
0000
0100
0010
0100
0001
0010
0001
2000
0000
0000
0000
0000
0000
0000
0000
,  // measure 35
3001
0010
1000
0010
0001
0100
1000
0100
0001
0000
0001
0000
1000
0000
1000
0000
,  // measure 36
0001
0000
0001
0010
0000
0010
0100
0000
1000
0000
1000
0000
0001
0000
0001
0000
,  // measure 37
1000
0000
1000
0100
0000
0100
0010
0000
0001
0000
0001
0000
1000
0000
1000
0000
,  // measure 38
0001
0000
0001
0010
0000
0010
0100
0000
2000
0000
0000
0001
0000
0000
3001
0000
,  // measure 39
0011
0000
0110
0000
1100
0000
0110
0000
1001
0000
0000
0101
0000
0000
1010
0000
,  // measure 40
0110
0000
0000
0110
0000
0000
0001
0100
0020
0000
0000
0000
0100
0000
0000
0000
,  // measure 41
0100
0000
0000
0000
0130
0000
0001
1000
0200
0000
0000
0000
0010
0000
0000
0000
,  // measure 42
0010
0000
0310
0000
1001
0000
0100
0010
,  // measure 43
0001
0010
0100
0010
0001
1000
0010
1000
,  // measure 44
0001
1000
0010
1000
1001
0000
0010
0100
,  // measure 45
1000
0100
0010
0100
1000
0001
0100
0001
,  // measure 46
1000
0001
0100
0001
2001
0000
3200
0000
,  // measure 47
0302
0000
0000
0203
0000
0000
1300
0000
0002
0000
0000
0023
0000
0000
0130
0000
,  // measure 48
2000
0000
0000
0000
3010
0000
0000
0000
1002
0000
0000
0203
0000
0000
1300
0000
,  // measure 49
0200
0000
0000
0320
0000
0000
0031
0000
2000
0000
0000
0000
0000
0000
0000
0000
,  // measure 50
3002
0000
0010
0010
,  // measure 51
0013
0000
0000
0000
0001
0010
0100
1000
0001
0100
0010
0100
0001
0000
0010
0100
,  // measure 52
0010
0100
1000
0010
1000
0010
0100
0001
0010
0001
0010
0001
0010
0001
1000
0010
,  // measure 53
0100
0010
0100
0010
1000
0000
1000
0000
0001
0010
0100
0010
0001
0000
0100
0001
,  // measure 54
0100
0001
0010
0100
0010
0100
1000
0010
1000
0001
1000
0001
1000
0001
1000
0000
,  // measure 55
1100
0000
0000
0110
0000
0000
0011
0000
0100
0000
1000
0010
0000
1000
0001
0000
,  // measure 56
0010
0000
0100
1000
0000
0001
0100
0000
0010
0000
1000
0100
0000
1000
0001
0000
,  // measure 57
0100
0000
0000
0000
0000
0000
0010
0000
0000
0100
0000
0000
0001
0000
0000
0010
0000
0000
0100
0000
0000
1000
0000
0000
0001
0000
0000
0000
0000
0000
0000
0000
1001
0000
0000
0000
0010
0000
0000
0000
0100
0000
0000
0000
1000
0000
0000
0000
,  // measure 58
1100
0000
1001
0100
0010
0001
0011
0000
0000
0120
0000
0000
,  // measure 59
1030
0001
0010
0000
0001
1000
0010
0100
0001
0010
0100
0010
0001
0000
0100
0010
,  // measure 60
0100
0010
1000
0100
1000
0100
0010
0001
0100
0010
0100
0010
0100
0010
0100
0010
,  // measure 61
1000
0001
0010
0001
0010
0001
1000
0000
0001
0100
0010
0100
0001
0000
0010
0100
,  // measure 62
0010
0100
1000
0001
1000
0010
0100
0001
0010
0100
0010
0100
0010
0100
0010
0000
,  // measure 63
0101
0000
0000
0110
0000
0000
1010
0000
0100
0000
0001
0010
0000
0100
1000
0000
,  // measure 64
0010
0000
0100
0001
0000
1000
0010
0000
0110
0000
0000
0000
1001
0000
0100
1000
,  // measure 65
0010
0000
0100
0001
0000
1000
0100
0000
0011
0000
0000
1100
0000
0000
0011
0000
,  // measure 66
0110
0000
0000
1002
0000
0000
0000
0000
0000
0000
0000
0000
0100
0000
0000
0000
,  // measure 67
0103
0010
0100
0010
1000
0100
0001
0100
1000
0000
0010
0100
0010
0000
0010
1000
,  // measure 68
0010
0000
1000
0100
0000
0010
0001
0000
1001
0000
0010
0001
0010
0000
0010
0100
,  // measure 69
0010
0000
0001
0100
0000
0010
1000
0000
1001
0000
0010
0100
0010
0000
0010
1000
,  // measure 70
0010
0000
0100
0001
0000
1000
0100
0000
1001
0000
0000
0000
0001
0100
0010
1000
,  // measure 71
0001
0000
0010
0100
0000
0010
0100
0000
1001
0000
0100
1000
0100
0000
0100
0010
,  // measure 72
0100
0000
1000
0100
0000
0010
0001
0000
1001
0000
0100
0001
0100
0000
0100
0010
,  // measure 73
0100
0000
0001
0010
0000
0100
1000
0000
1001
0000
0010
0001
0010
0000
0010
0100
,  // measure 74
0010
0000
0001
0100
0000
0010
1000
0000
1001
0000
0010
1000
0010
0000
0010
0100
,  // measure 75
0010
0000
1000
0001
0000
1000
0001
0000
1000
0100
0001
0100
1000
0010
0001
0010
,  // measure 76
2000
0000
0000
0000
,  // measure 77
0000
0000
0000
0000
0000
0000
0000
0000
0000
0000
0000
0000
0000
0000
3001
1000
,  // measure 78
0001
0000
0000
0000
;

//---------------dance-single - ----------------
#NOTES:
     dance-single:
     :
     Beginner:
     3:
     0.090969,0.157129,0.082699,0.000000,0.000000,77.000000,67.000000,10.000000,0.000000,0.000000,0.000000,0.090969,0.157129,0.082699,0.000000,0.000000,77.000000,67.000000,10.000000,0.000000,0.000000,0.000000:
0000
0000
0000
0000
,
0000
0000
0000
0000
,
0000
0000
0000
0000
,
0000
0000
0000
0000
,
0000
0000
0000
0000
,
0000
0000
0000
0000
,
0000
0000
0000
0000
,
0000
0000
0000
0000
,
0000
0000
0000
0000
,
0000
0000
0000
0000
,
1001
0000
0000
0000
,
1000
0000
0000
0000
,
1000
0000
0000
0000
,
1000
0000
0100
0000
,
0010
0000
0000
0000
,
0010
0000
0000
0000
,
0110
0000
0000
0000
,
0000
0000
0000
0000
,
0000
0000
0000
0000
,
0000
0000
0010
0000
,
0000
0000
0010
0000
,
0000
0000
0100
0000
,
0000
0000
0010
0000
,
0000
0000
1000
0000
,
0000
0000
0001
0000
,
0000
0000
1000
0000
,
0000
0000
1001
0000
,
0000
0000
0001
0000
,
0000
0000
0001
0000
,
0000
0000
0100
0000
,
0000
0000
0100
0000
,
0000
0000
0010
0000
,
0000
0000
0010
0000
,
0000
0000
1000
0000
,
0000
0000
1000
0000
,
0000
0001
0000
0000
,
0000
0000
0001
0000
,
0000
0000
0001
0000
,
0000
0000
0001
0000
,
0000
0000
1000
0000
,
0000
0000
1001
0000
,
0000
0000
1001
0000
,
0000
0000
0100
0000
,
0000
0000
0000
0000
,
0000
0000
0000
0000
,
0000
0000
0000
0000
,
0000
0000
0100
0000
,
0000
0000
0000
0000
,
0000
0000
0100
0000
,
0000
0000
0100
0000
,
0000
0000
0000
0000
,
0000
0000
0001
0000
,
1000
0000
0001
0000
,
0000
0000
1000
0000
,
0001
0000
1000
0000
,
0000
0000
0100
0000
,
0100
0000
0010
0000
,
0010
0000
0001
0000
,
0000
0000
0000
0000
,
0000
0000
1000
0000
,
0001
0000
1000
0000
,
0000
0000
0001
0000
,
1000
0000
0001
0000
,
0000
0000
0010
0000
,
0010
0000
0100
0000
,
0100
0000
1000
0000
,
0000
0000
0000
0000
,
0000
0000
1001
0000
,
0000
0000
0001
0000
,
0000
0000
1001
0000
,
0000
0000
1000
0000
,
0000
0000
1001
0000
,
0000
0000
0001
0000
,
0000
0000
1001
0000
,
0000
0000
1000
0000
,
0000
0000
0001
0000
,
1001
0000
0000
0000
;
