#VERSION:0.83;
#TITLE:林檎と蜂蜜(美味しさ倍増MIX);
#SUBTITLE:;
#ARTIST:APPLE MAN;
#TITLETRANSLIT:RINGO TO HACHIMITSU(OISHISA BAIZOU MIX);
#SUBTITLETRANSLIT:;
#ARTISTTRANSLIT:;
#GENRE:;
#ORIGIN:;
#CREDIT:DigiMindAxel;
#BANNER:RINGO TO HACHIMITSU(OISHISA BAIZOU MIX).png;
#BACKGROUND:RINGO TO HACHIMITSU(OISHISA BAIZOU MIX)-bg.png;
#PREVIEWVID:;
#JACKET:RINGO TO HACHIMITSU(OISHISA BAIZOU MIX)-jacket.png;
#CDIMAGE:;
#DISCIMAGE:;
#LYRICSPATH:RINGO TO HACHIMITSU(OISHISA BAIZOU MIX).lrc;
#CDTITLE:pop'n music.png;
#MUSIC:RINGO TO HACHIMITSU(OISHISA BAIZOU MIX).ogg;
#OFFSET:-0.406000;
#SAMPLESTART:3.133017;
#SAMPLELENGTH:12.000000;
#SELECTABLE:YES;
#BPMS:0.000=260.000;
#STOPS:;
#DELAYS:;
#WARPS:;
#TIMESIGNATURES:0.000=4=4;
#TICKCOUNTS:0.000=4;
#COMBOS:0.000=1;
#SPEEDS:0.000=1.000=0.000=0;
#SCROLLS:0.000=1.000;
#FAKES:;
#LABELS:0.000=Song Start;
#BGCHANGES:;
#KEYSOUNDS:;
#ATTACKS:
;

//---------------dance-single - ----------------
#NOTEDATA:;
#CHARTNAME:;
#STEPSTYPE:dance-single;
#DESCRIPTION:;
#CHARTSTYLE:;
#DIFFICULTY:Easy;
#METER:4;
#RADARVALUES:0.204567,0.304293,0.130179,0.364501,0.000000,165.000000,150.000000,15.000000,42.000000,0.000000,0.000000,0.000000,0.000000,0.000000,0.204567,0.304293,0.130179,0.364501,0.000000,165.000000,150.000000,15.000000,42.000000,0.000000,0.000000,0.000000,0.000000,0.000000;
#CREDIT:;
#NOTES:
0000
0000
0000
0000
,
0000
0000
0000
0000
,
0000
0000
0000
0000
,
0000
0000
0000
0000
,
0000
0000
0000
0000
,
0000
0000
0000
0000
,
0000
0000
0000
0000
,
0000
0000
0000
0000
,
0000
0000
0000
0000
,
0000
0000
0000
0000
,
0000
0000
0000
0000
,
0001
0000
1000
0000
,
0001
0000
0100
0000
,
0010
0000
0100
0000
,
0010
0000
1000
0000
,
0100
0000
0010
0000
,
0001
0000
0010
0000
,
0100
0000
1000
0000
,
0001
0000
0100
0000
,
1001
0000
0002
0000
,
1003
0000
0000
0000
,
0010
0000
0200
0000
,
0310
0000
0000
0000
,
1000
0000
0010
0000
,
0100
0000
0001
0000
,
0100
0000
0010
0000
,
1001
0000
0000
0000
,
1000
0000
0200
0000
,
1300
0000
0010
0000
,
0200
0000
0301
0000
,
1000
0000
0100
0000
,
0010
0000
0001
0000
,
0010
0000
1000
0000
,
0010
0000
0001
0000
,
0100
0000
0000
0000
,
2001
0000
3000
0000
,
0002
0000
0003
0000
,
0020
0000
0030
0000
,
0200
0000
0300
0000
,
2000
0000
3001
0000
,
0002
0000
1003
0000
,
0220
0000
0000
0000
,
0000
0000
0000
0330
,
2000
0000
3000
0000
,
0020
0000
0030
0000
,
0200
0000
0300
0000
,
0002
0000
0003
0000
,
2000
0000
3001
0000
,
0002
0000
1003
0000
,
0220
0000
0000
0000
,
0000
0000
0330
0000
,
0001
0000
1000
0000
,
0010
0000
1000
0000
,
0001
0000
0010
0000
,
0001
0000
0001
0000
,
1000
0000
0001
0000
,
0100
0000
0100
0000
,
0001
0000
1000
0000
,
0100
0000
0100
0000
,
1000
0000
0001
0000
,
0010
0000
0010
0000
,
0001
0000
1000
0000
,
0010
0000
0010
0000
,
1000
0000
0001
0000
,
0100
0000
0100
0000
,
0220
0000
0000
0000
,
0330
0000
0000
0000
,
0001
0000
1000
0000
,
0001
0000
1000
0000
,
0010
0000
1000
0000
,
0100
0000
0010
0000
,
0001
0000
0100
0000
,
0001
0000
1000
0000
,
0010
0000
1000
0000
,
0001
0000
1000
0000
,
0001
0000
0010
0000
,
0100
0000
1000
0000
,
0100
0000
0010
0000
,
0001
0000
0100
0000
,
1001
0000
0000
0000
,
0100
0000
0000
0000
,
0220
0000
0000
0000
,
0000
0000
0330
0000
,
0002
0000
0103
0000
,
0020
0000
0130
0000
,
0002
0000
0013
0000
,
0200
0000
1300
0000
,
0020
0000
0230
0000
,
0320
0000
0130
0000
,
0220
0000
0000
0000
,
0000
0000
0330
0000
,
2000
0000
3100
0000
,
0020
0000
0130
0000
,
2000
0000
3010
0000
,
0200
0000
0301
0000
,
2000
0000
3002
0000
,
2003
0000
3001
0000
,
0220
0000
0000
0000
,
0000
0000
0000
0330
,
0100
0000
0000
0000
,
0000
0000
0000
0000
,
1001
0000
0000
0000
,
0000
0000
0000
0000
,
0000
0000
0000
0000
,
0000
0000
0000
0000
,
0110
0000
0000
0000
,
0000
0000
0000
0000
,
0000
0000
0000
0000
,
0000
0000
0000
0000
,
1001
0000
0000
0000
,
0000
0000
0000
0000
,
0000
0000
0000
0000
,
0000
0000
0000
0000
,
0110
0000
0000
0000
,
0000
0000
0000
0000
,
0000
0000
0000
0000
,
0000
0000
0000
0000
0000
0000
0000
1001
;

//---------------dance-single - ----------------
#NOTEDATA:;
#CHARTNAME:;
#STEPSTYPE:dance-single;
#DESCRIPTION:;
#CHARTSTYLE:;
#DIFFICULTY:Medium;
#METER:10;
#RADARVALUES:0.350863,0.507156,0.173572,0.486001,0.069429,283.000000,263.000000,20.000000,56.000000,0.000000,0.000000,0.000000,0.000000,0.000000,0.350863,0.507156,0.173572,0.486001,0.069429,283.000000,263.000000,20.000000,56.000000,0.000000,0.000000,0.000000,0.000000,0.000000;
#CREDIT:;
#NOTES:
// measure 0
0000
0000
0000
0000
,  // measure 1
0000
0000
0000
0000
,  // measure 2
0000
0000
0000
0000
,  // measure 3
0000
0000
0000
0000
,  // measure 4
0000
0000
0000
0000
,  // measure 5
0000
0000
0000
0000
,  // measure 6
0000
0000
0000
0000
,  // measure 7
0000
0000
0000
0000
,  // measure 8
0000
0000
0000
0000
,  // measure 9
0000
0000
0000
0000
,  // measure 10
0000
0000
0000
0000
,  // measure 11
0000
0000
1000
0000
0000
0000
2000
0000
0000
0000
0000
0000
,  // measure 12
3001
1000
0100
0010
,  // measure 13
0001
0000
0000
0000
0000
2002
0000
0000
0000
0000
0000
0000
,  // measure 14
0000
0000
3003
0000
,  // measure 15
0000
0000
0000
0001
0000
0000
0001
0000
1000
0000
0000
0100
,  // measure 16
0000
0000
0010
0000
0000
0000
0000
0000
0000
0001
0000
0000
,  // measure 17
2000
0000
0000
0000
0000
3010
0000
0000
0100
0000
0000
0002
,  // measure 18
0000
0000
0013
0000
0000
0100
0000
0000
1000
0000
0000
0000
,  // measure 19
1001
0000
0002
0000
,  // measure 20
1003
0000
0001
0000
,  // measure 21
0100
0000
0002
0000
,  // measure 22
1003
0000
0001
0000
,  // measure 23
1000
0100
0010
0001
,  // measure 24
0010
0100
1000
0001
,  // measure 25
0100
0000
0100
0000
,  // measure 26
1001
0000
1001
0000
,  // measure 27
0001
0000
2000
0000
,  // measure 28
3001
0000
0010
0000
,  // measure 29
0002
0000
1003
0000
,  // measure 30
0002
0000
0103
0010
,  // measure 31
2000
0000
3001
0010
,  // measure 32
0100
1000
0100
0010
,  // measure 33
0002
0000
0203
0000
,  // measure 34
0320
0000
1030
0000
,  // measure 35
1002
0000
1003
0000
,  // measure 36
0002
0000
1003
0000
,  // measure 37
0020
0000
0130
0000
,  // measure 38
0020
0000
0130
0000
,  // measure 39
0002
0000
2003
0000
,  // measure 40
3002
0000
2003
0000
,  // measure 41
3020
0000
0230
0000
,  // measure 42
0302
0000
2003
0000
,  // measure 43
3002
0000
0013
0000
,  // measure 44
0002
0000
0013
0000
,  // measure 45
0200
0000
0310
0000
,  // measure 46
0200
0000
0310
0000
,  // measure 47
0002
0000
0203
0000
,  // measure 48
0320
0000
2030
0000
,  // measure 49
3001
0000
0000
0000
1001
0000
0000
0000
0000
0100
0000
0000
,  // measure 50
0000
0110
0000
0000
0000
0000
1001
0000
0000
0000
0000
0000
,  // measure 51
1000
0100
1000
0001
,  // measure 52
1000
0100
1000
0001
,  // measure 53
0100
0001
1000
0001
,  // measure 54
0100
0001
1000
0100
,  // measure 55
0010
0100
1000
0100
,  // measure 56
0010
0001
0100
0010
,  // measure 57
0100
0001
0100
0010
,  // measure 58
1000
0100
0010
0000
,  // measure 59
0001
0100
0010
0100
,  // measure 60
0001
1000
0100
1000
,  // measure 61
0001
0100
0010
0100
,  // measure 62
0001
1000
0100
0010
,  // measure 63
0100
1000
0001
1000
,  // measure 64
0100
1000
0001
1000
,  // measure 65
1001
0000
0110
0000
,  // measure 66
1001
0000
0000
0000
,  // measure 67
0001
1000
0001
0100
,  // measure 68
1000
0100
0001
0010
,  // measure 69
0100
0100
0010
0010
,  // measure 70
0002
0000
0203
0000
,  // measure 71
0320
0000
1030
0001
,  // measure 72
1001
0000
0010
0100
,  // measure 73
1000
0000
0000
0000
0000
0000
0010
0000
0000
0000
0000
0110
,  // measure 74
0000
0000
0000
1000
,  // measure 75
0001
1000
0001
1000
,  // measure 76
0010
0001
0010
1000
,  // measure 77
0100
0010
0001
1000
,  // measure 78
0002
0000
0203
0000
,  // measure 79
0320
0000
1030
0010
,  // measure 80
1000
0010
0100
0001
,  // measure 81
1000
0000
0000
0000
1001
0000
0000
0000
0000
0001
0000
0000
,  // measure 82
0000
1001
0000
0000
0000
0000
0000
0000
0000
0000
0000
0000
,  // measure 83
1000
0100
1000
0001
,  // measure 84
1000
0100
1000
0001
,  // measure 85
0100
0001
1000
0001
,  // measure 86
0100
0001
1000
0100
,  // measure 87
0001
0100
1000
0010
,  // measure 88
0001
0010
1000
0001
,  // measure 89
0200
0000
0320
0000
,  // measure 90
2030
0000
3200
0000
,  // measure 91
1300
0001
0010
0001
,  // measure 92
1000
0010
1000
0001
,  // measure 93
0010
0001
1000
0010
,  // measure 94
1000
0100
0010
0001
,  // measure 95
0100
1000
0100
0001
,  // measure 96
0010
1000
0010
0001
,  // measure 97
2000
0000
3200
0000
,  // measure 98
0320
0000
0230
0000
,  // measure 99
1300
0000
0000
0000
,  // measure 100
0000
0000
0000
0000
,  // measure 101
2002
0000
0000
0000
,  // measure 102
0000
0000
0000
0000
,  // measure 103
0000
0000
0000
0000
,  // measure 104
0000
0000
0000
3003
,  // measure 105
0220
0000
0000
0000
,  // measure 106
0000
0000
0000
0000
,  // measure 107
0000
0000
0000
0000
,  // measure 108
0000
0000
0000
0330
,  // measure 109
2020
0000
0000
0000
,  // measure 110
0000
0000
0000
0000
,  // measure 111
0000
0000
0000
0000
,  // measure 112
0000
0000
0000
3030
,  // measure 113
0202
0000
0000
0000
,  // measure 114
0000
0000
0000
0000
,  // measure 115
0000
0000
0000
0000
,  // measure 116
0000
0000
0000
0000
0303
0000
0000
1001
;

//---------------dance-single - ----------------
#NOTEDATA:;
#CHARTNAME:;
#STEPSTYPE:dance-single;
#DESCRIPTION:;
#CHARTSTYLE:;
#DIFFICULTY:Hard;
#METER:13;
#RADARVALUES:0.560389,0.862164,0.243001,0.885217,0.420912,452.000000,424.000000,28.000000,102.000000,0.000000,0.000000,0.000000,0.000000,0.000000,0.560389,0.862164,0.243001,0.885217,0.420912,452.000000,424.000000,28.000000,102.000000,0.000000,0.000000,0.000000,0.000000,0.000000;
#CREDIT:;
#NOTES:
0000
0000
0000
0000
,
0000
0000
0000
0000
,
0000
0000
0000
0000
,
0000
0000
0000
0000
,
0000
0000
0000
0000
,
0000
0000
0000
0000
,
0000
0000
0000
0000
,
0000
0000
0000
0000
,
0000
0000
0000
0000
,
0000
0000
0000
0000
,
0000
0000
0000
0000
,
0000
0000
0001
0000
0000
0001
0200
0000
0000
0300
0000
0001
,
1000
0000
0000
1000
0000
0000
0100
0000
0100
0010
0000
0010
,
0002
0000
0000
0000
0000
2003
0000
0000
0000
0001
0000
0000
,
0001
0100
0100
3100
,
1000
0000
0000
0010
0000
0000
0010
0000
0100
0000
0000
0001
,
0000
0000
0010
0100
0000
1000
0000
0000
0001
0100
0000
0001
,
2000
0000
0000
3001
0000
0010
0000
0000
1100
0000
0000
0002
,
0000
0000
1003
0010
0000
0200
0000
0000
0301
0000
0000
0000
,
1001
1000
0020
0000
,
1030
0100
0001
0100
,
1000
1000
0020
0000
,
1030
0010
0001
0010
,
1000
0000
1000
0100
0000
1000
0100
0000
0010
0001
0000
0010
,
0001
0000
1000
0010
0000
1000
0010
0000
0100
0001
0000
0001
,
1000
0000
0000
1000
0000
0100
0000
0000
1000
0001
0000
0000
,
0020
0000
0002
0000
0033
0000
0200
0000
2000
0000
3300
0000
,
0001
0001
0200
0000
,
0301
0100
1000
0100
,
0002
1000
0103
0010
,
0002
0000
0000
0000
0000
1003
0010
0000
0010
0100
0000
0100
,
0002
0000
0000
0000
0000
0000
0000
0000
1003
0100
0000
1000
,
0100
0000
0010
0001
0000
0010
0001
0000
0001
0100
0000
0010
,
0000
1000
0000
0100
0000
0010
0000
0000
0001
1000
0000
0000
,
1020
0000
0130
0000
,
1002
1000
0203
0000
,
0302
1000
0203
0000
,
0302
1000
0203
0000
,
0302
1000
0203
0000
,
0302
2003
3002
2003
,
3002
2003
3002
2003
,
3001
0000
0100
0000
1000
0000
0100
0000
0001
0000
0010
0000
,
1000
0000
0010
0000
0001
0000
0100
0000
1000
0000
0100
0000
,
2001
0001
3200
0000
,
2300
0001
3200
0000
,
2300
0001
3200
0000
,
2300
0001
3200
0000
,
2300
3002
2003
3002
,
2003
3002
2003
3002
,
1003
0000
1000
0000
1100
0000
0000
0000
0000
0001
0000
0001
,
0000
0101
0000
0000
0000
0000
1001
0000
0000
0000
0000
0000
,
0110
0000
0100
0000
1100
0000
0000
0010
,
0000
0010
0000
0010
0100
0000
0001
0000
,
0010
0000
0010
0000
0011
0000
0000
0100
,
0000
0100
0000
0100
0010
0000
0000
0000
,
1000
0000
1000
0000
1001
0000
0000
0010
,
0000
0010
0000
0010
0001
0000
0100
0000
,
0010
0000
0010
0000
0110
0000
0000
1000
,
0000
1000
0000
1000
0100
0000
0000
0000
,
1000
0000
1000
0000
1001
0000
0000
0100
,
0000
0100
0000
0100
0010
0000
0001
0000
,
0100
0000
0100
0000
0110
0000
0000
1000
,
0000
1000
0000
1000
0001
0000
0000
0000
,
0100
0000
0100
0000
0101
0000
0000
0010
,
0000
0010
0000
0010
1000
0000
0000
0000
,
0100
0000
0100
0000
0100
0000
0010
0000
0010
0000
0010
0000
,
1001
0000
0000
0000
,
1100
0001
0100
0001
,
1000
0000
0000
0100
0000
0010
0000
0000
0001
0010
0000
0000
,
0100
0000
0000
1000
0000
0000
0010
0000
0100
0000
0000
0001
,
2000
3200
0302
0203
,
2300
0010
3010
0200
,
0001
0000
0000
0301
0000
0000
1000
0000
0100
0010
0000
0000
,
0002
0000
0000
0103
0000
0000
0010
0000
1000
0000
0000
0200
,
0000
0000
0000
1300
0000
0000
0001
0000
0010
0100
0000
1000
,
0020
0000
0000
0000
0000
0000
0130
0000
0001
0010
0000
0001
,
0010
0000
0100
1000
0000
0100
1000
0000
0001
0100
0000
0100
,
0010
0000
0010
1000
0000
1000
0010
0000
0010
0100
0000
0100
,
0002
0203
2300
3200
,
0302
2003
0010
3010
,
0100
0001
2000
3020
,
1030
0000
1000
0000
1100
0000
0000
0000
0000
0001
0000
0001
,
0000
0101
0000
0000
0000
0000
0110
0000
0000
0000
0000
0000
,
2001
0100
3020
0100
,
2030
0100
3020
0100
,
2030
0100
3020
0100
,
2030
0100
3020
0100
,
2030
3002
2003
3002
,
2003
3002
2003
3002
,
1003
0000
0100
0000
0001
0000
0100
0000
1000
0000
0010
0000
,
0001
0000
0010
0000
1000
0000
0100
0000
0001
0000
0100
0000
,
1002
0010
0203
0010
,
0302
0010
0203
0010
,
0302
0010
0203
0010
,
0302
0010
0203
0010
,
0302
2003
3002
2003
,
3002
2003
3002
2003
,
3001
0000
0100
0000
1000
0000
0100
0000
0001
0000
0010
0000
,
1000
0000
0010
0000
0001
0000
0100
0000
1000
0000
0100
0000
,
0001
0010
0100
1000
,
0100
0010
0001
1000
,
1002
0000
0000
0000
,
0000
0000
0000
0000
,
0100
0100
0000
0000
,
1000
0000
0000
0100
0000
0000
0013
0000
,
2001
0000
0000
0000
0000
0100
0000
0000
,
0100
0000
0000
0010
0000
0000
0001
0000
,
0001
0000
0000
0000
0000
0001
0000
0000
,
0001
0000
0000
0010
0000
0000
3100
0000
,
1002
0000
0000
0000
,
0100
0000
0000
0100
0000
0000
0100
0000
,
1000
0000
0010
0000
,
0100
0000
1000
0003
,
2001
0000
0000
0000
0100
0000
0000
0100
,
0000
0000
0001
0000
0000
0001
0000
0000
,
0010
0000
0000
0100
0000
0000
0010
0000
,
0000
0100
3000
0001
1000
0001
0000
0101
;

//---------------dance-single - ----------------
#NOTEDATA:;
#CHARTNAME:;
#STEPSTYPE:dance-single;
#DESCRIPTION:;
#CHARTSTYLE:;
#DIFFICULTY:Beginner;
#METER:2;
#RADARVALUES:0.089266,0.202862,0.112822,0.000000,0.000000,72.000000,59.000000,13.000000,0.000000,0.000000,0.000000,0.000000,0.000000,0.000000,0.089266,0.202862,0.112822,0.000000,0.000000,72.000000,59.000000,13.000000,0.000000,0.000000,0.000000,0.000000,0.000000,0.000000;
#CREDIT:;
#NOTES:
0000
0000
0000
0000
,
0000
0000
0000
0000
,
0000
0000
0000
0000
,
0000
0000
0000
0000
,
0000
0000
0000
0000
,
0000
0000
0000
0000
,
0000
0000
0000
0000
,
0000
0000
0000
0000
,
0000
0000
0000
0000
,
0000
0000
0000
0000
,
0000
0000
0000
0000
,
1000
0000
0000
0000
,
0100
0000
0000
0000
,
1000
0000
0000
0000
,
0000
0000
0000
0000
,
0001
0000
0000
0000
,
0100
0000
0000
0000
,
0001
0000
0000
0000
,
0000
0000
0000
0000
,
1001
0000
0000
0000
,
0000
0000
0000
0000
,
0010
0000
0000
0000
,
0000
0000
0000
0000
,
0100
0000
0000
0000
,
0000
0000
0000
0000
,
0010
0000
0000
0000
,
0000
0000
0000
0000
,
1000
0000
0000
0000
,
0000
0000
0000
0000
,
0001
0000
0000
0000
,
0000
0000
0000
0000
,
0010
0000
0000
0000
,
0000
0000
0000
0000
,
0001
0000
0000
0000
,
0000
0000
0000
0000
,
1001
0000
0000
0000
,
1000
0000
0000
0000
,
1000
0000
0000
0000
,
1000
0000
0000
0000
,
1000
0000
0000
0000
,
0000
0000
0000
0000
,
0110
0000
0000
0000
,
0000
0000
0000
0000
,
1001
0000
0000
0000
,
0001
0000
0000
0000
,
0001
0000
0000
0000
,
0001
0000
0000
0000
,
0001
0000
0000
0000
,
0000
0000
0000
0000
,
0110
0000
0000
0000
,
0000
0000
0000
0000
,
1000
0000
0000
0000
,
0000
0000
0000
0000
,
0010
0000
0000
0000
,
0000
0000
0000
0000
,
0100
0000
0000
0000
,
0000
0000
0000
0000
,
0001
0000
0000
0000
,
0000
0000
0000
0000
,
0100
0000
0000
0000
,
0000
0000
0000
0000
,
0010
0000
0000
0000
,
0000
0000
0000
0000
,
1000
0000
0000
0000
,
0000
0000
0000
0000
,
1001
0000
0000
0000
,
0000
0000
0000
0000
,
0001
0000
0000
0000
,
0000
0000
0000
0000
,
0010
0000
0000
0000
,
0000
0000
0000
0000
,
0001
0000
0000
0000
,
0000
0000
0000
0000
,
0100
0000
0000
0000
,
0000
0000
0000
0000
,
0010
0000
0000
0000
,
0000
0000
0000
0000
,
1000
0000
0000
0000
,
0000
0000
0000
0000
,
0100
0000
0000
0000
,
0000
0000
0000
0000
,
1001
0000
0000
0000
,
0000
0000
0000
0000
,
0010
0000
0000
0000
,
0010
0000
0000
0000
,
0010
0000
0000
0000
,
0010
0000
0000
0000
,
0010
0000
0000
0000
,
0000
0000
0000
0000
,
0110
0000
0000
0000
,
0000
0000
0000
0000
,
0100
0000
0000
0000
,
0100
0000
0000
0000
,
0100
0000
0000
0000
,
0100
0000
0000
0000
,
0100
0000
0000
0000
,
0000
0000
0000
0000
,
0110
0000
0000
0000
,
0000
0000
0000
0000
,
0000
0000
0000
0000
,
0000
0000
0000
0000
,
1001
0000
0000
0000
,
0000
0000
0000
0000
,
0000
0000
0000
0000
,
0000
0000
0000
0000
,
1001
0000
0000
0000
,
0000
0000
0000
0000
,
0000
0000
0000
0000
,
0000
0000
0000
0000
,
1001
0000
0000
0000
,
0000
0000
0000
0000
,
0000
0000
0000
0000
,
0000
0000
0000
0000
,
1001
0000
0000
0000
,
0000
0000
0000
0000
,
0000
0000
0000
0000
,
0000
0000
0000
0000
0000
0000
0000
0001
;
