#VERSION:0.83;
#TITLE:Pop'n Xmas 2004 ~電子ノウタゴエ~;
#SUBTITLE:;
#ARTIST:strawberry barium"s";
#TITLETRANSLIT:Pop'n Xmas 2004 ~DENSHI NO UTAGOE~;
#SUBTITLETRANSLIT:;
#ARTISTTRANSLIT:;
#GENRE:;
#ORIGIN:;
#CREDIT:DigiMindAxel;
#BANNER:Pop'n Xmas 2004 ~DENSHI NO UTAGOE~.png;
#BACKGROUND:Pop'n Xmas 2004 ~DENSHI NO UTAGOE~-bg.png;
#PREVIEWVID:;
#JACKET:Pop'n Xmas 2004 ~DENSHI NO UTAGOE~-jacket.png;
#CDIMAGE:;
#DISCIMAGE:;
#LYRICSPATH:Pop'n Xmas 2004 ~DENSHI NO UTAGOE~.lrc;
#CDTITLE:pop'n music.png;
#MUSIC:Pop'n Xmas 2004 ~DENSHI NO UTAGOE~.ogg;
#OFFSET:-1.069000;
#SAMPLESTART:9.725035;
#SAMPLELENGTH:12.000000;
#SELECTABLE:YES;
#BPMS:0.000=110.000,
104.000=180.000,
186.000=90.000,
190.500=110.000,
191.000=120.000,
191.500=130.000,
192.000=140.000,
193.000=150.000,
228.000=152.000,
240.000=140.000,
242.000=120.000,
243.000=110.000,
244.000=150.000,
250.000=130.000,
254.000=88.000,
276.000=80.000,
279.000=70.000;
#STOPS:;
#DELAYS:;
#WARPS:;
#TIMESIGNATURES:0.000=4=4;
#TICKCOUNTS:0.000=4;
#COMBOS:0.000=1;
#SPEEDS:0.000=1.000=0.000=0;
#SCROLLS:0.000=1.000;
#FAKES:;
#LABELS:0.000=Song Start;
#BGCHANGES:-4.000=Pop'n Xmas 2004 ~DENSHI NO UTAGOE~.avi=1.000=1=0=0=StretchNoLoop==CrossFade==,
99999=-nosongbg-=1.000=0=0=0 // don't automatically add -songbackground-
;
#KEYSOUNDS:;
#ATTACKS:
;

//---------------dance-single - ----------------
#NOTEDATA:;
#CHARTNAME:;
#STEPSTYPE:dance-single;
#DESCRIPTION:;
#CHARTSTYLE:;
#DIFFICULTY:Easy;
#METER:6;
#RADARVALUES:0.247322,0.283913,0.161498,0.129198,0.000000,268.000000,243.000000,25.000000,20.000000,0.000000,0.000000,0.000000,0.000000,0.000000,0.247322,0.283913,0.161498,0.129198,0.000000,268.000000,243.000000,25.000000,20.000000,0.000000,0.000000,0.000000,0.000000,0.000000;
#CREDIT:;
#NOTES:
// measure 0
0000
0000
0000
0000
,  // measure 1
0000
0000
0000
0000
,  // measure 2
0001
0000
0000
0000
,  // measure 3
1000
0000
0000
0000
,  // measure 4
1001
0010
0100
0010
,  // measure 5
0100
0001
1000
0001
,  // measure 6
1000
0010
1000
0010
,  // measure 7
0100
0010
1000
0000
,  // measure 8
0001
0100
0001
0100
,  // measure 9
0010
0100
0010
1000
,  // measure 10
0001
1000
0002
0000
,  // measure 11
0103
0010
0100
0100
,  // measure 12
0110
1000
0001
1000
,  // measure 13
1001
0010
0100
0010
,  // measure 14
0101
1010
1000
0001
,  // measure 15
0100
0010
0100
0000
,  // measure 16
0001
1000
0001
0100
,  // measure 17
0010
1000
0010
1000
,  // measure 18
0001
0100
0001
1000
,  // measure 19
0010
0100
1001
0000
,  // measure 20
0010
0100
0010
0100
,  // measure 21
0001
1000
0010
1000
,  // measure 22
0010
0100
0010
0100
,  // measure 23
0002
0000
2003
0000
,  // measure 24
3001
0010
0100
1000
,  // measure 25
0100
0010
0001
1000
,  // measure 26
0002
0000
0000
0000
,  // measure 27
1003
0000
0200
0000
,  // measure 28
0301
1000
0010
0100
,  // measure 29
0001
1000
0020
0000
,  // measure 30
1030
0001
0100
0010
,  // measure 31
1000
0001
0200
0000
,  // measure 32
0301
0010
2000
0000
,  // measure 33
3100
0010
0002
0000
,  // measure 34
0013
0100
2000
0001
,  // measure 35
0001
3001
0101
0010
,  // measure 36
1000
0001
0100
0010
,  // measure 37
0100
0001
1010
0100
,  // measure 38
0001
1000
0010
0100
,  // measure 39
0010
1000
0110
0001
,  // measure 40
1000
0001
1000
0010
,  // measure 41
1000
0001
0100
0001
,  // measure 42
1000
0100
0020
0100
,  // measure 43
0100
0130
0002
0100
,  // measure 44
0100
0103
2000
0010
,  // measure 45
0010
3010
0002
1000
,  // measure 46
1000
1003
1001
0000
,  // measure 47
0000
0000
0000
0010
0000
0200
0000
0000
,  // measure 48
0310
0100
0010
1000
,  // measure 49
0100
0001
1000
0001
,  // measure 50
0010
1000
0001
1000
,  // measure 51
0110
0000
1001
0000
,  // measure 52
1000
0100
0010
0001
,  // measure 53
0010
0100
1000
0100
,  // measure 54
0010
0001
0010
0100
,  // measure 55
1100
0000
0011
0000
,  // measure 56
0110
0000
1001
0000
,  // measure 57
0100
0010
0100
0001
,  // measure 58
0100
0010
1000
0010
,  // measure 59
0100
0010
1000
0001
,  // measure 60
1001
0000
1000
0000
0001
1000
0000
0000
,  // measure 61
1001
0001
0001
1000
,  // measure 62
1000
0001
0200
0000
,  // measure 63
0300
1001
0000
0000
,  // measure 64
0010
0100
0010
1000
,  // measure 65
0001
1001
0000
0000
,  // measure 66
0100
0010
0100
0001
,  // measure 67
1000
1001
0000
0001
,  // measure 68
1000
1001
0000
0000
,  // measure 69
2002
0000
3003
0220
,  // measure 70
0000
0330
1001
1000
,  // measure 71
1000
0001
0001
1000
,  // measure 72
1000
0001
0001
0010
,  // measure 73
0100
1000
0000
0000
;

//---------------dance-single - ----------------
#NOTEDATA:;
#CHARTNAME:;
#STEPSTYPE:dance-single;
#DESCRIPTION:;
#CHARTSTYLE:;
#DIFFICULTY:Hard;
#METER:13;
#RADARVALUES:0.517715,0.615145,0.394054,0.025840,0.164728,561.000000,500.000000,61.000000,4.000000,0.000000,0.000000,0.000000,0.000000,0.000000,0.517715,0.615145,0.394054,0.025840,0.164728,561.000000,500.000000,61.000000,4.000000,0.000000,0.000000,0.000000,0.000000,0.000000;
#CREDIT:;
#NOTES:
// measure 0
0000
0000
0000
0000
,  // measure 1
0000
0000
0000
0000
,  // measure 2
1001
0010
0010
0010
,  // measure 3
1001
0100
0100
0100
,  // measure 4
0100
0000
0010
0000
0100
0000
0001
0010
0100
0000
1000
0000
0010
0000
0000
0000
,  // measure 5
0010
1000
0100
0001
0100
0000
1001
0000
,  // measure 6
0010
0100
0010
1000
0100
1000
0010
0000
,  // measure 7
0110
0000
0000
0000
1001
0000
0000
0000
0001
0010
0001
0000
1000
0100
1000
0000
,  // measure 8
0010
0000
0100
0000
0010
0000
1000
0100
0010
0000
0001
0000
0100
0000
0000
0000
,  // measure 9
0100
0001
0010
1000
0010
0000
1001
0000
,  // measure 10
0100
0010
0100
0001
0010
0001
0100
0000
,  // measure 11
0110
0000
0000
0000
1001
0000
0000
0000
1000
0010
1000
0000
0001
0100
0001
0000
,  // measure 12
1000
0000
0000
0000
1001
0000
0001
0010
0001
0000
1000
0000
0100
0000
0010
0000
,  // measure 13
0011
1100
0011
1001
,  // measure 14
0001
0000
0000
0000
1001
0000
1000
0010
1000
0000
0001
0000
0100
0000
0010
0000
,  // measure 15
2000
0000
0000
0001
3001
0100
0010
1000
,  // measure 16
1001
0000
0010
0100
1100
0000
0011
0000
,  // measure 17
1100
0000
0011
0000
1001
0000
1000
0001
,  // measure 18
1000
0010
0100
1000
0100
0001
1000
0001
,  // measure 19
0011
0000
1100
0000
1001
0010
0100
1000
,  // measure 20
1001
0000
0100
0010
0011
0000
1100
0000
,  // measure 21
0011
0000
1100
0000
1001
0000
0001
1000
,  // measure 22
0001
0100
0010
0001
0010
1000
0001
1000
,  // measure 23
1100
0001
0011
1000
,  // measure 24
1000
0100
1000
0000
1000
0000
0001
0010
0001
0000
0001
0000
1000
0001
1000
0000
,  // measure 25
0001
0100
0001
0000
0001
0000
1000
0010
1000
0000
1000
0000
0001
1000
0001
0000
,  // measure 26
1100
0001
0011
0011
,  // measure 27
1001
0000
1001
0000
1000
0010
1000
0010
,  // measure 28
1000
0001
0100
1000
0100
0001
1000
0001
,  // measure 29
1000
0100
0010
0000
0001
0100
0001
0100
,  // measure 30
0001
1000
0010
0001
0010
1000
0001
1000
,  // measure 31
0000
0010
0100
0010
1000
0100
1000
0001
,  // measure 32
1000
0100
1000
0001
0100
0010
0100
0001
,  // measure 33
0100
0010
0100
0001
1000
0100
0001
0100
,  // measure 34
1000
0001
1000
0010
0001
0010
1000
0001
,  // measure 35
1000
0100
0010
0001
1000
0000
0001
0100
,  // measure 36
0001
1000
0100
0001
0100
1000
0001
1000
,  // measure 37
0001
0010
0100
0000
1000
0010
1000
0010
,  // measure 38
1000
0001
0010
1000
0010
0001
1000
0001
,  // measure 39
1000
0100
0010
0000
0001
0100
0010
0100
,  // measure 40
0001
0100
0010
1000
0100
0001
0100
1000
,  // measure 41
0001
0010
0100
1000
0001
0010
1000
0010
,  // measure 42
0001
1000
0001
0000
0000
0000
0010
0000
0001
0000
0100
0000
1000
0000
0100
0000
,  // measure 43
0001
0010
0100
1000
0001
0010
0100
0010
,  // measure 44
0001
0000
1000
0000
0001
0000
1000
0000
0001
1000
0000
0001
1000
0000
0001
1000
,  // measure 45
0001
0000
0100
0000
0010
0000
0100
0000
0001
0000
1000
0000
0100
0010
0100
0000
,  // measure 46
1000
0010
0100
0010
2002
0000
0000
0000
,  // measure 47
0000
0000
0000
0000
3003
0000
0010
0100
0010
0000
2000
0000
0000
3001
0100
0000
,  // measure 48
0110
0000
0000
0000
0001
0010
0001
0010
0001
0000
1000
0000
0100
0000
1000
0000
,  // measure 49
1001
0000
0000
0000
1000
0100
1000
0100
1000
0000
0001
0000
0010
0000
0001
0000
,  // measure 50
1001
0000
0000
0000
0001
0010
0001
0010
0001
0000
1000
0000
0100
0000
1000
0000
,  // measure 51
1001
0000
1001
0000
0000
0000
0001
0000
1000
0010
1000
0010
0100
0001
0100
0001
,  // measure 52
1000
0000
1000
0000
1000
0001
0100
0001
0100
0000
0001
0000
0010
0100
1000
0000
,  // measure 53
0001
0000
0001
0000
0001
1000
0010
1000
0010
0000
1000
0000
0100
0010
0001
0000
,  // measure 54
1000
0000
1000
0000
1000
0001
0100
0001
0100
0000
0001
0000
0010
0100
1000
0000
,  // measure 55
0001
0100
0010
0100
0001
0010
1000
0010
,  // measure 56
0011
1010
0101
1100
,  // measure 57
1001
0000
0000
1000
0010
0000
0100
0000
0010
0000
1000
0000
0010
0000
0001
0000
,  // measure 58
0010
0000
0100
0000
0001
0000
0000
1000
0001
0000
0010
0000
0100
0000
1000
0000
,  // measure 59
0010
0010
0110
0000
0001
0001
1001
0000
,  // measure 60
0001
1000
0010
0001
0010
1000
0100
0010
,  // measure 61
1001
0000
0000
0000
1000
0000
0000
1000
0010
0000
0000
0000
0001
0000
0000
0001
,  // measure 62
0100
0000
0000
0000
1000
0000
0000
1000
0001
0000
0000
0000
0000
0000
0000
0000
,  // measure 63
0000
1001
0000
0000
,  // measure 64
0110
0000
0000
0000
1001
0000
0000
0001
0010
0000
0000
0000
0110
0000
0000
0000
,  // measure 65
1001
0000
0000
1000
0100
0000
0000
0000
0000
0000
1000
0000
0100
0000
0001
0000
,  // measure 66
0010
0000
0000
0000
1000
0000
0000
0000
0001
0000
0000
0000
0100
0010
0100
0010
,  // measure 67
0100
0000
0000
0000
1001
0000
0000
1000
0010
0000
0000
0000
0110
0000
0000
0000
,  // measure 68
1001
0000
0000
0001
0100
0000
0000
0000
0000
0000
0001
0000
0100
0000
1000
0000
,  // measure 69
0011
0100
1000
0001
0010
0100
1100
0010
,  // measure 70
0001
1000
0100
0010
1001
0000
0001
0000
,  // measure 71
0010
1000
0100
0001
,  // measure 72
1000
0100
0001
0010
,  // measure 73
1000
0001
0000
0000
;

//---------------dance-single - ----------------
#NOTEDATA:;
#CHARTNAME:;
#STEPSTYPE:dance-single;
#DESCRIPTION:;
#CHARTSTYLE:;
#DIFFICULTY:Medium;
#METER:10;
#RADARVALUES:0.382980,0.425869,0.439274,0.077519,0.019380,415.000000,347.000000,68.000000,12.000000,0.000000,0.000000,0.000000,0.000000,0.000000,0.382980,0.425869,0.439274,0.077519,0.019380,415.000000,347.000000,68.000000,12.000000,0.000000,0.000000,0.000000,0.000000,0.000000;
#CREDIT:;
#NOTES:
// measure 0
0000
0000
0000
0000
,  // measure 1
0000
0000
0000
0000
,  // measure 2
1002
0010
0010
0013
,  // measure 3
2001
0100
0100
3100
,  // measure 4
1001
0000
0001
0100
0010
1000
0010
1000
,  // measure 5
0001
0001
1000
1000
,  // measure 6
1001
0000
1000
0010
0100
0001
0100
0001
,  // measure 7
1000
1100
1001
1001
,  // measure 8
1001
0000
1000
0010
0100
0001
0100
0001
,  // measure 9
1000
1000
0001
0001
,  // measure 10
1001
0000
0001
1000
0020
0000
0100
0000
,  // measure 11
0130
0110
1001
1001
,  // measure 12
1001
0000
0000
0000
0001
0000
0000
1000
0100
0000
0000
0000
0100
0000
0000
0000
,  // measure 13
1001
0100
0010
0001
,  // measure 14
1001
0000
0000
0000
1000
0000
0000
0001
0010
0000
0000
0000
0001
0000
0010
0000
,  // measure 15
0200
0000
0000
1000
1300
0000
0000
0000
,  // measure 16
1001
0000
0000
0001
1000
0000
1000
0000
,  // measure 17
1100
0011
1001
0001
,  // measure 18
1000
0010
0100
0001
1000
0000
1000
0000
,  // measure 19
1001
0011
1100
0001
,  // measure 20
1001
0000
0000
1000
0001
0000
0001
0000
,  // measure 21
0011
1100
1001
1000
,  // measure 22
0001
0100
0010
1000
0001
0000
0001
0000
,  // measure 23
1001
0001
0110
1000
,  // measure 24
1001
1100
0011
1100
,  // measure 25
1001
0101
1010
0101
,  // measure 26
1001
0001
1000
1000
,  // measure 27
0001
0001
1010
1000
,  // measure 28
1000
0010
0100
0000
0002
0000
1000
0000
,  // measure 29
1000
1003
0101
0001
,  // measure 30
0001
0100
0010
0000
2000
0000
0001
0000
,  // measure 31
0001
0000
3001
0000
1000
0001
0000
0010
,  // measure 32
0000
0100
0000
1000
0001
1000
0000
0010
,  // measure 33
0000
0100
0000
0001
1000
0001
0000
0010
,  // measure 34
0000
0100
0000
1000
0001
1000
0000
0010
,  // measure 35
0000
0100
0010
0100
0002
0000
1000
0000
,  // measure 36
1003
0110
2000
0001
,  // measure 37
3001
0000
1000
0001
0000
0100
0000
0010
,  // measure 38
0000
0100
0000
0001
0010
0100
1000
0010
,  // measure 39
0000
1000
0000
0001
0200
0000
0001
0000
,  // measure 40
0301
0000
0001
1000
0020
0000
1000
0000
,  // measure 41
1030
0100
0010
0001
1000
0100
1000
0100
,  // measure 42
1000
0000
0001
0100
0001
0100
0001
0000
,  // measure 43
0010
0100
1000
0001
1000
0010
0000
0100
,  // measure 44
0000
0001
0000
1000
0001
1000
0100
0010
,  // measure 45
0001
1000
0100
0000
1100
0000
0011
0000
,  // measure 46
0100
1000
0001
0000
1001
0000
0000
0000
,  // measure 47
0000
0000
0000
0000
0000
0000
1100
0000
0000
0000
1000
0000
0000
0001
0100
0000
,  // measure 48
0101
0000
0001
0010
0100
1000
0001
0000
,  // measure 49
0101
0000
1000
0100
0010
0001
1000
0000
,  // measure 50
1010
0000
0001
0010
0100
1000
0001
0000
,  // measure 51
0101
0000
1001
0000
,  // measure 52
0001
0001
1000
0100
0010
0001
1000
0100
,  // measure 53
1000
1000
0001
0010
0100
1000
0001
0010
,  // measure 54
0001
0001
1000
0100
0010
0001
1000
0100
,  // measure 55
1000
1010
0001
0101
,  // measure 56
1001
1001
0110
0110
,  // measure 57
1001
0000
0001
0000
1000
0100
0010
0000
,  // measure 58
0001
0000
0100
0000
0001
0000
0000
1000
0001
0000
0000
0000
0001
0000
0000
0000
,  // measure 59
1000
0100
1000
0000
0001
0010
0100
0000
,  // measure 60
1001
0000
1100
0000
0001
0010
0000
0000
,  // measure 61
1001
0000
0000
0000
0001
0000
0000
0010
0001
0000
0000
0000
1000
0000
0000
0100
,  // measure 62
1000
0001
1001
0000
,  // measure 63
0000
0110
0000
0000
,  // measure 64
1000
0011
0100
1000
,  // measure 65
0001
0000
1001
0000
0000
0001
0010
0100
,  // measure 66
1000
0000
0010
0000
0100
0000
0001
0001
,  // measure 67
0001
1100
0010
0001
,  // measure 68
1000
0000
1001
0000
0000
1000
0100
0010
,  // measure 69
1002
0100
0103
2001
,  // measure 70
0010
3010
1001
0100
,  // measure 71
0010
0001
0010
0100
,  // measure 72
1000
0010
1000
0001
,  // measure 73
1000
0001
0000
0000
;

//---------------dance-single - ----------------
#NOTEDATA:;
#CHARTNAME:;
#STEPSTYPE:dance-single;
#DESCRIPTION:;
#CHARTSTYLE:;
#DIFFICULTY:Challenge;
#METER:14;
#RADARVALUES:0.595234,0.743455,0.555552,0.213177,0.271316,645.000000,559.000000,86.000000,33.000000,0.000000,0.000000,0.000000,0.000000,0.000000,0.595234,0.743455,0.555552,0.213177,0.271316,645.000000,559.000000,86.000000,33.000000,0.000000,0.000000,0.000000,0.000000,0.000000;
#CREDIT:;
#NOTES:
// measure 0
0000
0000
0000
0000
,  // measure 1
0000
0000
0000
0000
,  // measure 2
1002
0100
0100
0103
,  // measure 3
2001
0100
0100
3100
,  // measure 4
0010
0000
0001
0000
0010
0000
0001
0100
1000
0000
0100
0000
0101
0000
0000
0000
,  // measure 5
1000
0100
1000
0001
0100
0001
1001
0000
,  // measure 6
0100
1000
0100
1000
0001
0100
1000
0100
,  // measure 7
0002
0000
1000
0000
2003
0000
0001
0000
3001
0010
0100
0000
1000
0100
0010
0000
,  // measure 8
0001
0000
0100
0000
0001
0000
1000
0010
0001
0000
0010
0000
1010
0000
0000
0000
,  // measure 9
0100
0001
0100
0001
1000
0010
0001
0010
,  // measure 10
1000
0100
0001
0100
1000
0001
1000
0001
,  // measure 11
0020
0000
0100
0000
0230
0000
0010
0000
0310
0001
0100
0000
0010
1000
0100
0000
,  // measure 12
1100
0000
0000
0000
0011
0000
0001
1000
0020
0000
1000
0000
1030
0000
0001
0000
,  // measure 13
0101
0000
0110
0000
1010
0100
1001
0000
,  // measure 14
0011
0000
0000
0000
1100
0000
1000
0001
0100
0000
0001
0000
0010
0000
0100
0000
,  // measure 15
2000
0000
3001
1000
0100
0001
0100
1000
,  // measure 16
1001
0001
0001
0100
0110
0000
0101
0000
,  // measure 17
0110
0000
1010
0000
1001
0100
0010
0001
,  // measure 18
1001
0000
1100
0010
0001
0001
1001
0100
,  // measure 19
0011
0000
1100
0000
1001
0010
0100
1000
,  // measure 20
1001
0001
0001
1000
1010
0000
0110
0000
,  // measure 21
0101
0000
0110
0000
1001
0010
0100
1000
,  // measure 22
1001
0000
0011
0100
1000
0001
1001
0010
,  // measure 23
0200
0000
1000
1000
0320
0000
0001
0001
,  // measure 24
0130
1000
0010
0000
0010
0000
0100
0001
0010
0000
0010
0000
0001
0010
0100
0000
,  // measure 25
1000
0001
0100
0000
0100
0000
0001
1000
0100
0000
0100
0000
1000
0010
0100
0000
,  // measure 26
0001
0001
0100
0100
,  // measure 27
1001
0000
1001
0000
0100
1000
0100
1000
,  // measure 28
0010
0001
0010
0100
0001
1000
0001
1000
,  // measure 29
0100
0010
0100
0000
0010
0001
0010
0001
,  // measure 30
0100
1000
0100
0010
1000
0001
1000
0001
,  // measure 31
0000
0000
0100
0000
0100
0000
0100
0000
0010
0000
1000
0000
0010
0000
1000
0001
,  // measure 32
1000
0000
0100
0000
0010
0001
0010
0000
0001
0000
1000
0000
0001
0000
1000
0000
,  // measure 33
0100
0010
0100
0000
0010
0001
0010
0001
,  // measure 34
0100
1000
0100
0010
1000
0001
1000
0001
,  // measure 35
0100
0000
0010
0000
0010
0000
0100
0010
0100
0000
0001
0000
0100
0000
0001
0000
,  // measure 36
1000
0100
1000
0000
0010
0000
0100
0000
0001
0000
0100
0000
1000
0000
0100
0000
,  // measure 37
0001
0000
1000
0001
1000
0000
0000
0000
0100
0000
1000
0000
0100
0000
1000
0000
,  // measure 38
0010
0000
0100
0000
0100
0000
0010
0000
1000
0000
0100
0010
0001
0000
0001
0000
,  // measure 39
1000
0010
0100
0000
0100
0000
0000
0000
0010
0000
1000
0000
0010
0000
1000
0000
,  // measure 40
0001
0100
1000
0100
0010
1000
0100
1000
,  // measure 41
0001
0001
0100
0100
0010
0010
1000
1000
,  // measure 42
0100
0010
0100
0000
0000
0000
1000
0000
0010
0000
0010
0000
0100
0010
0100
0000
,  // measure 43
0001
0010
0100
1000
0001
0010
1000
0010
,  // measure 44
0001
0000
0001
0000
1000
0000
1000
0000
0010
0100
0000
0010
0100
0000
0001
1000
,  // measure 45
0001
1000
0001
0000
0010
0000
0100
0000
1000
0000
0001
0000
0100
0010
0100
0000
,  // measure 46
0001
0001
0100
0100
2002
0000
0000
0000
,  // measure 47
0000
0000
0000
0000
3003
0000
0001
1000
0010
0000
2000
0000
0000
3100
0010
0000
,  // measure 48
1001
0000
0000
0000
0001
0100
0010
0100
0001
0000
0101
0000
0000
0000
0101
0000
,  // measure 49
1001
0000
0000
0000
1000
0100
0010
0100
1000
0000
1100
0000
0000
0000
1100
0000
,  // measure 50
1001
0000
0000
0000
0001
0100
0010
0100
0001
0000
0101
0000
0000
0000
0101
0000
,  // measure 51
1001
0000
1001
0000
0000
0000
1001
0000
1000
0100
0010
0001
0010
0100
1000
0000
,  // measure 52
1010
0000
0010
0000
0010
1000
0100
0010
0001
0000
0001
0000
0010
0100
1000
0010
,  // measure 53
0100
0000
0100
0000
0010
1000
0100
0010
0001
0000
0001
0000
0100
0010
1000
0010
,  // measure 54
0100
0000
0100
0000
0001
0010
0100
1000
0001
0100
0010
1000
0010
0100
0001
0000
,  // measure 55
1001
1000
0100
0100
1001
0001
0010
0010
,  // measure 56
1001
1001
1010
1010
0101
0101
0110
0110
,  // measure 57
1001
0000
0001
1000
0010
0000
1000
0001
0010
0000
0001
0010
0100
1000
0100
0010
,  // measure 58
0001
0000
0100
0001
0010
0000
0001
0100
0010
0000
1000
0100
0010
0001
0010
0100
,  // measure 59
1000
0000
0001
1000
0010
0000
1000
0001
0100
0000
0001
0010
0100
1000
0100
0010
,  // measure 60
0001
0000
1000
0010
0100
0000
0001
0100
0010
1000
0100
0010
0001
0010
0100
1000
,  // measure 61
1002
0000
0000
0000
0203
0000
0000
0310
2000
0000
0000
0000
3001
0010
0001
0100
,  // measure 62
0020
0000
0000
0000
1030
0100
1000
0010
0220
0000
0000
0000
0000
0000
0000
0000
,  // measure 63
0000
0330
0202
0000
0000
0000
0000
0303
,  // measure 64
1001
0000
0000
0000
2100
0000
0000
3001
1001
0000
0000
0000
1010
0000
0000
0000
,  // measure 65
0102
0000
0000
1003
2002
0000
0000
0000
3003
0000
0011
0000
0110
0000
1100
0000
,  // measure 66
2001
0000
0000
0000
3002
0000
0000
0000
0203
0000
0000
0000
0310
0010
0100
0100
,  // measure 67
1001
0000
0000
0000
2100
0000
0000
3001
1001
0000
0000
0000
1010
0000
0000
0000
,  // measure 68
0102
0000
0000
1003
1001
0000
0000
0000
0000
0000
1100
0000
0110
0000
0011
0000
,  // measure 69
1002
0100
1000
0100
0010
0103
2001
0010
,  // measure 70
0100
0010
0001
3010
1002
0000
1000
0000
,  // measure 71
1000
1000
0100
0100
,  // measure 72
1000
0100
0100
1000
,  // measure 73
0100
0100
1000
0100
,  // measure 74
0100
1003
0000
0000
;

//---------------dance-single - ----------------
#NOTEDATA:;
#CHARTNAME:;
#STEPSTYPE:dance-single;
#DESCRIPTION:;
#CHARTSTYLE:;
#DIFFICULTY:Beginner;
#METER:2;
#RADARVALUES:0.083056,0.142925,0.071059,0.000000,0.000000,90.000000,79.000000,11.000000,0.000000,0.000000,0.000000,0.000000,0.000000,0.000000,0.083056,0.142925,0.071059,0.000000,0.000000,90.000000,79.000000,11.000000,0.000000,0.000000,0.000000,0.000000,0.000000,0.000000;
#CREDIT:;
#NOTES:
0000
0000
0000
0000
,
0000
0000
0000
0000
,
0000
0000
0000
0000
,
0000
0000
0000
0000
,
1000
0000
0000
0000
,
0100
0000
0000
0000
,
1000
0000
0000
0000
,
0001
0000
0000
0000
,
0100
0000
0000
0000
,
0010
0000
0000
0000
,
0100
0000
0000
0000
,
0001
0000
0000
0000
,
1000
0000
0000
0000
,
1000
0000
0000
0000
,
0001
0000
0000
0000
,
0001
0000
0000
0000
,
0010
0000
0000
0000
,
0100
0000
0000
0000
,
0010
0000
0000
0000
,
0100
0000
0000
0000
,
1000
0000
0000
0000
,
0001
0000
0000
0000
,
0100
0000
0000
0000
,
0010
0000
0010
0000
,
0010
0000
0000
0000
,
0100
0000
0000
0000
,
0010
0000
0000
0000
,
0000
0000
1000
0000
,
0000
0000
0001
0000
,
0000
0000
1000
0000
,
0000
0000
0100
0000
,
0000
0000
0010
0000
,
0000
0000
0010
0000
,
0000
0000
0001
0000
,
0000
0000
0001
0000
,
0000
0000
0100
0000
,
0000
0000
0010
0000
,
0000
0000
0100
0000
,
0000
0000
0001
0000
,
0000
0000
1000
0000
,
0000
0000
1000
0000
,
0000
0000
0100
0000
,
0000
0000
0010
0000
,
0000
0000
0001
0000
,
0000
0000
0100
0000
,
0000
0000
0001
0000
,
0000
0000
1001
0000
,
0000
0000
0000
0000
,
1001
0000
0000
0000
,
0110
0000
0000
0000
,
1001
0000
0000
0000
,
0110
0000
0000
0000
,
0010
0000
0010
0000
,
0100
0000
0100
0000
,
0010
0000
0010
0000
,
1000
0000
0001
0000
,
1000
0000
1000
0000
,
1001
0000
0001
0000
,
0010
0000
0100
0000
,
1000
0000
1000
0000
,
0010
0000
0100
0000
,
0110
0000
0000
0000
,
0000
0000
0010
0000
,
0000
0000
0000
0000
,
0000
0110
0000
0000
,
0000
1001
0000
0000
,
0000
0000
0000
0000
,
0000
0110
0000
0000
,
0000
1001
0000
0000
,
0001
0000
0000
0010
,
0000
0000
0100
0000
,
0000
0000
1000
0000
,
0000
1000
0000
0000
,
1000
0000
0000
1000
;
