#TITLE:Pinky Nick;
#SUBTITLE:;
#ARTIST:NICK BOYS;
#TITLETRANSLIT:;
#SUBTITLETRANSLIT:;
#ARTISTTRANSLIT:;
#GENRE:;
#CREDIT:DigiMindAxel;
#BANNER:Pinky Nick.png;
#BACKGROUND:Pinky Nick-bg.png;
#LYRICSPATH:;
#CDTITLE:ee'MALL.png;
#MUSIC:Pinky Nick.ogg;
#OFFSET:-1.665000;
#SAMPLESTART:24.362001;
#SAMPLELENGTH:12.000000;
#SELECTABLE:YES;
#BPMS:0.000000=169.000000
,256.000000=189.000000
;
#STOPS:
;
#BGCHANGES:;
#KEYSOUNDS:;
#ATTACKS:;

//---------------dance-single - ----------------
#NOTES:
     dance-single:
     :
     Easy:
     5:
     0.233807,0.356105,0.287762,0.044963,0.000000,182.000000,150.000000,32.000000,5.000000,0.000000,0.000000,0.233807,0.356105,0.287762,0.044963,0.000000,182.000000,150.000000,32.000000,5.000000,0.000000,0.000000:
// measure 0
0000
0000
0000
0000
,  // measure 1
0000
0000
0000
0000
,  // measure 2
0000
0000
0000
0000
,  // measure 3
0000
0000
0000
0000
,  // measure 4
1001
0000
0000
0000
,  // measure 5
0100
0000
0000
0000
,  // measure 6
0100
0000
0000
0000
,  // measure 7
1001
0000
0100
0000
,  // measure 8
1002
0000
0000
0000
,  // measure 9
1003
0000
0000
0000
,  // measure 10
0020
0000
0000
0000
,  // measure 11
0130
0000
0010
0000
,  // measure 12
1001
0000
0000
0000
,  // measure 13
0110
0000
0000
0000
,  // measure 14
1001
0000
0000
0000
,  // measure 15
0001
0000
0100
0000
,  // measure 16
0110
0000
1001
0000
,  // measure 17
0001
0000
0010
0000
,  // measure 18
0100
0000
1000
0000
,  // measure 19
0100
0000
0010
0000
,  // measure 20
0001
0000
0110
0000
,  // measure 21
1000
0000
0110
0000
,  // measure 22
0001
0000
1001
0000
,  // measure 23
0110
0000
0110
0000
,  // measure 24
1001
0000
0100
0000
,  // measure 25
0010
0000
0100
0000
,  // measure 26
0001
0000
1000
0000
,  // measure 27
0100
0000
0010
0000
,  // measure 28
0001
0000
0010
0000
,  // measure 29
0100
0000
1000
0000
,  // measure 30
0001
0000
0010
0000
,  // measure 31
0100
0000
1000
0000
,  // measure 32
0110
0010
0010
0010
,  // measure 33
0010
0010
1001
0000
,  // measure 34
0100
0100
0100
0100
,  // measure 35
0001
1000
0001
0000
,  // measure 36
1000
1000
1000
1000
,  // measure 37
1001
0000
1001
0000
,  // measure 38
1000
0001
1000
0001
,  // measure 39
0100
0010
0100
0010
,  // measure 40
1002
1000
1003
0000
,  // measure 41
2001
0001
3001
0000
,  // measure 42
1001
0010
0100
0010
,  // measure 43
2001
0001
0001
3001
,  // measure 44
0100
0000
0010
0000
,  // measure 45
1000
0001
1000
0001
,  // measure 46
0100
0100
0010
0010
,  // measure 47
1000
0100
0010
0001
,  // measure 48
1001
0000
0100
0000
,  // measure 49
0010
0000
0010
0000
,  // measure 50
0001
0000
0010
0000
,  // measure 51
0100
0000
0100
0000
,  // measure 52
1000
0000
0100
0000
,  // measure 53
0010
0000
0001
0000
,  // measure 54
1001
0000
0010
0000
,  // measure 55
1000
0000
0100
0000
,  // measure 56
1001
0000
0100
0000
,  // measure 57
1000
0000
0100
0000
,  // measure 58
0010
0000
0001
0000
,  // measure 59
0001
0000
0100
0000
,  // measure 60
1001
0000
0010
0000
,  // measure 61
0001
0000
0010
0000
,  // measure 62
0100
0000
0100
0000
,  // measure 63
1000
0000
0010
0000
,  // measure 64
1001
0000
0000
0000
,  // measure 65
0001
0000
0000
0000
,  // measure 66
0110
0000
0000
0000
,  // measure 67
1000
0000
0000
0000
,  // measure 68
0110
0000
0001
0000
,  // measure 69
1001
0000
1000
0000
,  // measure 70
1001
0000
0001
0000
,  // measure 71
0001
1000
0001
1000
,  // measure 72
1001
0000
0000
0000
;

//---------------dance-single - ----------------
#NOTES:
     dance-single:
     :
     Hard:
     12:
     0.576809,0.582718,0.557539,0.053955,0.013489,449.000000,387.000000,62.000000,6.000000,0.000000,0.000000,0.576809,0.582718,0.557539,0.053955,0.013489,449.000000,387.000000,62.000000,6.000000,0.000000,0.000000:
// measure 0
0000
0000
0000
0000
,  // measure 1
0000
0000
0000
0000
,  // measure 2
0000
0000
0000
0000
,  // measure 3
0000
0000
0000
0000
,  // measure 4
1001
0000
0000
1010
0000
0000
1010
0000
,  // measure 5
1001
0000
0000
0011
0000
0000
0011
0000
,  // measure 6
1001
0000
0000
1100
0000
0000
1100
0000
,  // measure 7
0010
0001
0010
1000
0010
0001
0010
0100
,  // measure 8
1001
0000
0000
0101
0000
0010
1000
0000
,  // measure 9
1001
0000
0000
1100
0000
0000
0011
0000
,  // measure 10
0100
1000
0000
0100
0010
0000
0101
0000
,  // measure 11
0010
1000
0010
0001
0010
1000
0010
0100
,  // measure 12
0001
0000
0000
0011
0000
1000
0100
0000
,  // measure 13
1001
0000
0000
1010
0000
0000
0101
0000
,  // measure 14
1001
0000
0000
1000
0001
0010
0001
0000
,  // measure 15
1000
0001
0100
1000
0100
0001
0100
0010
,  // measure 16
1001
1100
0100
1100
,  // measure 17
0100
0101
0100
0101
,  // measure 18
0100
0001
0010
0100
0000
1001
0000
0000
,  // measure 19
1000
0001
0100
1000
0100
0001
0100
0010
,  // measure 20
1000
1100
1000
1100
,  // measure 21
0001
0101
0001
0101
,  // measure 22
0010
1000
0001
0000
1001
0000
1000
0001
,  // measure 23
0000
1000
0100
0001
0100
1000
0100
0010
,  // measure 24
1001
0011
0010
0011
,  // measure 25
0010
1010
0010
1010
,  // measure 26
1000
0010
0100
0001
1000
0000
0001
1000
,  // measure 27
0010
0001
0010
1000
0100
0010
0001
0000
,  // measure 28
1002
0100
1000
0103
,  // measure 29
0020
1000
0100
1030
,  // measure 30
1001
0000
0001
1000
0000
0001
1000
0100
,  // measure 31
0010
0000
0001
1000
0000
0000
1001
0000
,  // measure 32
0001
0010
0001
0010
0001
0010
0100
1000
,  // measure 33
0100
0010
0001
1000
0001
0000
1000
0100
,  // measure 34
1000
0100
0010
0001
0100
0010
0100
0000
,  // measure 35
0001
0100
1000
0100
0001
0010
0100
0000
,  // measure 36
1000
0010
1000
0010
0100
0001
0100
0001
,  // measure 37
0010
0100
1000
0010
1001
0000
1001
0000
,  // measure 38
0010
0001
0010
0001
1000
0010
0100
0000
,  // measure 39
0001
0010
1000
0010
0001
0010
0100
0000
,  // measure 40
1001
0000
0000
1000
0000
0000
0010
0000
0010
0000
0000
0000
0100
0000
0001
0000
,  // measure 41
1000
0000
0000
1000
0000
0000
0010
0000
0010
0000
0000
0000
0100
0000
0001
0000
,  // measure 42
1000
0100
1000
0001
0100
0001
1000
0000
,  // measure 43
0001
0100
1000
0100
0001
0010
0100
0010
,  // measure 44
0001
0000
1000
0001
0100
0010
0100
0000
,  // measure 45
0001
0000
0000
0001
0000
0000
0010
0000
0100
0000
1000
0000
0001
0000
0000
0000
,  // measure 46
1000
0100
0001
0100
1000
0010
0100
0000
,  // measure 47
0001
0010
1000
0010
0001
1000
0100
0010
,  // measure 48
1001
0000
1100
0000
1000
0010
0100
0001
,  // measure 49
0000
0100
0010
0100
0001
0010
0100
1000
,  // measure 50
0000
0010
0100
0010
1000
0000
1000
0000
,  // measure 51
0100
0010
0001
0000
1001
0000
0100
0010
,  // measure 52
0100
0000
0001
1000
0000
0001
0100
0001
,  // measure 53
1000
0000
0100
0010
0001
0000
0100
0000
,  // measure 54
2002
0000
3003
0000
1000
0001
0010
0100
,  // measure 55
1000
0010
0100
0001
0100
0010
0100
0000
,  // measure 56
1001
0000
1000
0100
0010
0100
1000
0001
,  // measure 57
1000
0000
0100
0010
0000
0001
0100
0000
,  // measure 58
0001
0000
1000
0000
0001
0000
1000
0010
,  // measure 59
0100
0110
2002
3003
,  // measure 60
1000
0001
1000
0000
0001
0010
0100
0010
,  // measure 61
0001
0010
0100
1000
0010
0000
0100
0001
,  // measure 62
1000
0100
0010
0100
1000
0000
0001
0100
,  // measure 63
0010
0001
0010
0100
0001
0000
0010
0000
,  // measure 64
0011
0000
0000
0110
0000
0000
1001
0000
,  // measure 65
1001
0000
0000
1010
0000
0000
0101
0000
,  // measure 66
1001
0000
0000
1100
0000
0000
0011
0000
,  // measure 67
1001
0000
0000
1010
0000
0000
0101
0000
,  // measure 68
0001
0010
0001
0100
0010
0100
0001
0000
,  // measure 69
1000
0100
1000
0010
0100
0010
1000
0000
,  // measure 70
0001
0100
0010
0100
0001
0010
0001
0100
,  // measure 71
0001
0001
0001
0001
1000
0100
0001
0100
,  // measure 72
1100
0000
0000
0000
;

//---------------dance-single - ----------------
#NOTES:
     dance-single:
     :
     Medium:
     8:
     0.327586,0.388479,0.440636,0.017985,0.000000,255.000000,206.000000,49.000000,2.000000,0.000000,0.000000,0.327586,0.388479,0.440636,0.017985,0.000000,255.000000,206.000000,49.000000,2.000000,0.000000,0.000000:
// measure 0
0000
0000
0000
0000
,  // measure 1
0000
0000
0000
0000
,  // measure 2
0000
0000
0000
0000
,  // measure 3
0000
0000
0000
0000
,  // measure 4
1001
0000
0000
1000
0000
0000
1000
0000
,  // measure 5
0001
0000
0000
0001
0000
0000
0001
0000
,  // measure 6
1000
0000
0000
1000
0000
0000
1000
0000
,  // measure 7
0100
0010
0001
0010
,  // measure 8
1001
0000
0000
0100
0000
0000
0001
0000
,  // measure 9
0100
0000
0000
0010
0000
0000
1000
0000
,  // measure 10
0010
0000
0000
0100
0000
0000
0001
0000
,  // measure 11
0010
0100
1000
0100
,  // measure 12
1001
0000
0000
0100
0000
0000
1000
0000
,  // measure 13
0100
0000
0000
0010
0000
0000
0001
0000
,  // measure 14
0010
0000
0000
0001
0000
0000
1000
0000
,  // measure 15
0100
0010
0001
0010
,  // measure 16
1001
0000
0100
0000
,  // measure 17
0001
0000
0100
0000
,  // measure 18
0010
0000
0100
0000
,  // measure 19
0001
1000
0001
1000
,  // measure 20
0010
0100
0001
0000
,  // measure 21
0100
0010
1000
0000
,  // measure 22
0100
0100
0010
0000
,  // measure 23
0001
1000
0001
1000
,  // measure 24
1001
0000
0100
0000
,  // measure 25
1000
0000
0010
0000
,  // measure 26
1000
0000
0100
0000
,  // measure 27
1000
0010
0100
0010
,  // measure 28
1002
0000
0103
0000
,  // measure 29
2001
0000
3010
0000
,  // measure 30
1001
0000
0000
0010
0000
0000
0010
0000
,  // measure 31
1001
0000
0000
0100
0000
0000
0100
0000
,  // measure 32
1001
0000
0000
1001
0000
0000
1000
0000
,  // measure 33
1100
0000
0000
1100
0000
0000
0000
0000
,  // measure 34
1001
0000
0000
1001
0000
0000
0100
0000
,  // measure 35
0101
0010
0100
0010
,  // measure 36
1001
0000
0000
1001
0000
0000
0100
0000
,  // measure 37
0101
0000
0000
0101
0000
0000
0000
0000
,  // measure 38
1001
0000
0000
1001
0000
0000
0100
0000
,  // measure 39
1100
0010
0100
0010
,  // measure 40
1001
0000
0000
1001
0000
0000
1000
0000
,  // measure 41
1100
0000
0000
1100
0000
0000
0000
0000
,  // measure 42
1001
0000
0000
1001
0000
0000
0001
0000
,  // measure 43
0101
0010
0100
1000
,  // measure 44
1001
0000
0000
1001
0000
0000
0010
0000
,  // measure 45
0011
0000
0000
0011
0000
0000
0000
0000
,  // measure 46
1001
0000
0000
1001
0000
0000
0100
0000
,  // measure 47
1100
0010
0001
0100
,  // measure 48
1001
0000
0010
0000
,  // measure 49
0001
0100
0001
0000
,  // measure 50
0110
0000
1000
0010
,  // measure 51
1000
0010
0100
0010
,  // measure 52
1001
0000
0100
0000
,  // measure 53
0001
0000
0010
0000
,  // measure 54
0110
0000
1000
0100
,  // measure 55
0010
0100
1000
0000
,  // measure 56
1001
0000
0100
0000
,  // measure 57
1000
0100
0010
0000
,  // measure 58
0001
1000
0001
0000
,  // measure 59
0010
0001
0010
0000
,  // measure 60
1001
0000
0100
0010
,  // measure 61
0100
0010
1000
0000
,  // measure 62
0010
0000
0110
0000
,  // measure 63
0010
0001
0010
0001
,  // measure 64
1001
0000
0000
1000
0000
0000
0100
0000
,  // measure 65
1001
0000
0000
0001
0000
0000
0010
0000
,  // measure 66
1001
0000
0000
0100
0000
0000
0010
0000
,  // measure 67
1001
0000
0000
0010
0000
0000
0100
0000
,  // measure 68
1001
0001
0010
0100
,  // measure 69
1000
0100
0010
0001
,  // measure 70
1000
0010
0100
0001
,  // measure 71
0100
0000
0010
0000
1000
0001
1000
0001
,  // measure 72
1000
0000
0000
0000
;

//---------------dance-single - ----------------
#NOTES:
     dance-single:
     :
     Beginner:
     2:
     0.105341,0.194239,0.071941,0.000000,0.000000,82.000000,74.000000,8.000000,0.000000,0.000000,0.000000,0.105341,0.194239,0.071941,0.000000,0.000000,82.000000,74.000000,8.000000,0.000000,0.000000,0.000000:
// measure 0
0000
0000
0000
0000
,  // measure 1
0000
0000
0000
0000
,  // measure 2
0000
0000
0000
0000
,  // measure 3
0000
0000
0000
0000
,  // measure 4
0001
0000
0000
0000
,  // measure 5
0000
0000
0000
0000
,  // measure 6
0000
0000
0000
0000
,  // measure 7
1000
0000
0000
0000
,  // measure 8
0010
0000
0000
0000
,  // measure 9
0000
0000
0000
0000
,  // measure 10
0100
0000
0000
0000
,  // measure 11
0010
0000
0000
0000
,  // measure 12
0100
0000
0000
0000
,  // measure 13
0010
0000
0000
0000
,  // measure 14
1000
0000
0000
0000
,  // measure 15
0001
0000
0000
0000
,  // measure 16
1001
0000
0000
0000
,  // measure 17
0001
0000
0000
0000
,  // measure 18
0100
0000
0000
0000
,  // measure 19
0001
0000
0000
0000
,  // measure 20
1001
0000
0000
0000
,  // measure 21
1000
0000
0000
0000
,  // measure 22
0010
0000
0000
0000
,  // measure 23
1000
0000
0000
0000
,  // measure 24
1001
0000
0000
0000
,  // measure 25
0001
0000
0000
0000
,  // measure 26
0100
0000
0000
0000
,  // measure 27
0001
0000
0000
0000
,  // measure 28
1001
0000
0000
0000
,  // measure 29
0010
0000
0000
0000
,  // measure 30
0100
0000
0000
0000
,  // measure 31
0010
0000
0000
0000
,  // measure 32
1001
0000
0000
0000
,  // measure 33
0010
0000
0000
0000
,  // measure 34
0001
0000
0000
0000
,  // measure 35
1000
0000
0000
0000
,  // measure 36
0100
0000
0000
0000
,  // measure 37
1000
0000
0000
0000
,  // measure 38
0010
0000
0000
0000
,  // measure 39
0100
0000
0000
0000
,  // measure 40
0010
0000
0000
0000
,  // measure 41
0100
0000
0000
0000
,  // measure 42
0001
0000
0000
0000
,  // measure 43
1000
0000
0000
0000
,  // measure 44
0001
0000
0000
0000
,  // measure 45
1000
0000
0000
0000
,  // measure 46
0001
0000
1000
0000
,  // measure 47
0001
0000
0100
0000
,  // measure 48
1001
0000
1000
0000
,  // measure 49
0001
0000
1000
0000
,  // measure 50
0001
0000
0000
0000
,  // measure 51
0100
0000
0000
0000
,  // measure 52
0010
0000
0000
0000
,  // measure 53
0100
0000
0000
0000
,  // measure 54
1001
0000
0000
0000
,  // measure 55
0010
0000
0000
0000
,  // measure 56
0100
0000
0000
0000
,  // measure 57
0001
0000
0000
0000
,  // measure 58
1001
0000
0000
0000
,  // measure 59
1000
0000
0000
0000
,  // measure 60
0010
0000
0000
0000
,  // measure 61
1000
0000
0000
0000
,  // measure 62
0001
0000
0000
0000
,  // measure 63
0100
0000
0000
0000
,  // measure 64
0001
0000
0000
0000
,  // measure 65
1000
0000
0000
0000
,  // measure 66
0100
0000
0000
0000
,  // measure 67
0010
0000
0000
0000
,  // measure 68
0001
0000
0000
0000
,  // measure 69
1000
0000
0001
0000
,  // measure 70
1000
0000
0001
0000
,  // measure 71
1000
0000
0001
1000
,  // measure 72
0001
0000
0000
0000
;

//---------------dance-single - ----------------
#NOTES:
     dance-single:
     :
     Challenge:
     13:
     0.639757,0.679838,0.494591,0.179851,0.161866,498.000000,443.000000,55.000000,20.000000,0.000000,0.000000,0.639757,0.679838,0.494591,0.179851,0.161866,498.000000,443.000000,55.000000,20.000000,0.000000,0.000000:
// measure 0
0000
0000
0000
0000
,  // measure 1
0000
0000
0000
0000
,  // measure 2
0000
0000
0000
0000
,  // measure 3
0000
0000
0000
0000
,  // measure 4
0101
0000
0000
1100
0000
0000
1100
0000
,  // measure 5
1001
0000
0000
0011
0000
0000
0011
0000
,  // measure 6
1001
0000
0000
1100
0000
0000
1100
0000
,  // measure 7
1000
0001
0010
1000
0010
0001
0010
0100
,  // measure 8
1001
0000
0000
0101
0000
1000
0100
0000
,  // measure 9
0011
0000
0000
0110
0000
0000
1100
0000
,  // measure 10
0010
0001
0100
0001
0010
0000
0101
0000
,  // measure 11
0001
1000
0010
0001
0010
1000
0100
0010
,  // measure 12
1001
0000
0000
1010
0000
0001
0010
0000
,  // measure 13
1001
0000
0000
1000
0001
0010
0001
1000
,  // measure 14
1010
0000
0000
0001
1000
1000
0100
0000
,  // measure 15
1000
1000
0001
0001
0100
0100
0010
0010
,  // measure 16
1001
0000
1000
0100
0001
0000
0001
0100
,  // measure 17
1000
0000
1000
0010
0001
0000
0001
0010
,  // measure 18
1000
0000
1000
0100
0001
0000
0001
0100
,  // measure 19
1000
0001
0100
1000
0100
0001
0100
0010
,  // measure 20
1000
0000
1100
0000
0010
0001
1000
0000
,  // measure 21
1001
0000
0011
0000
0100
1000
0001
0000
,  // measure 22
0100
0010
0100
0001
1000
0000
0100
0010
,  // measure 23
0001
1000
0100
0001
0100
1000
0010
0100
,  // measure 24
1001
0000
0001
0100
1000
0000
1000
0100
,  // measure 25
0001
0000
0001
0010
1000
0000
1000
0010
,  // measure 26
0001
0000
0001
0100
1000
0000
1000
0100
,  // measure 27
0001
0100
0010
0001
0010
0100
0001
1000
,  // measure 28
0010
0100
0010
0100
0010
0000
1000
0001
,  // measure 29
0100
0202
0000
0303
,  // measure 30
1001
0000
0010
1010
0000
0001
0010
0100
,  // measure 31
1001
0000
0100
0101
0000
0000
1001
0000
,  // measure 32
0001
0000
1000
0100
1000
0000
0001
0000
1000
0000
0010
0100
0010
0000
1000
0000
,  // measure 33
0001
0000
1000
0100
1000
0000
0001
0000
0202
0000
0000
0000
0303
0000
0000
0000
,  // measure 34
1000
0000
0001
0100
0001
0000
1000
0000
0100
0000
0010
0100
0010
0000
0000
0000
,  // measure 35
0001
0000
0100
0001
1000
0000
0100
0000
0010
0000
0001
1000
0001
0000
0000
0000
,  // measure 36
1000
0000
0001
0010
0001
0000
1000
0000
0010
0000
0100
0010
0100
0000
0010
0000
,  // measure 37
1000
0000
0001
0010
0001
0000
1000
0000
1010
0000
0000
0000
1010
0000
0000
0000
,  // measure 38
0100
0001
0010
1000
0010
0000
1001
0000
,  // measure 39
0001
0100
0001
0000
0010
0000
0100
0000
1000
0000
0001
1000
0001
0000
0000
0000
,  // measure 40
1000
0100
0000
1000
0100
0000
0010
0000
0202
0000
0000
0000
0303
0000
0001
0000
,  // measure 41
1000
0010
0000
1000
0010
0000
0100
0000
0022
0000
0000
0000
0033
0000
1000
0001
,  // measure 42
1000
0100
0001
0100
1000
0010
0001
0010
,  // measure 43
1000
0100
1000
0000
0001
0000
0100
0000
0010
0000
1000
0001
1000
0000
0000
0000
,  // measure 44
2002
0000
0000
0000
0000
0000
3003
0000
1000
0100
0000
1000
0100
0000
0010
0000
,  // measure 45
0001
0100
0000
0001
0100
0000
0010
0000
1000
0000
0001
0010
0001
0000
0000
0000
,  // measure 46
1000
0100
1000
0000
0001
0000
0010
0000
0100
0000
1000
0010
1000
0000
0000
0000
,  // measure 47
0100
0010
0100
0000
1000
0000
0001
0000
0010
0100
0010
0000
0001
0000
1000
0000
,  // measure 48
1001
0000
0001
0100
1000
0100
0001
0020
,  // measure 49
0000
0130
0010
0100
1000
0010
0001
0020
,  // measure 50
0000
1030
0100
0001
0200
0000
1300
0001
,  // measure 51
0010
1000
0020
0000
0031
0000
0001
0000
,  // measure 52
1001
0000
0000
1001
0000
0100
0010
0001
,  // measure 53
1000
0000
0001
0100
0010
0100
0001
0000
,  // measure 54
2002
0000
3003
0000
1000
0100
0001
0100
,  // measure 55
1000
0010
0001
0010
1000
0100
0010
0000
,  // measure 56
1001
0001
1000
0100
0001
0100
1000
0002
,  // measure 57
0000
0000
0013
0100
1000
0020
0000
0030
,  // measure 58
1000
0100
0010
0001
1000
0000
0100
0010
,  // measure 59
0002
0000
2003
0000
3001
0100
1000
0100
,  // measure 60
0001
0010
0100
0000
1000
0010
0001
0010
,  // measure 61
1000
0100
0010
0100
1000
0000
1000
0000
,  // measure 62
0001
0100
1000
0100
0001
0010
0100
0000
,  // measure 63
0010
0000
0001
0000
1000
0000
0010
0100
0010
0100
0010
1000
0001
1000
0001
0000
,  // measure 64
1001
0000
0000
0101
0000
0000
1001
0000
,  // measure 65
1001
0000
0000
1010
0000
0000
0110
0000
,  // measure 66
0110
0000
0000
0011
0000
0000
1001
0000
,  // measure 67
1001
0000
0000
1100
0000
0000
0110
0000
,  // measure 68
0110
0100
0001
0001
0010
0100
1000
0010
,  // measure 69
0001
0010
1000
0100
0010
0001
1000
0100
,  // measure 70
0010
0001
0100
1000
0100
0001
0010
0100
,  // measure 71
1000
0000
1000
0000
1000
0000
1000
0000
0010
0100
0010
0100
0010
0100
0010
0100
,  // measure 72
0001
0000
0000
0000
;
