#TITLE:Party Jumpin';
#SUBTITLE:;
#ARTIST:KO3;
#TITLETRANSLIT:;
#SUBTITLETRANSLIT:;
#ARTISTTRANSLIT:;
#GENRE:;
#CREDIT:DigiMindAxel;
#BANNER:Party Jumpin'.png;
#BACKGROUND:Party Jumpin'-bg.png;
#LYRICSPATH:;
#CDTITLE:DANCERUSH.png;
#MUSIC:Party Jumpin'.ogg;
#OFFSET:-0.555000;
#SAMPLESTART:44.000988;
#SAMPLELENGTH:12.000000;
#SELECTABLE:YES;
#BPMS:0.000000=138.000000
;
#STOPS:
;
#BGCHANGES:;
#KEYSOUNDS:;
#ATTACKS:;

//---------------dance-single - ----------------
#NOTES:
     dance-single:
     :
     Easy:
     5:
     0.230173,0.275715,0.051697,0.129241,0.000000,187.000000,181.000000,6.000000,15.000000,0.000000,0.000000,0.230173,0.275715,0.051697,0.129241,0.000000,187.000000,181.000000,6.000000,15.000000,0.000000,0.000000:
0000
0000
0000
0000
,
0000
0000
0000
0000
,
0000
0000
0000
0000
,
0000
0000
0000
0000
,
1000
0100
0000
0100
,
1000
0001
0000
0001
,
0010
0001
0000
0001
,
0010
0100
0000
1000
,
1001
0010
0000
0000
,
0010
0010
0010
0010
,
0100
0010
0000
0000
,
0010
0010
0010
0010
,
0100
0010
0000
0000
,
0010
0010
0010
0010
,
0100
0010
0000
0000
,
0010
0000
0000
0110
,
1000
1000
1000
1000
,
0001
0001
0001
0001
,
1000
1000
1000
1000
,
0001
0001
0001
0001
,
1000
0100
0010
0001
,
1000
0100
0010
0001
,
1000
0001
0100
0001
,
2000
0000
0000
0000
,
3002
0000
0000
0000
,
1003
0100
1000
0100
,
0010
0001
0010
0001
,
1000
0001
1000
0001
,
0100
0010
0100
0010
,
1000
0100
1000
0100
,
0010
0001
0010
0001
,
2000
0000
0000
0000
,
3010
0100
0010
0100
,
0001
0010
0001
0010
,
0100
1000
0100
1000
,
0010
0100
0010
0100
,
0001
0010
0100
1000
,
0001
0100
0001
0100
,
0010
1000
0010
1000
,
0200
0000
0000
0300
,
1001
0010
0000
0000
,
0010
0010
0010
0100
,
0010
0010
0000
0000
,
0010
0010
0010
0100
,
0001
0010
0100
1000
,
0001
0010
0100
1000
,
0001
0100
0010
1000
,
0002
0000
0000
0003
,
2002
0000
0000
3003
,
2000
0000
0000
0000
,
3020
0000
0000
0000
,
0230
0000
0000
0000
,
0302
0000
0000
0000
,
2003
0000
0000
0000
,
3002
0000
0000
0000
,
0023
0000
0000
0030
,
1001
0010
0100
0010
,
1000
0100
1000
0100
,
0010
0001
0010
0001
,
0100
0010
0100
0010
,
1000
0001
0010
0100
,
1000
0010
1000
0010
,
0100
0001
0100
0001
,
2000
0000
0000
3000
,
1001
0000
0000
0000
;

//---------------dance-single - ----------------
#NOTES:
     dance-single:
     :
     Medium:
     10:
     0.418496,0.468715,0.585894,0.155090,0.000000,340.000000,272.000000,68.000000,18.000000,0.000000,0.000000,0.418496,0.468715,0.585894,0.155090,0.000000,340.000000,272.000000,68.000000,18.000000,0.000000,0.000000:
0000
0000
0000
0000
,
0000
0000
0000
0000
,
0000
0000
0000
0000
,
0000
0000
0000
0000
,
0001
0100
0001
0100
,
1000
0100
1000
0100
,
0001
0010
0001
0010
,
1000
0010
1000
0010
,
0001
0001
0010
0000
0000
0000
0000
0100
,
0010
0100
0010
0100
0010
0100
0010
0000
,
0001
0001
0010
0000
0000
0000
0000
0100
,
0010
0100
0010
0100
0010
0100
0010
0000
,
0001
0001
0010
0000
0000
0000
0000
0100
,
0010
0100
0010
0100
0010
0100
0010
0000
,
0001
0001
0010
0000
0000
0000
0000
0100
,
0020
0000
0030
1001
,
0100
1000
0100
1000
0100
1000
0100
0000
,
0010
0100
0010
0100
0010
0100
0010
0000
,
0001
0100
0001
0100
0001
0100
0001
0000
,
0100
0010
0100
0010
0100
0010
0100
0000
,
0001
0010
0100
1000
0001
0010
0100
1000
,
0001
0100
0010
1000
0001
0010
0100
1000
,
0002
0203
0320
2030
,
3002
0000
1000
1003
,
2002
0000
0000
3003
,
0001
0100
0010
0000
1010
0000
0110
0000
,
0001
0100
0010
0000
1010
0000
0110
0000
,
0001
0010
0100
0000
1100
0000
1001
0000
,
0110
1001
1100
1001
,
1100
0000
0010
0001
1000
0000
1100
0000
,
1001
0000
0010
0001
1000
0000
1100
0000
,
2002
0000
0000
3003
,
1001
0101
1001
0101
,
0010
1000
0001
0000
1001
0000
0101
0000
,
0010
1000
0001
0000
1001
0000
0101
0000
,
0010
1000
0100
0000
0011
0000
1001
0000
,
0110
1001
1100
1001
,
1100
0000
0010
0001
1000
0000
1010
0000
,
1001
0000
0010
0001
1000
0000
1010
0000
,
2002
0000
0000
3003
,
1001
0000
0010
0000
0000
0000
0000
0100
,
0010
0100
0010
0100
0010
0100
1000
0100
,
0010
0001
0010
0000
0000
0000
0000
0001
,
0010
0001
0010
0001
0010
0100
1000
0001
,
1000
0100
1000
0100
1000
0100
1000
0000
,
0001
0100
0001
0100
0001
0100
0001
0000
,
0010
0100
0010
0100
0010
0100
0010
0100
,
2002
0000
0000
3003
,
0110
0000
1010
0000
,
0101
0000
0110
0000
,
1001
0000
0011
0000
,
1001
0000
1100
0000
,
1001
0000
0101
0000
,
1001
0000
1010
0000
,
1001
0000
0110
0000
,
2002
0000
0000
3003
,
1001
0011
0110
1100
,
1001
0000
0010
1000
0100
1000
0010
0000
,
1001
0000
0100
0001
0010
0001
0100
0000
,
1001
0000
0010
0100
1000
0100
0010
0000
,
1001
1100
0110
0011
,
1001
0000
0100
0010
0001
0010
0100
0000
,
1001
0000
0010
0100
1000
0100
0010
0000
,
0220
0000
0000
0330
,
1001
0000
0000
0000
;

//---------------dance-single - ----------------
#NOTES:
     dance-single:
     :
     Hard:
     13:
     0.624051,0.716858,0.542813,0.224018,0.310179,507.000000,444.000000,63.000000,26.000000,0.000000,0.000000,0.624051,0.716858,0.542813,0.224018,0.310179,507.000000,444.000000,63.000000,26.000000,0.000000,0.000000:
0000
0000
0000
0000
,
0000
0000
0000
0000
,
0000
0000
0000
0000
,
0000
0000
0000
0000
,
1010
0000
0000
0010
0000
0000
0100
0000
0000
0100
0000
0000
0001
0000
0001
0000
,
1000
0000
0000
1000
0000
0000
0010
0000
0000
0010
0000
0000
0100
0000
0000
0000
,
0001
0000
0000
0001
0000
0000
0010
0000
0000
0010
0000
0000
0100
0000
0100
0000
,
1000
0000
0000
1000
0000
0000
0001
0000
0000
0001
0000
0000
0110
0000
0000
0000
,
1001
0100
0010
0000
0100
0000
1000
0001
,
0010
1000
0010
0001
0010
1000
0010
0001
,
1001
0100
0010
0000
0100
0000
1000
0001
,
0010
1000
0010
0001
0010
1000
0010
0001
,
1000
0001
1000
0000
0010
0000
1000
0000
0000
0001
0000
0000
0001
0000
1000
0000
,
0010
0001
0010
1000
0010
0001
0010
1000
,
0001
1000
0001
0000
0010
0000
0100
0000
0000
1000
0000
0000
0001
0000
0100
0000
,
0220
0000
0000
0000
0000
0330
1001
0000
,
0001
0010
1000
0010
0001
0010
1000
0010
,
0001
0100
1000
0100
0001
0100
1000
0100
,
0001
0010
1000
0001
0010
0100
0001
1000
,
0001
0100
1000
0100
0010
1000
0001
0001
,
0110
0100
1001
1000
0110
0010
1001
0001
,
0110
0100
1001
1000
0110
0010
1001
0001
,
1000
0000
0100
1000
0000
0000
0001
0000
0010
0001
0000
0000
1000
0000
0100
1000
0000
0000
0001
0000
0010
0001
0000
0000
,
0220
0000
0030
0000
0001
0000
0301
0001
,
1001
0200
0320
0032
,
1003
0000
0010
1000
0000
0000
0001
0000
0000
0010
0000
0000
0100
0000
0000
0010
0000
0000
0001
0000
0000
0110
0000
0000
,
1000
0000
0010
1000
0000
0000
0001
0000
0000
0010
0000
0000
0100
0000
0000
0010
0000
0000
0001
0000
0000
0110
0000
0000
,
1000
0000
0100
1000
0000
0000
0001
0000
0000
0100
0000
0000
0010
0000
0000
0100
0000
0000
0101
0000
0000
0000
0000
0000
,
1001
0000
0000
0000
0000
0000
0001
0000
0100
0001
0000
0000
1000
0000
0010
1000
0000
0000
0001
0000
0100
0001
0000
0000
,
1000
0000
0010
1000
0000
0000
0001
0000
0000
0010
0000
0000
0100
0000
0000
0010
0000
0000
0001
0000
0000
0110
0000
0000
,
1000
0000
0100
1000
0000
0000
0001
0000
0000
0100
0000
0000
0010
0000
0000
0100
0000
0000
0001
0000
0000
0110
0000
0000
,
1001
0000
0000
1000
0000
0000
0010
0000
0000
0010
0000
0000
0100
0000
0100
0000
,
1001
0000
0000
0000
0000
0000
0001
0000
0010
0001
0000
0000
1000
0000
0100
1000
0000
0000
0001
0000
0010
0001
0000
0000
,
1000
0000
0100
1000
0000
0000
0001
0000
0000
0100
0000
0000
1000
0000
0000
0100
0000
0000
0001
0000
0000
0110
0000
0000
,
1000
0000
0100
1000
0000
0000
0001
0000
0000
0100
0000
0000
1000
0000
0000
0100
0000
0000
0001
0000
0000
0110
0000
0000
,
1000
0000
0010
1000
0000
0000
0001
0000
0000
0010
0000
0000
1000
0000
0000
0010
0000
0000
0011
0000
0000
0000
0000
0000
,
1001
0000
0000
0000
0000
0000
1000
0000
0010
1000
0000
0000
0001
0000
0100
0001
0000
0000
1000
0000
0010
1000
0000
0000
,
0001
0000
0100
0001
0000
0000
1000
0000
0000
0100
0000
0000
0001
0000
0000
0100
0000
0000
1000
0000
0000
0110
0000
0000
,
0001
0000
0010
0001
0000
0000
1000
0000
0000
0010
0000
0000
0001
0000
0000
0010
0000
0000
1000
0000
0000
0110
0000
0000
,
1001
0000
0000
0001
0000
0000
0010
0000
0000
0010
0000
0000
0100
0000
0100
0000
,
1001
0000
0011
0000
1001
0000
0011
1000
,
0010
0001
0010
1000
0010
0001
0010
1000
,
1001
0000
0011
0000
1001
0000
0011
1000
,
0010
0001
0010
1000
0010
0001
0010
1000
,
1001
0001
0001
0001
0101
0100
0100
0100
,
1010
0010
0010
0010
1001
1000
1000
1000
,
0001
0000
0100
0001
0000
0000
1000
0000
0010
1000
0000
0000
0001
0000
0010
0001
0000
0000
1000
0000
0100
1000
0000
0000
,
1002
0000
0000
0000
1003
0100
0010
0000
,
0102
0023
0230
2300
,
3002
0000
0000
0000
0000
0000
0003
0000
0000
1000
0000
0010
0000
0000
0100
0000
0000
0010
0000
0000
0000
0110
0000
0000
,
2002
0000
0000
0000
0000
0000
3003
0000
0000
0001
0000
0100
0000
0000
0010
0000
0000
0100
0000
0000
0000
0110
0000
0000
,
2002
0000
0000
0000
0000
0000
3003
0000
0000
1000
0000
0001
0000
0000
0010
0000
0000
0100
0000
0000
0000
0000
0000
0000
,
2001
3020
0230
0302
,
2003
0000
0000
0000
0000
0000
3000
0000
0000
0001
0000
1000
0000
0000
0100
0000
0000
0010
0000
0000
0000
0110
0000
0000
,
2002
0000
0000
0000
0000
0000
3003
0000
0000
1000
0000
0001
0000
0000
0100
0000
0000
0010
0000
0000
0000
0110
0000
0000
,
1001
0000
0000
1000
0000
0000
0010
0000
0000
0010
0000
0000
0100
0000
0100
0000
,
1001
0000
0000
0000
0000
0000
0001
0000
0010
0001
0000
0000
0010
0000
0100
0010
0000
0000
0100
0000
1000
0100
0000
0000
,
1000
0000
0001
1000
0000
0000
0001
0000
0000
0100
0000
0000
1000
0000
0000
0100
0000
0000
0010
0000
0000
1001
0000
0000
,
0001
0000
1000
0001
0000
0000
1000
0000
0000
0010
0000
0000
0001
0000
0000
0010
0000
0000
0100
0000
0000
1001
0000
0000
,
0220
0330
1000
0010
0001
0010
0100
0000
,
1001
0000
0000
0000
0000
0000
1000
0000
0100
1000
0000
0000
0100
0000
0010
0100
0000
0000
0010
0000
0001
0010
0000
0000
,
0001
0000
1000
0001
0000
0000
1000
0000
0000
0010
0000
0000
0001
0000
0000
0010
0000
0000
0100
0000
0000
1001
0000
0000
,
1000
0000
0010
1000
0000
0000
0001
0000
0000
0100
0000
0000
1000
0000
0000
0100
0000
0000
0010
0000
0000
1001
0000
0000
,
0110
0000
0000
0010
0000
0000
1000
0000
0000
1000
0000
0000
0001
0000
0001
0000
,
1100
0000
0000
0000
;

//---------------dance-single - ----------------
#NOTES:
     dance-single:
     :
     Challenge:
     15:
     0.798834,0.909859,0.697903,0.301563,0.939153,649.000000,568.000000,81.000000,35.000000,0.000000,0.000000,0.798834,0.909859,0.697903,0.301563,0.939153,649.000000,568.000000,81.000000,35.000000,0.000000,0.000000:
// measure 0
0000
0000
0000
0000
,  // measure 1
0000
0000
0000
0000
,  // measure 2
0000
0000
0000
0000
,  // measure 3
0000
0000
0000
0000
,  // measure 4
1001
0000
0000
0001
0010
0000
0100
0000
0000
0100
0000
0000
0010
0000
0001
0000
,  // measure 5
1000
0000
0000
1000
0100
0000
0010
0000
0000
0010
0000
0000
1100
0000
0000
0000
,  // measure 6
0001
0000
0000
0001
0100
0000
0010
0000
0000
0010
0000
0000
0100
0000
0001
0000
,  // measure 7
1000
0000
0000
1000
0010
0000
0100
0001
0000
0100
0001
0000
0110
0000
0000
0000
,  // measure 8
0001
1000
0100
0000
0010
0000
0001
0000
0000
0001
1000
0000
0010
0000
1000
0001
,  // measure 9
0010
0000
0001
1000
0010
0000
1000
0001
0010
0000
0001
0010
0100
1000
0001
0000
,  // measure 10
0100
0001
1000
0000
0010
0000
1000
0000
0000
0100
0000
0000
0010
0000
0001
0100
,  // measure 11
0010
0000
0100
0001
0010
0000
0001
0100
0010
0000
1000
0100
0010
0001
1000
0000
,  // measure 12
0100
1000
0001
0000
0010
0000
0100
0000
0000
1000
0000
0000
0001
0000
1000
0100
,  // measure 13
0010
0000
0001
0100
0010
0000
1000
0100
0010
0000
0001
0100
0001
1000
0100
0000
,  // measure 14
1000
0001
0100
0000
0010
0000
1000
0000
0000
0100
0000
0000
0010
0000
0100
0000
,  // measure 15
2020
0000
0000
0000
0000
3030
1001
0000
,  // measure 16
0001
0000
0001
0010
0000
0010
1000
0000
1000
0010
0000
0010
0001
0000
0001
0100
,  // measure 17
0000
0100
1000
0000
1000
0100
0000
0100
0001
0000
0001
0010
0000
0010
1000
0000
,  // measure 18
1000
0010
0000
0010
0001
0000
0001
0100
0000
0100
1000
0000
1000
0100
0000
0100
,  // measure 19
0001
0000
0001
0010
0000
0010
1000
0000
1000
0010
0000
0010
0001
0000
0100
0000
,  // measure 20
1010
1010
1001
1001
0011
0011
0110
0110
,  // measure 21
1001
1001
0101
0101
0110
0110
1001
1001
,  // measure 22
0001
0000
0100
0001
0000
0100
0001
0000
0010
0100
0000
0010
0100
0000
1000
0010
0000
1000
0010
0000
1000
0001
0000
1000
,  // measure 23
0001
0000
0000
0100
0010
0000
0010
0000
1000
0000
0000
0010
0100
0000
0100
0000
,  // measure 24
1001
0002
0023
0230
,  // measure 25
1300
0000
0001
0100
0000
0000
0001
0000
1000
0000
0000
0200
0000
0000
0010
0000
0000
0310
0000
0000
0000
0101
0000
0000
,  // measure 26
0001
0000
1000
0010
0000
0000
1000
0000
0001
0000
0000
0020
0000
0000
0100
0000
0000
0130
0000
0000
0000
1010
0000
0000
,  // measure 27
2002
0000
0000
3003
0000
0000
0001
0000
1000
0000
0000
0020
0000
0000
0100
0000
0000
0130
0000
0000
0000
0101
0000
0000
,  // measure 28
1001
0000
0000
0000
0000
0000
1000
0000
1000
0100
0000
0000
0100
0000
0100
0010
0000
0000
0010
0000
0010
0001
0000
0000
,  // measure 29
1000
0000
0001
0100
0000
0000
0001
0000
1000
0000
0000
0200
0000
0000
0010
0000
0000
0310
0000
0000
0000
0011
0000
0000
,  // measure 30
0001
0000
1000
0010
0000
0000
1000
0000
0001
0000
0000
0020
0000
0000
0100
0000
0000
0130
0000
0000
0000
1100
0000
0000
,  // measure 31
1001
0000
0000
0010
0100
0000
0100
0000
0001
0010
0000
0100
1000
0001
0100
0000
,  // measure 32
2002
0000
0000
3003
0000
0000
0001
0000
0001
0010
0000
0000
0010
0000
0010
0100
0000
0000
0100
0000
0100
1000
0000
0000
,  // measure 33
0001
0000
0100
0010
0000
0000
1000
0000
0001
0100
0000
0001
0000
0000
1000
0000
0000
1100
0000
0000
0000
0011
0000
0000
,  // measure 34
0001
0000
0100
0010
0000
0000
1000
0000
0001
0100
0000
0001
0000
0000
1000
0000
0000
1100
0000
0000
0000
0011
0000
0000
,  // measure 35
0001
0000
1000
0100
0000
0000
1000
0000
0001
0100
0000
0001
0000
0000
1000
0000
0000
1010
0000
0000
0000
0110
0000
0000
,  // measure 36
2002
0000
0000
3003
0000
0000
1000
0000
1000
0100
0000
0000
0100
0000
0100
0010
0000
0000
0010
0000
0010
0001
0000
0000
,  // measure 37
0001
0000
0100
0010
0000
0000
1000
0000
0001
0010
0000
0001
0000
0000
1000
0000
0000
1010
0000
0000
0000
0101
0000
0000
,  // measure 38
0001
0000
0100
0010
0000
0000
1000
0000
0001
0010
0000
0001
0000
0000
1000
0000
0000
1010
0000
0000
0000
0110
0000
0000
,  // measure 39
1001
0000
0000
0100
0010
0000
1000
0000
0100
1000
0000
0010
0100
0001
0010
0000
,  // measure 40
0001
1000
0100
0000
0010
0000
0100
0000
0000
1000
0000
0000
0001
0000
1000
0100
,  // measure 41
0010
0000
0001
1000
0010
0000
1000
0100
0010
0000
0001
0100
0010
1000
0100
0000
,  // measure 42
1000
0001
0100
0000
0010
0000
1000
0000
0000
0100
0000
0000
0010
0000
0001
1000
,  // measure 43
0010
0000
1000
0100
0010
0000
0001
1000
0010
0000
1000
0100
0010
0001
1000
0000
,  // measure 44
1001
1001
1100
1100
0101
0101
0110
0110
,  // measure 45
1001
1001
0011
0011
1010
1010
1001
1001
,  // measure 46
0001
0000
1000
0100
0000
1000
0100
0000
0010
0001
0000
0010
0001
0000
0100
0010
0000
0100
0010
0000
1000
0001
0000
1000
,  // measure 47
0001
0000
0000
0100
0010
0000
0010
0000
1000
0100
0000
0010
0001
1000
0010
0000
,  // measure 48
1002
0000
0000
0000
0000
0000
0103
0000
0100
0010
0000
0000
1000
0000
1000
0100
0000
0000
0010
0000
0010
0001
0000
0000
,  // measure 49
0002
0000
2000
0000
0000
0000
3003
0000
0000
1000
0000
0020
0000
0000
0100
0000
0000
0130
0000
0000
0000
0101
0000
0000
,  // measure 50
2000
0000
0002
0000
0000
0000
3003
0000
0000
0001
0000
0200
0000
0000
0010
0000
0000
0310
0000
0000
0000
1010
0000
0000
,  // measure 51
0002
0000
2000
0000
0000
0000
3003
0000
0000
1000
0000
0020
0000
0000
0100
0000
0000
0130
0000
0000
0000
0110
0000
0000
,  // measure 52
2001
0000
0000
0000
0000
0000
3001
0000
0001
0010
0000
0000
0100
0000
0100
1000
0000
0000
0100
0000
0100
0010
0000
0000
,  // measure 53
2000
0000
0002
0000
0000
0000
3003
0000
0000
0001
0000
0020
0000
0000
0100
0000
0000
0130
0000
0000
0000
0110
0000
0000
,  // measure 54
0002
0000
2000
0000
0000
0000
3003
0000
0000
1000
0000
0200
0000
0000
0010
0000
0000
0310
0000
0000
0000
0110
0000
0000
,  // measure 55
1001
0000
0000
0010
0100
0000
0001
0000
0010
0001
0000
0100
0010
1000
0100
0000
,  // measure 56
1001
0000
0000
0000
0000
0000
0010
0000
0010
1000
0000
0000
0010
0000
0010
0100
0000
0000
0010
0000
0010
0001
0000
0000
,  // measure 57
0010
0000
0010
0100
0000
0000
0001
0000
0100
0010
0000
1000
0000
0000
1100
0000
0000
0011
0000
0000
0000
1001
0000
0000
,  // measure 58
0100
0000
0100
0010
0000
0000
1000
0000
0010
0100
0000
0001
0000
0000
0011
0000
0000
1100
0000
0000
0000
0110
0000
0000
,  // measure 59
2002
0000
0000
3003
0000
0000
1000
0000
1000
0100
0000
0010
0001
0000
1000
0010
0000
0100
0001
0000
0000
0110
0000
0000
,  // measure 60
1001
0000
0000
0000
0000
0000
0100
0000
0100
0001
0000
0000
0100
0000
0100
0010
0000
0000
0100
0000
0100
1000
0000
0000
,  // measure 61
0100
0000
0100
0010
0000
0000
1000
0000
1000
0010
0000
0100
0001
0000
1000
0100
0000
0010
0001
0000
0000
1001
0000
0000
,  // measure 62
0100
0000
0100
0010
0000
0000
1000
0000
1000
0100
0000
0010
0001
0000
1000
0010
0000
0100
0001
0000
0000
0110
0000
0000
,  // measure 63
1001
0000
0000
0010
0100
0000
0100
0000
0001
0010
0000
0100
1000
0001
0100
0000
,  // measure 64
1001
0000
0000
0000
;

//---------------dance-single - ----------------
#NOTES:
     dance-single:
     :
     Beginner:
     2:
     0.097239,0.165429,0.120625,0.000000,0.000000,79.000000,65.000000,14.000000,0.000000,0.000000,0.000000,0.097239,0.165429,0.120625,0.000000,0.000000,79.000000,65.000000,14.000000,0.000000,0.000000,0.000000:
0000
0000
0000
0000
,
0000
0000
0000
0000
,
0000
0000
0000
0000
,
0000
0000
0000
0000
,
1000
0000
0000
0000
,
0100
0000
0000
0000
,
1000
0000
0000
0000
,
0001
0000
0000
0000
,
0010
0000
0000
0000
,
0010
0000
0000
0000
,
0010
0000
0000
0000
,
0010
0000
0000
0000
,
0010
0000
0000
0000
,
0010
0000
0000
0000
,
0010
0000
0000
0000
,
0010
0000
0000
0000
,
1001
0000
0000
0000
,
0001
0000
0000
0000
,
0001
0000
0000
0000
,
0001
0000
0000
0000
,
0001
0000
0001
0000
,
1000
0000
1000
0000
,
0001
0000
0001
0000
,
1000
0000
0000
0000
,
0100
0000
0000
0000
,
1001
0000
0000
0000
,
1001
0000
0000
0000
,
1001
0000
0000
0000
,
0010
0000
0000
0000
,
1001
0000
0000
0000
,
1001
0000
0000
0000
,
0010
0000
0000
0000
,
1001
0000
0000
0000
,
1001
0000
0000
0000
,
1001
0000
0000
0000
,
0010
0000
0000
0000
,
1001
0000
0000
0000
,
1001
0000
0000
0000
,
1001
0000
0000
0000
,
0010
0000
0000
0000
,
0010
0000
0000
0000
,
0010
0000
0000
0000
,
0010
0000
0000
0000
,
0010
0000
0000
0000
,
0010
0000
0000
0000
,
0010
0000
0000
0000
,
0010
0000
0010
0000
,
0010
0000
0000
0000
,
0110
0000
0000
0000
,
0010
0000
0000
0000
,
0100
0000
0000
0000
,
0010
0000
0000
0000
,
1000
0000
0000
0000
,
0001
0000
0000
0000
,
1000
0000
0000
0000
,
0100
0000
0000
0000
,
0010
0000
0000
0000
,
0001
0000
0000
0000
,
0010
0000
0000
0000
,
0001
0000
0000
0000
,
1000
0000
0000
0000
,
0010
0000
0000
0000
,
1000
0000
0000
0000
,
0100
0000
0000
0000
,
1001
0000
0000
0000
;
