#TITLE:PROLOGUE;
#SUBTITLE:;
#ARTIST:NIMBUS QUARTET 2003;
#TITLETRANSLIT:;
#SUBTITLETRANSLIT:;
#ARTISTTRANSLIT:;
#GENRE:;
#CREDIT:DigiMindAxel;
#BANNER:PROLOGUE.png;
#BACKGROUND:PROLOGUE-bg.png;
#LYRICSPATH:;
#CDTITLE:SPEED SFX.png;
#MUSIC:PROLOGUE.ogg;
#OFFSET:-0.089000;
#SAMPLESTART:64.326965;
#SAMPLELENGTH:12.000000;
#SELECTABLE:YES;
#BPMS:0.000000=180.246994
;
#STOPS:
;
#BGCHANGES:;
#KEYSOUNDS:;
#ATTACKS:;

//---------------dance-single - ----------------
#NOTES:
     dance-single:
     :
     Easy:
     4:
     0.176248,0.367835,0.063971,0.100526,0.000000,135.000000,128.000000,7.000000,11.000000,0.000000,0.000000,0.176248,0.367835,0.063971,0.100526,0.000000,135.000000,128.000000,7.000000,11.000000,0.000000,0.000000:
0000
0000
0000
0000
,
0000
0000
0000
0000
,
0000
0000
0000
0000
,
0000
0000
0000
0000
,
0000
0000
0000
0000
,
0000
0000
0000
0000
,
0000
0000
0000
0000
,
0000
0000
0000
0000
,
0000
0000
0002
0000
,
0000
0000
2003
0000
,
0000
0000
3020
0000
,
0000
0000
0130
0000
,
0000
0000
0002
0000
,
0000
0000
2003
0000
,
0000
0000
3020
0000
,
0000
0000
0130
0000
,
0000
0000
0001
0000
,
0000
0000
1000
0000
,
0000
0000
0001
0000
,
0000
0000
0010
0000
,
0000
0000
0100
0000
,
0000
0000
0010
0000
,
0100
0000
0010
0000
,
0100
0000
0001
0000
,
0100
0000
0001
0000
,
0010
0000
0001
0000
,
0010
0000
0001
0000
,
0100
0000
0001
0000
,
1000
0001
0000
1000
,
0000
0001
0000
0010
,
0010
0100
0000
0100
,
0000
0010
1000
0000
,
0010
1000
0000
1000
,
0000
0100
0000
1000
,
0000
1100
0000
1000
,
0000
0001
0000
1000
,
0001
0100
0000
0100
,
0000
0010
0000
0100
,
0010
0001
0000
0001
,
0000
0010
1000
0000
,
0010
1000
0001
0000
,
0000
0000
0000
0000
,
0000
0000
1000
0000
,
0000
0000
0000
0000
,
0000
0000
0002
0000
,
0000
0000
0000
0000
,
0000
0000
2003
0000
,
0000
0000
0000
0000
,
0000
0000
3010
0000
,
0100
0000
0001
0000
,
1000
0000
0001
0000
,
0010
0000
0001
0000
,
0010
0000
0100
0000
,
0010
0000
0100
0000
,
0010
0000
0110
0000
,
0100
0000
0001
0000
,
1000
0000
0002
0000
,
0000
0000
1003
0000
,
1000
0000
0001
0000
,
1000
0000
0010
0000
,
0100
0000
0002
0000
,
1003
0000
2000
0000
,
3001
0000
0010
0000
,
0110
0000
0100
0000
,
0000
0000
0001
0000
,
0000
0000
0100
0000
,
0000
0000
0001
0000
,
0000
0000
1000
0000
,
0000
0000
0010
0000
,
0000
0000
0100
0000
,
0000
0000
0010
0000
,
0000
0000
0001
0000
,
0000
0000
0001
0001
,
1000
1000
0010
0010
,
0100
0010
0101
0000
,
1000
1000
0010
0010
,
0010
0100
0110
0100
,
0100
0100
0010
0010
,
0000
0011
0001
0001
,
1000
1000
1000
0001
,
0000
0000
1001
0000
;

//---------------dance-single - ----------------
#NOTES:
     dance-single:
     :
     Hard:
     12:
     0.552242,0.588536,0.237608,0.082249,0.095957,423.000000,397.000000,26.000000,9.000000,0.000000,0.000000,0.552242,0.588536,0.237608,0.082249,0.095957,423.000000,397.000000,26.000000,9.000000,0.000000,0.000000:
0000
0000
0000
0000
,
0000
0000
0000
0000
,
0000
0000
0000
0000
,
0000
0000
0000
0000
,
0000
0000
0000
0000
,
0000
0000
0000
0000
,
0000
0000
0000
0000
,
0000
0000
0000
0000
,
0000
1000
1001
1000
,
1001
0000
1000
0001
1000
0000
0010
0100
,
0010
0000
0000
0000
1000
0000
0000
0000
0010
0000
0000
0000
1000
0000
0001
0010
,
0001
0010
0001
0010
0100
0000
0010
0000
,
0100
0000
0001
0000
1001
0000
0001
1000
,
0001
0000
0001
1000
0002
0000
0003
0000
,
0010
0000
1000
0000
0010
0000
0000
0000
0100
0000
0000
0000
0010
0000
0100
0001
,
0100
0001
0100
0001
2000
0000
0010
0000
,
0010
0000
0000
0000
0001
0000
0000
0000
3001
0000
0000
0001
0000
0000
0001
0000
,
0000
1000
0000
0000
1000
0000
0000
0001
0000
0000
1000
0000
0000
1000
0000
0000
,
0001
0000
1000
0000
0001
0000
0000
0000
0000
0010
0000
0000
0010
0000
0000
1000
,
0000
0000
1000
0000
0000
0010
0000
0000
0010
0000
0000
0001
0000
0000
0001
0000
,
1000
0000
1000
0000
1000
0000
0000
0000
0100
0000
0000
0100
0000
0000
0010
0000
,
0000
0100
0000
0000
0010
0000
0000
0100
0000
0000
0010
0000
0000
0100
0000
0000
,
0100
0000
0010
0000
0100
0000
0000
0000
0110
0000
0000
0100
0000
0000
0010
0000
,
0000
0100
0000
0000
0001
0000
0000
0001
0000
0000
0010
0000
0000
0010
0000
0000
,
0100
0010
0100
0000
0001
1000
0001
1000
,
0001
1000
0001
0010
0000
1000
0010
1000
,
0100
0100
0100
0000
0001
0100
0001
0100
,
0001
0100
0001
0000
0010
1000
0010
1000
,
0010
0010
0010
0000
1000
0010
1000
0010
,
1000
0100
0010
0100
0001
0000
0100
0001
,
0100
0100
0100
0000
0001
1000
0001
0010
,
1000
0010
1000
0010
1000
0010
1000
0010
,
0100
0100
0100
0000
1000
0001
1000
0000
,
0100
0001
0100
0000
1000
0100
1000
0100
,
2000
0000
3100
0000
0001
0000
1000
0001
,
1000
0000
1000
0001
1000
0001
1000
0001
,
0200
0000
0310
0000
0010
0000
0100
0010
,
0100
0001
0010
0001
0010
0000
0100
0001
,
0020
0000
0031
0000
0100
0010
0100
0010
,
0100
0000
0010
0000
0100
0000
0000
0001
0000
0000
0001
0000
0000
0001
0000
0000
,
0001
1000
0001
0000
1001
0000
0001
0000
,
1000
0001
1000
0010
,
0010
0001
0010
0000
0010
0000
0100
0000
,
0001
0010
0100
0001
,
0010
0100
0010
0000
0001
0000
1000
0000
,
0010
0001
1000
0010
,
1000
0100
1000
0000
1000
0000
0001
0000
,
0100
1000
0001
0100
,
0010
0100
0010
0000
0010
0000
0100
0001
,
0100
0001
0100
0000
1001
0000
1000
0100
,
1000
0100
1000
0000
0001
0010
0001
0000
,
0010
0100
0010
0000
0101
0000
0100
0000
,
0010
0000
1000
0000
1100
0000
0010
0100
,
0010
0000
0010
0000
0110
0000
0100
0010
,
0010
0000
0010
0000
0110
0000
0100
0001
,
0100
0010
0100
0000
0101
0000
1000
0000
,
1000
0000
0001
0000
1001
0000
0001
1000
,
0001
1000
0001
0010
2000
0000
0100
0000
,
3100
0000
0001
0000
1001
0000
1000
0100
,
1000
0100
1000
0000
1010
0000
0100
0000
,
0100
0000
0001
0000
1001
0000
0001
1000
,
0001
0100
0001
0100
2000
0000
0001
0000
,
3001
0000
0010
0000
0110
0000
0100
0010
,
0100
0010
0100
0001
0100
0000
1000
0001
,
1000
0000
0001
1000
0001
0000
0001
0000
,
1001
0000
1000
0001
1000
0000
0001
0000
,
1001
0000
0000
0000
1000
0000
0000
0000
0001
0000
0000
0000
0001
0000
0100
0001
,
0100
0001
0100
0010
0001
0000
0000
0000
,
0000
0000
0010
0000
0110
0000
0000
0100
,
0010
0000
0010
0100
0100
0000
0000
0010
,
0100
0000
0010
0000
0011
0000
0001
1000
,
0001
1000
1001
0000
,
0000
0000
0001
0000
0001
0100
0001
0100
,
1000
0100
1000
0100
0010
0000
0020
0000
,
0130
0010
0101
1000
,
1000
0100
1000
0100
0010
0100
0010
0000
,
0010
0000
0100
0000
0110
0000
0100
0010
,
0100
0000
0100
0010
0110
0000
0000
0001
,
0010
0000
0011
0000
0001
0000
0001
0010
,
1000
0010
1000
0010
2000
0000
3000
0000
,
1000
0001
1001
0000
;

//---------------dance-single - ----------------
#NOTES:
     dance-single:
     :
     Medium:
     10:
     0.415161,0.514969,0.255885,0.210192,0.009139,318.000000,290.000000,28.000000,23.000000,0.000000,0.000000,0.415161,0.514969,0.255885,0.210192,0.009139,318.000000,290.000000,28.000000,23.000000,0.000000,0.000000:
0000
0000
0000
0000
,
0000
0000
0000
0000
,
0000
0000
0000
0000
,
0000
0000
0000
0000
,
0000
0000
0000
0000
,
0000
0000
0000
0000
,
0000
0000
0000
0000
,
0000
0000
0000
0000
,
0000
0000
0110
0010
,
0110
0000
0010
0100
0010
0000
0001
1000
,
0001
0010
0001
0011
,
0200
0000
1300
0000
,
1000
0000
0100
0000
0110
0000
0100
0010
,
0100
0000
0100
0010
0200
0000
0300
0000
,
0001
0001
1000
1001
,
1000
0000
1000
0100
0020
0000
0000
0000
,
0000
0000
0230
0000
,
0000
0000
0320
0000
0000
0000
0000
0030
,
0100
0000
0010
0000
0100
0000
0000
0000
0000
0002
0000
0000
0000
0000
0000
0000
,
0000
0000
0000
0000
0000
0203
0000
0000
0000
0000
0000
0000
0000
0000
0300
0000
,
0010
0010
0010
0000
2000
0000
0000
0000
,
0000
0000
0000
0000
3002
0000
0000
0000
0000
0000
0000
0000
0000
0003
0000
0000
,
1000
0001
1000
0000
2000
0000
0000
0000
,
0000
0000
0000
0000
3200
0000
0000
0000
0000
0000
0000
0000
0000
0300
0000
0000
,
1000
0001
1000
0000
0100
0010
0100
0000
,
0100
0010
0100
0000
0000
0010
0001
0010
,
1000
1000
1000
0000
0100
1000
0100
0000
,
0100
1000
0100
0000
0001
0010
0001
0000
,
0001
0001
0001
0000
0010
0001
0010
0000
,
0010
1000
0001
0000
0100
0000
1000
0100
,
1000
1000
1000
0000
0100
0010
0100
0000
,
0010
0001
0010
0000
0010
0001
0010
0001
,
1000
1000
1000
0000
0010
0100
0010
0000
,
1000
0100
1000
0000
0010
1000
0010
1000
,
0020
0000
1030
0000
0100
0000
0010
0100
,
0010
0000
0010
0100
0010
0000
0010
0100
,
2000
0000
3001
0000
0001
0000
1000
0001
,
1000
0000
0001
0100
0001
0000
1000
0100
,
0002
0103
0002
1000
,
1000
1003
0200
0000
,
0000
0000
0320
0000
,
0000
0000
0000
0000
,
0000
0000
0032
0000
,
0000
0000
0000
0000
,
0000
0000
0203
0000
,
0000
0000
0000
0000
,
0000
0000
0320
0000
,
0000
0000
0000
0000
,
0000
0000
0000
0000
0031
0000
1000
0100
,
1000
0100
0110
0010
,
1000
0000
0010
0000
0100
0001
0100
0000
,
0001
1000
0001
0000
1100
0000
1000
0000
,
0001
0000
0010
0000
1010
0000
0001
1000
,
0001
0000
0001
0000
1001
0000
1000
0001
,
0001
0001
1001
1000
,
0001
1000
1100
0010
,
0010
0100
0110
0100
,
0010
0000
0100
0001
0020
0000
0000
0000
,
1030
0000
0100
0000
0110
0000
0010
1000
,
0010
0000
0010
1000
0010
0000
1000
0000
,
1000
0100
0110
0100
,
0010
0100
0110
0100
,
0100
0000
0001
0000
1001
0000
1000
0001
,
1000
0000
1000
0100
1000
0000
0010
0100
,
0010
0000
0100
0010
0100
0000
0100
0000
,
0110
0000
0010
0100
0010
0000
0100
0000
,
0110
0010
0100
1100
,
0100
1000
1010
0000
,
0000
0000
0001
0000
1001
0000
0000
1000
,
0001
0000
0001
1000
1000
0000
0000
0001
,
1000
0000
0001
0000
0101
0000
0100
0010
,
0100
0010
0110
0000
,
0000
0000
0100
0000
0100
1000
0100
0000
,
0010
1000
0010
0000
0001
0000
0002
0000
,
1003
0001
1100
0010
,
0010
1000
0010
0000
0001
1000
0001
0000
,
0001
0000
1000
0000
1001
0000
1000
0001
,
1000
0000
1000
0001
1001
0000
0000
0100
,
0001
0000
0101
0000
0100
0000
0100
0001
,
0010
0001
0010
0001
0020
0000
0030
0000
,
0010
0100
0110
0000
;

//---------------dance-single - ----------------
#NOTES:
     dance-single:
     :
     Challenge:
     16:
     0.902126,0.993155,0.758517,0.155359,0.712824,691.000000,608.000000,83.000000,17.000000,0.000000,0.000000,0.902126,0.993155,0.758517,0.155359,0.712824,691.000000,608.000000,83.000000,17.000000,0.000000,0.000000:
0000
0000
0000
0000
,
0000
0000
0000
0000
,
0000
0000
0000
0000
,
0000
0000
0000
0000
,
0000
0000
0000
0000
,
0000
0000
0000
0000
,
0000
0000
0000
0000
,
0000
0000
0000
0000
,
0000
0000
1100
0000
1001
0000
0000
0100
,
1100
0000
1000
0001
0101
0000
0000
0010
,
0110
0000
0000
0000
0101
0000
0000
0000
1001
0000
0000
0000
0000
0000
1000
0001
,
1000
0000
0100
0000
0001
0000
0100
0000
1000
0000
0000
0000
0010
1000
0010
0000
,
0100
0010
0100
0000
0101
0000
0000
0000
1001
0000
0000
0000
0000
0000
0100
0000
,
1100
0000
0010
0001
1001
0000
0000
0100
,
0101
0000
0000
0000
1100
0000
0000
0000
1001
0000
0000
0000
0000
0000
0001
1000
,
0001
0010
1000
0010
0001
0100
0000
0100
,
0000
0000
0100
0000
0000
0000
0100
0000
0001
0000
1000
0100
0000
1000
0100
0000
,
0010
0001
0000
0010
0001
0000
0100
0010
0000
0000
1000
0010
0000
1000
0010
0000
,
1001
0000
1001
0000
1001
0000
0000
0000
1000
0000
0001
0100
0000
0001
0100
0000
,
0010
1000
0000
0010
1000
0000
0100
0010
0000
0000
0001
0010
0000
0001
0010
0000
,
1001
0000
1001
0000
1001
0000
0000
0000
0001
0000
1000
0100
0000
1000
0100
0000
,
1000
0001
0000
1000
0001
0000
0010
0100
0000
0000
1000
0010
0000
1000
0010
0000
,
1001
0000
1001
0000
1001
0000
0000
0000
0001
0000
0100
0010
0000
0100
0010
0000
,
1000
0100
0000
1000
0100
0000
0010
0100
0000
0000
1000
0010
0000
1000
0010
0000
,
1001
0000
1001
0000
1001
0000
0000
0000
0001
0000
0100
0000
0001
0100
0010
0000
,
1000
0100
1000
0100
0010
0000
0001
0000
1000
0000
0010
0000
1000
0010
0100
0000
,
1001
0000
0110
0000
1001
0000
0000
0000
0001
0000
0010
0000
0001
0010
0100
0000
,
1000
0010
1000
0010
0100
0000
0001
0000
1000
0000
0100
0000
1000
0100
0010
0000
,
1001
0000
0110
0000
1001
0000
0000
0000
0001
0000
1000
0100
0010
0000
0100
0000
,
1000
0010
1000
0010
0100
0000
0001
0000
1000
0000
0100
0010
0001
0000
0100
0000
,
0110
0000
1001
0000
0110
0000
0000
0000
1000
0000
0010
0100
0001
0000
1000
0000
,
0001
0010
0001
0010
0100
0000
1000
0000
0001
0000
0100
0010
1000
0000
0010
0000
,
0110
0000
1001
0000
0110
0000
0000
0000
0001
0000
0010
0100
1000
0000
0010
0000
,
0100
0001
0010
0001
0100
0000
0010
0000
1000
0000
0100
0010
0001
0000
0100
0000
,
0101
0000
0110
0000
1010
0000
0000
0000
1000
0000
0100
0010
0001
0000
1000
0000
,
0010
0100
0001
0100
0010
0000
1000
0000
0001
0000
0100
0010
1000
0000
0100
0000
,
1100
0000
0110
0000
0011
0000
0000
0000
0001
0000
1000
0010
1000
0000
0010
0100
,
0001
0010
0100
1000
0001
0000
0100
0000
0000
0000
0100
0000
0001
0010
0100
0000
,
1010
0000
1001
0000
0011
0000
0000
0000
0001
0000
1000
0100
1000
0000
0001
0100
,
0010
0100
0001
1000
0100
0010
0001
0000
0000
0000
0001
0000
0010
0100
1000
0000
,
1100
0000
1001
0000
0011
0000
0000
0000
0000
0000
0100
0010
0000
0100
0010
0000
,
0100
0010
0000
0100
0010
0000
1000
0000
0000
0000
0100
0010
0000
0100
0010
0000
,
0001
0000
1000
0000
1001
0000
0000
0000
0000
0000
0100
0010
0000
0100
0010
0000
,
0100
0010
0000
0100
0010
0000
0001
0000
0000
0000
0100
0010
0000
0100
0010
0000
,
1000
0000
0001
0000
1001
0000
0000
0000
0000
0000
0100
1000
0000
0001
1000
0000
,
0100
1000
0000
0001
1000
0000
0100
0000
0000
0000
0010
0001
0000
0010
0001
0000
,
0100
0000
0010
0000
0110
0000
0000
0000
0000
0000
0100
0001
0000
1000
0001
0000
,
0100
0001
0000
1000
0001
0000
0100
0000
0000
0000
0010
1000
0000
0010
1000
0000
,
0001
0000
1000
0000
1001
0000
0000
0000
0102
0000
0000
0000
0000
0000
1003
0100
,
0010
0000
0001
0000
1000
0010
1000
0000
0001
0000
0010
0000
0001
0000
1000
0000
,
0001
0010
0100
1000
0100
0010
0001
0000
2000
0000
0010
0000
3010
0000
0100
0000
,
1002
0000
0010
0000
0013
0000
0100
0000
1002
0000
0000
0000
1003
0100
0010
0001
,
0010
0100
1000
0001
1000
0000
0000
0000
1002
0000
0000
0000
0000
0000
1003
0100
,
0010
0001
1000
1010
0110
0000
0001
1001
,
1100
0000
0000
0000
0011
0000
0000
0000
2001
0000
0000
0000
0000
0000
3001
0100
,
0010
0000
0100
0000
0001
0000
1000
0000
1200
0000
0000
0000
1300
0010
0100
0001
,
0100
0010
1000
0001
1000
0000
0000
0000
1002
0000
0000
0000
0000
0000
0103
0010
,
1000
0000
0010
0000
0100
0010
0100
0000
0001
0000
1000
0000
0100
0000
1000
0000
,
0001
0010
0100
1000
0100
0010
0001
0000
2001
0000
0000
0000
3100
0000
1100
0000
,
1002
0000
0000
0000
0103
0000
0101
0000
1001
0000
0000
0000
1000
0100
0010
0001
,
0010
0100
1000
0001
1000
0000
0000
0000
2001
0000
0000
0000
0000
0000
3100
0010
,
0001
0000
0100
0000
0010
0100
0010
0000
1001
0000
0000
0000
0100
0000
1100
0000
,
1001
0000
0000
0000
0100
0000
0101
0000
2001
0000
0000
0000
0000
0000
3010
0100
,
0001
0000
0010
0000
0100
0010
0100
0000
1001
0000
0000
0000
1000
0010
0100
0001
,
0100
0010
1000
0001
1000
0000
0000
0000
1100
0000
0001
0000
0000
0000
0001
0000
,
1000
0001
0100
0010
1000
0001
0000
0001
,
1000
0000
0001
0000
0010
0000
0100
0000
1000
0000
0001
0000
0000
0000
0001
1000
,
0001
0010
0100
0010
0002
0000
0000
0000
,
0000
0000
0103
0000
1001
0000
0000
1000
,
0001
1000
0010
0100
0001
1000
0000
1000
,
0001
0000
1000
0000
0100
0000
0010
0000
0001
0000
1000
0000
0000
0000
1000
0001
,
1000
0100
0010
0100
2000
0000
0000
0000
,
0000
0000
0000
0000
3010
0000
0000
0000
1001
0000
0010
0000
0100
0000
1000
0010
,
1000
0001
1000
0100
0010
0001
1000
0000
0010
0000
0100
0000
0010
0000
1000
0100
,
1000
0010
0100
0001
0100
0010
1000
0000
0001
0000
0100
0000
0001
0000
1000
0100
,
0020
0000
0001
0000
0032
0000
0100
0000
0103
0000
0001
0000
1000
0100
0010
0001
,
0010
0100
1000
0001
1000
0000
0000
0000
1010
0000
0100
0000
0010
0000
0001
0100
,
0001
0010
0100
1000
0100
0010
0001
0000
0100
0000
0010
0000
0100
0000
0001
0010
,
0001
0100
0010
1000
0010
0100
0001
0000
2000
0000
0000
0000
3001
0000
1000
0100
,
0010
0000
0001
1000
0010
1000
0001
0010
0100
1000
0100
0010
0001
1000
0010
1000
,
0001
0010
0100
1000
0010
0000
0000
0000
1001
0000
0000
0000
0000
0000
0000
0000
;

//---------------dance-single - ----------------
#NOTES:
     dance-single:
     :
     Beginner:
     3:
     0.142304,0.220701,0.100526,0.000000,0.000000,109.000000,98.000000,11.000000,0.000000,0.000000,0.000000,0.142304,0.220701,0.100526,0.000000,0.000000,109.000000,98.000000,11.000000,0.000000,0.000000,0.000000:
// measure 0
0000
0000
0000
0000
,  // measure 1
0000
0000
0000
0000
,  // measure 2
0000
0000
0000
0000
,  // measure 3
0000
0000
0000
0000
,  // measure 4
0000
0000
0000
0000
,  // measure 5
0000
0000
0000
0000
,  // measure 6
0000
0000
0000
0000
,  // measure 7
0000
0000
0000
0000
,  // measure 8
0000
0000
1001
0000
,  // measure 9
0001
0000
1000
0000
,  // measure 10
0001
0000
0010
0000
,  // measure 11
0010
0000
0001
0000
,  // measure 12
0000
0000
1000
0000
,  // measure 13
0001
0000
1000
0000
,  // measure 14
1000
0000
0100
0000
,  // measure 15
0010
0000
0001
0000
,  // measure 16
0000
0000
1001
0000
,  // measure 17
0000
0000
0000
0000
,  // measure 18
0000
0000
0110
0000
,  // measure 19
0000
0000
0000
0000
,  // measure 20
0000
0000
1001
0000
,  // measure 21
0000
0000
0000
0000
,  // measure 22
0000
0000
0110
0000
,  // measure 23
0000
0000
0000
0000
,  // measure 24
0000
0000
1001
0000
,  // measure 25
0001
0000
0001
0000
,  // measure 26
0001
0000
1000
0000
,  // measure 27
1000
0000
1000
0000
,  // measure 28
1000
0000
0100
0000
,  // measure 29
0100
0000
0100
0000
,  // measure 30
0100
0000
0010
0000
,  // measure 31
0010
0000
0010
0000
,  // measure 32
0010
0000
0001
0000
,  // measure 33
0100
0000
0001
0000
,  // measure 34
1000
0000
0100
0000
,  // measure 35
1000
0000
0010
0000
,  // measure 36
0100
0000
0001
0000
,  // measure 37
1000
0000
0001
0000
,  // measure 38
0010
0000
0100
0000
,  // measure 39
1000
0000
0010
0000
,  // measure 40
0000
0000
1000
0000
,  // measure 41
0000
0000
0000
0000
,  // measure 42
0000
0000
1000
0000
,  // measure 43
0000
0000
0000
0000
,  // measure 44
0000
0000
1000
0000
,  // measure 45
0000
0000
0000
0000
,  // measure 46
0000
0000
1000
0000
,  // measure 47
0000
0000
0000
0000
,  // measure 48
0000
0000
1001
0000
,  // measure 49
0001
0000
0100
0000
,  // measure 50
0010
0000
0010
0000
,  // measure 51
0100
0000
0001
0000
,  // measure 52
0000
0000
1001
0000
,  // measure 53
1000
0000
0100
0000
,  // measure 54
0010
0000
0010
0000
,  // measure 55
0100
0000
1000
0000
,  // measure 56
0000
0000
1001
0000
,  // measure 57
0001
0000
0100
0000
,  // measure 58
0010
0000
0010
0000
,  // measure 59
0100
0000
0001
0000
,  // measure 60
0000
0000
1001
0000
,  // measure 61
1000
0000
0100
0000
,  // measure 62
0010
0000
0100
0000
,  // measure 63
0100
0000
1000
0000
,  // measure 64
0000
0000
0001
0000
,  // measure 65
0000
0000
0000
0000
,  // measure 66
0000
0000
0000
0000
,  // measure 67
0000
0000
0000
0000
,  // measure 68
0000
0000
0001
0000
,  // measure 69
0000
0000
0000
0000
,  // measure 70
0000
0000
0000
0000
,  // measure 71
0000
0000
0000
0000
,  // measure 72
0000
0000
0001
0000
,  // measure 73
0100
0000
0010
0000
,  // measure 74
0010
0000
1000
0000
,  // measure 75
0100
0000
0010
0000
,  // measure 76
0000
0000
0001
0000
,  // measure 77
1000
0000
0010
0000
,  // measure 78
0010
0000
0100
0000
,  // measure 79
0001
0000
0010
0000
,  // measure 80
0000
0000
1001
0000
;
