#TITLE:Noble Roar;
#SUBTITLE:;
#ARTIST:妖精帝國;
#TITLETRANSLIT:;
#SUBTITLETRANSLIT:;
#ARTISTTRANSLIT:YOUSEI TEIKOKU;
#GENRE:;
#CREDIT:DigiMindAxel;
#BANNER:Noble Roar.png;
#BACKGROUND:Noble Roar-bg.png;
#LYRICSPATH:Noble Roar.lrc;
#CDTITLE:DigiMindAxel original simfile.png;
#MUSIC:Noble Roar.ogg;
#OFFSET:0.920000;
#SAMPLESTART:56.202007;
#SAMPLELENGTH:12.000000;
#SELECTABLE:YES;
#BPMS:0.000000=150.000000
,108.000000=75.000000
,120.000000=150.000000
;
#STOPS:
;
#BGCHANGES:0.000=Noble Roar.avi=1.000=1=0=0=StretchNoLoop==CrossFade==,
99999=-nosongbg-=1.000=0=0=0 // don't automatically add -songbackground-
;
#KEYSOUNDS:;
#ATTACKS:;

//---------------dance-single - ----------------
#NOTES:
     dance-single:
     :
     Easy:
     4:
     0.213075,0.374576,0.101695,0.203390,0.000000,132.000000,123.000000,9.000000,18.000000,0.000000,0.000000,0.213075,0.374576,0.101695,0.203390,0.000000,132.000000,123.000000,9.000000,18.000000,0.000000,0.000000:
0000
0000
0000
0000
,
0000
0000
0000
0000
,
0000
0000
0000
0000
,
0000
0000
0000
0000
,
0000
0000
0000
0000
,
0000
0000
0000
0000
,
0000
0000
0000
0000
,
0000
0000
0000
0000
,
0000
0000
0000
0000
,
0000
0000
0000
0000
,
2002
0000
0000
3003
,
0001
1000
0001
1000
,
0100
0010
0001
0000
,
0100
0010
0100
0010
,
1000
0100
0010
0000
,
0001
0010
0100
0010
,
0001
1000
0010
0000
,
1000
0100
0010
0100
,
1000
0001
0100
0000
,
2002
0000
0000
3003
,
0020
0000
0000
0000
,
0230
0000
0000
0000
,
0320
0000
0000
0000
,
0130
0010
1000
0001
,
1000
0100
2000
0000
,
3100
0010
0100
1000
,
0001
0010
0200
0000
,
1300
0001
1001
0010
,
0110
1000
1001
0000
,
1001
0100
0110
0010
,
2001
0000
3002
0000
,
0203
0000
0000
0000
,
0310
0000
0000
0000
,
1000
0100
1000
0000
,
0001
0010
0001
0100
,
0020
0000
2030
0000
,
3001
0010
0100
1000
,
0001
0100
0001
0000
,
1000
0010
1000
0100
,
0020
0000
0032
0000
,
1003
0010
0100
0000
,
0001
0010
0001
0000
,
1000
0001
1000
0010
,
0200
0000
0302
0000
,
1003
0100
0010
0001
,
1000
0100
0010
0000
,
0001
0100
0010
0000
,
1000
0100
0010
0100
,
1000
0010
0100
0001
,
1000
0100
0010
0100
,
1000
0010
0100
0001
,
1001
0000
0000
0000
;

//---------------dance-single - ----------------
#NOTES:
     dance-single:
     :
     Hard:
     11:
     0.463277,0.605085,0.180791,0.192090,0.152542,287.000000,271.000000,16.000000,17.000000,0.000000,0.000000,0.463277,0.605085,0.180791,0.192090,0.152542,287.000000,271.000000,16.000000,17.000000,0.000000,0.000000:
0000
0000
0000
0000
,
0000
0000
0000
0000
,
0000
0000
0000
0000
,
0000
0000
0000
0000
,
0000
0000
0000
0000
,
0000
0000
0000
0000
,
0000
0000
0000
0000
,
0000
0000
0000
0000
,
0000
0000
0000
0000
,
0000
0000
0000
0000
,
0001
0000
0001
0000
1000
0000
0100
0010
0000
0100
0010
0000
0001
0000
1000
0000
,
0200
0010
0010
1300
,
0020
0000
0100
0100
0000
0000
0031
0000
,
1002
0100
2003
0100
,
3002
0000
0100
0100
0000
0000
1003
0000
,
0200
1000
2300
0001
,
3002
0000
0100
0100
0000
0000
1003
0000
,
0001
0010
0100
0000
1000
0001
0100
0001
,
1000
0100
0010
0000
0001
1000
0010
1000
,
0001
0000
0010
0000
0100
1000
0000
1000
0010
0000
1000
0000
0001
0000
0000
0000
,
1000
0000
0100
0000
0010
0001
0000
0001
0100
0000
0001
0000
1000
0000
0000
0000
,
0001
0000
0010
0000
0100
1000
0000
1000
0010
0000
0100
0000
0010
0000
0000
0000
,
1000
0000
0100
0000
0010
0001
0000
0001
0100
0000
0010
0000
1000
0000
0000
0000
,
0001
0100
1000
0100
0001
0100
0010
0000
,
1000
0010
0001
0010
1000
0100
0010
0000
,
0001
0010
1000
0010
0001
1000
0100
0000
,
1000
0100
0001
0100
1000
0001
0100
0000
,
2002
0000
0000
0000
3003
0000
0200
0000
2000
0000
0000
0000
3300
0000
0100
0010
,
1001
0000
0000
0000
0200
0000
0000
0000
0301
1000
0100
0010
0001
0010
0100
0000
,
2010
0000
0000
0000
3002
0000
0000
0000
1003
0010
0100
0001
1000
0000
0010
0000
,
0110
0010
0110
0010
,
2002
0000
0000
3003
,
0001
0000
0000
0010
0000
0000
0100
0000
0000
1000
0000
0000
0000
0000
0000
0000
,
0001
1000
0001
1000
0010
0100
0010
1000
,
0100
0001
0100
1000
0010
1000
0001
0000
,
1000
0010
1010
0000
0001
0100
0101
0000
,
1000
0100
1100
0000
0001
0010
0011
0000
,
1000
0100
1000
0001
1000
0100
1000
0001
,
0010
1000
0010
0001
0100
0010
1000
0000
,
0100
0010
0110
0000
0001
1000
1001
0000
,
0100
1000
1100
0000
0010
0001
0011
0000
,
0100
1000
0010
0001
0010
1000
0001
0010
,
0100
1000
0010
1000
0001
0000
1000
0010
,
0100
0001
0100
1000
0100
0001
0010
0100
,
1000
0010
0100
0010
1000
0000
0100
0010
,
0001
0100
1000
0100
0001
0010
1000
0010
,
0001
0100
0010
0100
0001
1000
0100
0000
,
1000
0000
1000
0000
0001
0000
0010
0000
0100
0010
0000
0100
0000
0000
1000
0000
,
0001
0000
0001
0000
1000
0000
0010
0000
0100
0010
0000
0100
0000
0000
0001
0000
,
1000
0000
1000
0000
0001
0000
0010
0000
0100
0010
0000
0100
0000
0000
1000
0000
,
0001
0000
0001
0000
1000
0000
0010
0000
0100
0010
0000
0100
0000
0001
0100
0000
,
1001
0000
0000
0000
;

//---------------dance-single - ----------------
#NOTES:
     dance-single:
     :
     Medium:
     9:
     0.353511,0.518644,0.237288,0.158192,0.050847,219.000000,198.000000,21.000000,14.000000,0.000000,0.000000,0.353511,0.518644,0.237288,0.158192,0.050847,219.000000,198.000000,21.000000,14.000000,0.000000,0.000000:
// measure 0
0000
0000
0000
0000
,  // measure 1
0000
0000
0000
0000
,  // measure 2
0000
0000
0000
0000
,  // measure 3
0000
0000
0000
0000
,  // measure 4
0000
0000
0000
0000
,  // measure 5
0000
0000
0000
0000
,  // measure 6
0000
0000
0000
0000
,  // measure 7
0000
0000
0000
0000
,  // measure 8
0000
0000
0000
0000
,  // measure 9
0000
0000
0000
0000
,  // measure 10
2002
0000
0000
3003
,  // measure 11
1000
0100
0010
0100
,  // measure 12
1000
0010
0100
0001
,  // measure 13
1001
0100
1100
0100
,  // measure 14
0101
0000
0001
2000
0000
0000
3100
0000
,  // measure 15
1001
1000
1010
0100
,  // measure 16
0101
0000
0001
2000
0000
0000
3100
0000
,  // measure 17
0010
0001
0100
0010
,  // measure 18
0110
1000
0100
0010
,  // measure 19
0001
0010
0100
1000
0010
1000
0001
0000
,  // measure 20
1000
0100
0010
0001
0100
0001
1000
0000
,  // measure 21
0001
0010
0100
1000
0010
0100
0001
0000
,  // measure 22
1000
0100
0010
0001
0100
0010
1000
0000
,  // measure 23
0001
0010
0100
0000
0010
0100
1000
0000
,  // measure 24
0100
1000
0010
0100
0002
0000
1003
0000
,  // measure 25
0001
0010
0100
1000
0010
1000
0001
0000
,  // measure 26
0100
0010
1000
0100
0010
0010
0010
0000
,  // measure 27
1001
0000
0000
0000
1000
1000
0000
0010
0100
0000
0000
0000
0001
0001
0000
0000
,  // measure 28
1001
0000
0000
0000
1000
1000
0000
0100
0010
0000
0000
0000
0001
0001
0000
0000
,  // measure 29
1001
0000
0000
0000
1000
1000
0000
0000
0010
0100
0000
0000
0001
0001
0000
0000
,  // measure 30
2000
3002
0203
0302
,  // measure 31
2003
0000
0000
0000
,  // measure 32
3001
0000
0000
0000
,  // measure 33
1001
0000
0100
0000
0010
0000
1000
0001
,  // measure 34
1000
0001
0100
0010
,  // measure 35
1000
0001
1000
0000
0001
0010
0001
0000
,  // measure 36
1000
0100
1000
0000
0010
0000
0100
0000
,  // measure 37
0001
0100
0001
0000
1000
0010
1000
0000
,  // measure 38
0001
0010
0100
1000
0001
0000
0010
0000
,  // measure 39
0100
0010
0100
0000
1000
0100
1000
0000
,  // measure 40
0100
1000
0010
0100
0001
0000
0010
0000
,  // measure 41
1001
0100
0010
0001
,  // measure 42
1000
0010
1000
0001
0010
0000
0100
0000
,  // measure 43
2000
0000
3020
0000
,  // measure 44
0130
0000
0001
1000
0100
0000
0010
0000
,  // measure 45
0002
0000
2003
0000
,  // measure 46
3100
0000
0010
0001
0100
0000
0001
1000
,  // measure 47
0001
0011
0011
0000
,  // measure 48
0100
0110
0110
0000
,  // measure 49
1000
1010
1010
0000
,  // measure 50
0100
0000
0110
0000
0110
0000
0001
1000
,  // measure 51
0010
0000
0000
0000
;

//---------------dance-single - ----------------
#NOTES:
     dance-single:
     :
     Challenge:
     13:
     0.634383,1.028249,0.282486,0.259887,0.508475,393.000000,368.000000,25.000000,23.000000,0.000000,0.000000,0.634383,1.028249,0.282486,0.259887,0.508475,393.000000,368.000000,25.000000,23.000000,0.000000,0.000000:
0000
0000
0000
0000
,
0000
0000
0000
0000
,
0000
0000
0000
0000
,
0000
0000
0000
0000
,
0000
0000
0000
0000
,
0000
0000
0000
0000
,
0000
0000
0000
0000
,
0000
0000
0000
0000
,
0000
0000
0000
0000
,
0000
0000
0000
0000
,
1000
0001
1000
0000
0001
0010
0100
1000
0000
1000
0010
0100
0010
1000
0001
0010
,
0200
1000
1000
0000
1300
0001
0020
0100
,
0130
1000
0010
0102
0000
0013
0100
1000
,
0002
0010
0010
0000
0203
0010
0010
0000
,
0301
0000
1000
0000
0100
0000
0011
0000
1000
0001
1000
0000
0001
0100
0001
0000
,
2000
0010
0010
0000
3002
0010
0010
0000
,
0103
0010
1000
1200
0000
1300
0010
0100
,
0002
0000
0010
0000
0010
0000
0000
0000
1003
0100
1000
0000
0001
1000
0001
0000
,
0020
0000
0100
0000
0100
0000
0000
0000
0031
0100
0001
0000
1000
0001
1000
0000
,
0010
0100
0001
0000
1000
0100
0010
0001
0000
0001
0100
0000
0100
0000
0000
0000
,
0010
1000
0100
0000
1000
0010
0100
0001
0000
0001
0010
0000
0010
0000
0000
0000
,
0100
0010
0001
0000
1000
0010
0100
0001
0000
0001
0010
0000
0010
0000
0000
0000
,
0100
0010
0001
0000
1000
0010
0100
0001
0000
0001
1000
0000
1000
0000
0000
0000
,
0100
1000
0100
0000
0010
0001
0010
0000
0100
1000
0100
0000
0010
0001
0010
0000
,
0001
1000
0001
0000
1000
0100
0010
0002
0000
0000
0100
0000
0100
0000
0000
0000
,
1003
0010
1000
0000
0001
0100
0001
0000
1000
0010
1000
0000
0001
0100
0001
0000
,
1000
0001
1000
0000
0001
0100
0010
2000
0000
0000
0001
0000
0001
0000
0000
3000
,
1001
0000
0100
0001
1000
1000
0100
0010
0010
0000
0001
1000
0010
0010
1000
0100
,
0011
0000
0100
0010
1000
1000
0100
0010
1001
0000
1100
0000
0011
0001
1100
1000
,
0110
0000
0001
0100
0100
0001
1000
0100
0100
0000
0010
0001
1000
1000
0100
0010
,
0011
0000
1100
0010
1001
0000
0011
0100
,
1001
1010
0101
1100
,
0011
0000
0000
1010
0000
0000
0101
0000
0000
1100
0000
0000
0000
0000
0000
0000
,
1001
0010
0100
1000
0100
0001
2000
0000
,
3001
0000
0010
0000
1000
0000
1001
0000
0000
0000
0001
0000
0100
0010
0100
0000
,
0001
1000
0200
0000
1000
0000
1300
0000
0010
0100
0002
0000
0010
0000
0013
0000
,
0100
0000
1000
0000
0010
0000
1000
0100
0010
0001
0010
0100
2000
0000
0000
0000
,
3001
0010
1000
0010
0002
0000
1003
0100
,
0010
0001
0200
0000
0010
0000
0310
0000
0000
0000
0000
0000
0100
0000
0010
0000
,
1000
0010
0001
0010
1000
0100
0001
0100
,
1000
0010
0100
0000
0010
0100
0010
0000
0000
0000
0000
0000
2000
0000
0000
0000
,
3001
0010
1000
0010
0001
1000
0020
0000
,
1030
0100
0010
0101
0000
0000
0010
0100
,
0001
1000
0200
0000
1000
0000
1300
0000
0010
0001
0200
0000
0010
0000
0310
0000
,
1000
0000
0100
0000
0010
0001
0100
0000
0100
0000
0010
0000
0010
0000
0000
0000
,
1000
0010
0001
0010
1000
0100
0001
0100
,
1000
0000
0001
0000
0100
0000
0010
0000
1000
0001
1000
0000
0100
1000
0100
0000
,
1000
0010
0100
0000
0001
0000
0001
0000
1000
0100
0010
0001
0000
0100
0001
0000
,
1000
0000
1000
0000
0010
0000
0010
0000
1000
0100
0010
0001
0000
0100
0001
0000
,
1000
0000
1000
0000
0100
0000
0100
0000
1000
0010
0100
0001
0000
0010
0100
0000
,
1000
0000
1000
0000
0010
0000
0010
0000
0100
0001
0010
0100
0000
1000
0010
0100
,
0002
0000
0000
0000
,
0003
0000
0000
0000
;

//---------------dance-single - ----------------
#NOTES:
     dance-single:
     :
     Beginner:
     2:
     0.080710,0.144068,0.056497,0.000000,0.000000,50.000000,45.000000,5.000000,0.000000,0.000000,0.000000,0.080710,0.144068,0.056497,0.000000,0.000000,50.000000,45.000000,5.000000,0.000000,0.000000,0.000000:
0000
0000
0000
0000
,
0000
0000
0000
0000
,
0000
0000
0000
0000
,
0000
0000
0000
0000
,
0000
0000
0000
0000
,
0000
0000
0000
0000
,
0000
0000
0000
0000
,
0000
0000
0000
0000
,
0000
0000
0000
0000
,
0000
0000
0000
0000
,
1001
0000
0000
0000
,
1000
0000
0000
0000
,
0100
0000
0000
0000
,
1000
0000
0000
0000
,
0001
0000
0000
0000
,
0100
0000
0000
0000
,
0010
0000
0000
0000
,
0100
0000
0000
0000
,
0000
0000
0000
0000
,
1001
0000
0000
0000
,
1000
0000
0000
0000
,
1000
0000
0000
0000
,
1000
0000
0000
0000
,
0001
0000
0001
0000
,
0001
0000
0000
0000
,
1000
0000
1000
0000
,
1000
0000
0000
0000
,
1001
0000
0000
0000
,
0000
0000
0000
0000
,
0010
0000
0000
0000
,
0100
0000
0100
0000
,
0100
0000
0000
0000
,
0000
0000
0000
0000
,
1001
0000
0000
0000
,
0000
0000
0000
0000
,
0001
0000
0100
0000
,
0001
0000
0000
0000
,
1000
0000
0000
0000
,
0000
0000
0000
0000
,
0100
0000
1000
0000
,
0100
0000
0000
0000
,
0010
0000
0000
0000
,
0001
0000
0000
0000
,
0100
0000
0010
0000
,
0100
0000
0000
0000
,
0010
0000
0000
0000
,
1000
0000
0000
0000
,
0001
0000
0001
0000
,
0001
0000
0000
0000
,
0010
0000
0010
0000
,
0010
0000
0000
0000
,
1001
0000
0000
0000
;
