#TITLE:\#Namescapes;
#SUBTITLE:;
#ARTIST:\#Namescapes;
#TITLETRANSLIT:Namescapes;
#SUBTITLETRANSLIT:;
#ARTISTTRANSLIT:Namescapes;
#GENRE:;
#CREDIT:DigiMindAxel;
#BANNER:Namescapes.png;
#BACKGROUND:Namescapes-bg.png;
#LYRICSPATH:;
#CDTITLE:SOUND VOLTEX.png;
#MUSIC:Namescapes.ogg;
#OFFSET:-1.695000;
#SAMPLESTART:93.558601;
#SAMPLELENGTH:12.000000;
#SELECTABLE:YES;
#BPMS:0.000000=146.000000
;
#STOPS:220.000000=0.20547945,
220.500000=0.20547945,
221.000000=0.20547945
;
#BGCHANGES:;
#KEYSOUNDS:;
#ATTACKS:;

//---------------dance-single - ----------------
#NOTES:
     dance-single:
     :
     Easy:
     5:
     0.242926,0.294196,0.049289,0.147868,0.000000,207.000000,201.000000,6.000000,18.000000,0.000000,0.000000,0.242926,0.294196,0.049289,0.147868,0.000000,207.000000,201.000000,6.000000,18.000000,0.000000,0.000000:
0000
0000
0000
0000
,
0000
0000
0000
0000
,
0000
0000
0000
0000
,
0000
0000
0000
0000
,
1000
1000
1000
0000
,
0001
0001
0001
0000
,
1000
1000
1000
0000
,
0020
0000
0000
0030
,
0100
0010
0100
0000
,
0001
1000
0001
0000
,
1000
0100
1000
0000
,
0001
0001
0001
1000
,
0100
0100
0100
0000
,
0010
0010
0010
0000
,
0001
0001
0001
0000
,
1000
1000
1000
0000
,
0100
0010
0100
0010
,
0001
1000
0001
1000
,
0100
1000
0100
1000
,
0010
0100
0010
0100
,
0001
0010
0100
1000
,
0001
1000
0001
1000
,
0001
0010
0100
1000
,
2002
0000
3003
0000
,
1001
0100
1000
0100
,
1000
0001
1000
0001
,
0100
0010
0100
0010
,
1000
0010
1000
0010
,
0100
0001
0100
0001
,
1000
0100
1000
0100
,
0010
0001
0010
0100
,
2000
0000
0000
3000
,
1001
0000
0001
0000
,
0100
0000
0010
0000
,
1000
0000
0100
0000
,
1000
0000
0001
0000
,
0010
0000
0010
0000
,
0100
0000
0100
0000
,
1000
0000
1000
0000
,
0001
0000
0001
0000
,
1000
1000
1000
0000
,
0100
0000
0010
0000
,
0001
0001
0001
0000
,
0100
0000
0010
0000
,
1000
1000
1000
0000
,
0100
0000
0010
0000
,
0001
0001
0001
0000
,
0010
0000
0100
0000
,
2000
0000
3200
0000
,
0320
0000
0032
0000
,
2003
0000
3020
0000
,
0230
0000
0302
0000
,
2003
0000
3002
0000
,
0023
0000
0230
0000
,
2300
0000
3002
0000
,
1003
0000
0000
0000
0000
0001
0000
0100
,
0000
0001
0000
0100
0000
0001
0000
1000
,
0000
0001
0000
1000
0000
0100
0000
0010
,
0000
0100
0000
0010
0000
0001
0000
1000
,
0000
0001
0000
1000
0000
0100
0000
1000
,
0000
0100
0000
1000
0000
0010
0000
0100
,
0000
0010
0000
0100
0000
0001
0000
1000
,
0000
0001
0000
1000
0000
0100
0000
0010
,
0000
0001
0000
0000
0000
1001
0000
0000
,
0000
0000
0000
0000
0000
1001
0000
0000
,
0000
0000
0000
0000
0000
1000
0000
0100
,
0000
1000
0000
0100
0000
1000
0000
0001
,
0000
1000
0000
0001
0000
0100
0000
0010
,
0000
0100
0000
0010
0000
1000
0000
0100
,
0000
0010
0000
0000
0000
0001
0000
0010
,
0000
0100
0000
1000
0000
0001
0000
0100
,
0000
0001
0000
0100
0000
1001
0000
0000
;

//---------------dance-single - ----------------
#NOTES:
     dance-single:
     :
     Medium:
     12:
     0.485853,0.529553,0.172513,0.180728,0.090364,414.000000,393.000000,21.000000,22.000000,0.000000,0.000000,0.485853,0.529553,0.172513,0.180728,0.090364,414.000000,393.000000,21.000000,22.000000,0.000000,0.000000:
0000
0000
0000
0000
,
0000
0000
0000
0000
,
0000
0000
0000
0000
,
0000
0000
0000
0000
,
1000
1001
1000
1001
,
0001
0000
1001
0000
0100
0010
0100
0010
,
1000
1001
1000
1001
,
0002
0000
0000
0003
,
1000
0000
1000
0001
1000
0000
1000
0000
,
0010
0100
0010
0000
0010
0000
0010
0010
,
1000
0001
1000
0000
1000
0001
1000
0100
,
0001
0100
0001
0100
1000
0010
1000
0000
,
0001
0100
1000
0100
,
1001
1001
1001
1001
,
0001
0010
1000
0010
,
0001
1001
0002
1003
,
0010
1000
0010
0000
1000
0001
1000
0000
,
0010
1000
0010
0000
1000
0001
1000
0100
,
0010
0001
0010
0000
0100
0010
0100
0000
,
1000
0010
1000
0000
0010
0010
0110
0000
,
0001
1000
0001
1000
0100
1000
0100
1000
,
0001
1000
0001
1000
0010
1000
0010
0000
,
1000
0100
0010
0001
0010
0100
1000
0001
,
1000
0000
1000
0000
0000
0000
0000
0000
0000
0001
0000
1001
0000
0000
0000
0000
,
0001
0010
0100
0000
0010
0001
0010
0000
,
0001
0010
0100
0000
0010
0001
0010
0000
,
0001
1000
0010
0000
1000
0010
1000
0000
,
0001
1000
0010
0000
1000
0010
1000
0000
,
0001
0010
0100
1000
0010
0100
0010
0000
,
1000
0100
0010
0001
0100
0010
0100
0000
,
0001
0010
0100
1000
0010
0100
0010
1000
,
0220
0000
0000
0330
,
0002
0203
0310
0000
,
2000
3200
0310
0000
,
0002
0203
1300
0000
,
2000
3200
0301
0000
,
0002
0000
0023
0000
0130
0000
1000
0001
,
2000
0000
3020
0000
0130
0000
0001
1000
,
0002
0000
0023
0000
0130
0000
1000
0001
,
2000
3020
0130
0000
,
0001
1000
0001
1000
0001
0000
1000
0100
,
0000
0001
0100
0000
1000
0010
0100
0000
,
0001
0100
0001
0100
0001
0000
1000
0010
,
0001
0000
0010
0000
1000
0001
0010
0000
,
0100
0010
0100
0010
0100
0000
1000
0010
,
0001
0000
0010
1000
0001
0100
0001
0000
,
0010
0100
0010
0100
1000
0010
1000
0000
,
0100
0001
0010
1000
,
0001
0000
0001
0100
0000
0100
0001
0000
0001
1000
0000
0000
,
0100
0000
0100
1000
0000
1000
0010
0000
0010
0100
0000
0000
,
0001
0000
0001
1000
0000
1000
0100
0000
0100
0010
0000
0000
,
0001
0000
0001
0100
0000
0100
0010
0000
0010
1000
0010
1000
,
0001
0010
0100
1000
0000
0000
0010
0000
0000
1001
0000
0000
,
1000
0100
0010
0001
0000
0000
0100
0000
0000
1001
0000
0000
,
0001
0010
0100
1000
0000
0000
0010
0000
0000
1001
0000
0000
,
0110
0110
0110
0110
0000
0001
0000
1000
,
0100
0010
0001
0010
0100
1000
0000
0001
,
0010
0100
1000
0100
0010
0001
0000
0100
,
0001
1000
0010
0100
0001
0010
0000
0100
,
1000
0010
0100
0001
0010
0100
0000
1000
,
0100
0010
0001
0010
0100
1000
0000
0001
,
0010
0100
1000
0100
0010
0001
0000
1000
,
0010
0100
0001
1000
0100
0010
0000
0100
,
1000
0010
0100
0001
0010
0200
0000
0000
,
0000
0000
0000
1300
0000
0020
0000
0000
,
0000
0001
0000
0031
0000
1000
0010
1000
,
0010
1000
0001
1000
0001
0100
1000
0100
,
1000
0100
0001
1000
0000
0100
0010
0100
,
0010
0001
1000
0001
1000
0100
0001
0100
,
0001
0100
1000
0001
0000
0010
0100
0010
,
0100
1000
0010
0100
0001
1000
0100
0010
,
0100
1000
0010
0100
0001
1001
0000
0000
;

//---------------dance-single - ----------------
#NOTES:
     dance-single:
     :
     Hard:
     15:
     0.755771,0.853169,0.468249,0.123224,0.768093,644.000000,587.000000,57.000000,15.000000,0.000000,0.000000,0.755771,0.853169,0.468249,0.123224,0.768093,644.000000,587.000000,57.000000,15.000000,0.000000,0.000000:
0000
0000
0000
0000
,
0000
0000
0000
0000
,
0000
0000
0000
0000
,
0000
0000
0000
0000
,
0100
0000
1001
0010
0001
0001
1000
1000
,
0110
0000
1001
0000
0010
0010
0010
0010
,
0101
0000
1001
0100
1000
1000
0001
0001
,
0110
0000
0000
0000
0010
0010
0100
0010
,
1001
0000
1000
1000
1100
0010
0001
1000
,
0010
0010
0010
0000
0100
0001
0101
1000
,
0001
0001
0010
0100
1000
1000
0001
0001
,
0100
0010
0100
0010
1000
0000
1000
0000
0010
0000
0010
0000
0100
0000
0000
0000
,
0001
0000
0000
0001
0100
0000
0000
1000
0100
0000
0000
0001
0100
0000
0000
0000
,
1001
1000
1100
0000
1001
0001
0011
0000
,
1000
0000
0000
1000
0100
0000
0000
0001
0100
0000
0000
1000
0100
0000
0000
0001
,
0100
0000
1001
0001
0101
0000
1001
0000
,
1000
0001
0010
0001
1000
0010
0100
0010
,
1000
0000
0000
0100
0000
0000
0010
0000
0001
0000
0000
0100
0000
0000
0010
0000
,
1000
0000
0100
0000
0010
0000
0100
0000
1000
0000
0100
0000
0010
0000
0100
1000
,
0100
0000
0010
0000
0000
0001
0000
0000
1000
0000
1000
0000
1001
0000
0001
0000
,
1000
0000
0010
0100
0010
0000
1000
0000
0001
0000
0100
0010
0100
0000
0001
0000
,
1000
0000
0100
0010
0100
0000
1000
0000
0001
0000
0010
0100
0010
0000
0001
0000
,
1000
0100
1000
0000
0001
0100
0001
0000
1000
0010
1000
0000
0001
0010
0001
0000
,
1001
0000
1001
0000
0000
0000
0000
0000
0000
0110
0000
0110
0000
0000
0000
0000
,
0010
0000
1000
0100
0010
0000
0001
0000
0100
0000
0001
0010
0100
0000
1000
0000
,
0010
0000
1000
0010
0100
0000
0001
0000
0100
0000
0001
0100
0010
0000
1000
0000
,
0001
0000
0010
0100
1000
0000
0001
0000
1000
0000
0100
0010
0001
0000
1000
0000
,
0001
0000
0100
0010
1000
0000
0001
0000
1000
0000
0010
0100
0001
0000
0000
0000
,
1000
0000
0001
0100
0010
0000
1000
0100
1000
0000
0001
0010
0100
0000
1000
0010
,
1000
0000
0100
0010
0001
0000
0100
0010
0100
0000
0001
0010
0100
0010
0001
0000
,
0100
0001
0100
0001
0010
0100
0010
0100
1000
0001
1000
0001
0100
0001
0100
0001
,
0010
2002
0000
3003
,
0001
0000
0010
0100
1000
0000
1000
0000
0010
0000
0010
0000
0100
0000
0000
0000
,
0010
0000
0000
0000
0000
0000
1000
0000
0000
0010
0000
0000
1000
0000
0000
0000
0000
0000
0000
0000
0000
0000
0000
0000
1001
0000
0000
0000
0000
0000
0000
0000
0000
0000
0000
0000
0100
0000
0000
0000
0010
0000
0000
0000
0100
0000
0000
0000
,
0001
0100
0000
0000
0020
0000
0000
0000
1030
0001
0000
1000
0001
0000
1000
0001
,
0000
1000
0001
0000
0100
0000
0010
0000
1000
0000
0100
0000
0020
0000
0000
0000
,
0031
0000
1000
0010
1000
0000
0001
0100
0001
0000
1000
0100
1000
0000
0001
0010
,
0001
0000
0000
0100
0000
0000
0010
0000
0000
0000
0000
0000
0110
0000
0000
0000
0000
0000
0001
0000
0010
0000
0001
0000
,
1000
0000
0010
0100
0001
0000
0100
0001
0000
0000
1000
0000
0100
1000
0100
0000
,
0010
0000
0001
0100
0010
0000
0100
0000
0001
1000
0001
1000
0001
0000
0000
0000
,
0101
0100
0100
0100
0101
0010
1000
1100
,
0000
0000
0011
0000
0001
0000
0001
0000
1001
0000
0100
0000
0010
0000
0001
1000
,
0001
0000
0100
0010
0100
0000
0001
0100
0000
0001
0100
0000
0010
0000
1000
0000
,
0001
0000
0010
0100
0000
0010
0100
0000
1000
0001
1000
0001
1000
0000
0000
0000
,
1010
0010
0010
0010
1010
0001
0100
0100
,
0110
0000
1000
0000
0001
0010
0100
0000
0010
0100
0010
0000
0001
0000
0001
0000
,
1001
0000
0100
1000
0100
0000
0010
0100
0010
0100
0010
0100
0010
0000
0001
0000
,
0110
0100
0100
0100
0110
0010
1001
0000
,
1000
0100
1000
0001
0000
0000
1000
0100
1000
0001
0000
0000
,
0100
0001
0100
0010
0000
0000
0100
0001
0100
0010
0100
0010
,
1000
0100
1000
0001
0000
0000
1000
0100
1000
0001
0000
0000
,
0100
0001
0100
0010
0000
0000
0100
0001
0100
0010
0100
0010
,
1000
0100
0010
1001
0000
0000
1000
0100
0010
1001
0000
0000
,
1000
0010
0100
1001
0000
0000
1000
0010
0100
0001
0001
1000
,
0001
0010
0100
1001
0000
0000
0001
0010
0100
1001
0000
0000
,
0110
0000
0110
0000
0110
0000
1001
0000
1000
0001
2000
0000
0000
3010
0000
0000
,
0100
0001
0000
0100
0001
0000
1000
0100
0010
0001
2000
0000
0000
3010
0000
0000
,
0100
0001
0000
0100
0001
0000
1000
0100
0010
0001
2000
0000
0000
3001
0000
0000
,
0010
0100
0000
0010
0100
0000
1000
0010
0100
0001
2000
0000
0000
3001
0000
0000
,
0010
0100
0000
0010
0100
0000
0000
1100
0000
0000
1001
0000
0000
0011
0000
0000
,
0100
1000
0000
1000
0001
0000
0100
0001
0010
0100
1000
0000
0000
1010
0000
0000
,
0100
0001
0000
0001
1000
0000
0100
1000
0010
0100
0001
0000
0000
0101
0000
0000
,
0010
1000
0000
1000
0001
0000
0010
0100
1000
0001
0010
0000
0000
0110
0000
0000
,
0200
2000
0000
0000
0000
0000
3300
0000
0000
0000
2002
0000
0000
0000
0000
0000
,
0000
0000
0000
3003
0000
0220
0000
0000
,
0330
0000
0000
0000
0000
0000
0100
0000
0000
0000
0100
0000
0000
0000
0010
0000
0000
0000
0010
0000
0000
0000
0000
0000
0000
0000
0000
0000
0000
0000
1001
0000
0000
0000
0000
0000
0000
0000
0000
0011
0000
0000
0000
0000
0000
0000
0000
0000
,
0100
1000
0000
1000
0001
0000
0100
0010
1000
0100
0010
0000
0000
0011
0000
0000
,
0100
1000
0000
1000
0010
0000
0000
0101
0000
0000
1000
0100
0000
0010
0001
0000
,
0100
0020
0000
0030
1000
0100
0010
0001
1000
0000
0001
0100
0000
0010
1000
0000
,
0100
0010
0001
0010
0100
1000
0100
0010
0001
0000
1000
0100
0000
0010
0001
0000
,
0100
0010
1000
0100
0010
0100
1000
0001
0100
0000
0001
1000
0001
0000
1000
0100
,
1000
0000
0001
0010
0001
1000
0010
0100
0001
1000
0100
0000
0000
0000
0000
0000
;

//---------------dance-single - ----------------
#NOTES:
     dance-single:
     :
     Challenge:
     17:
     0.998697,1.265043,0.492894,0.377885,1.400641,851.000000,791.000000,60.000000,46.000000,0.000000,0.000000,0.998697,1.265043,0.492894,0.377885,1.400641,851.000000,791.000000,60.000000,46.000000,0.000000,0.000000:
// measure 0
0000
0000
0000
0000
,  // measure 1
0000
0000
0000
0000
,  // measure 2
0000
0000
0000
0000
,  // measure 3
0000
0000
0000
0000
,  // measure 4
1100
0000
0000
0001
0100
0001
0100
0000
1001
0000
1001
0000
0110
0000
0110
0000
,  // measure 5
0101
0000
0000
1000
0100
1000
0100
0000
1001
0000
1001
0000
1001
0000
1001
0000
,  // measure 6
1100
0000
0000
0001
0100
0001
0100
0000
1001
0000
1001
0000
0110
0000
0110
0000
,  // measure 7
0200
0000
0000
0000
0000
0000
0000
0000
0000
0300
0000
0000
0110
0000
0000
0110
0000
0000
0100
0010
0100
0010
0000
0000
,  // measure 8
1001
0000
0101
0101
0101
1000
0100
0010
,  // measure 9
1001
0000
0000
1001
0000
0000
1001
0000
0000
0000
0000
0000
0001
0000
0000
0001
0000
0000
0100
0010
0100
0010
0000
0000
,  // measure 10
0110
0000
1000
0000
1001
0000
0010
0000
0100
0000
1000
0001
0100
0000
0001
1000
,  // measure 11
0100
0000
0000
0010
0000
0000
0100
0000
0000
0010
0000
0000
0001
0000
0000
0000
0000
0000
1000
0000
0000
0000
0000
0000
0010
0000
0100
0000
0010
0000
0100
0000
0000
0001
0000
0000
0010
0000
0000
0100
0000
0000
1000
0000
0000
0000
0000
0000
,  // measure 12
0001
0000
0001
0100
0001
0000
1000
0010
1000
0000
0001
0100
0001
0000
1000
0000
,  // measure 13
1100
0100
0110
0010
0011
0001
1001
1000
,  // measure 14
0010
0000
1000
0100
1000
0000
0001
0010
0001
0000
1000
0100
1000
0000
0001
0010
,  // measure 15
0001
1000
1010
0010
0120
0000
1030
0000
,  // measure 16
0001
0000
0100
0001
1000
0000
0100
0000
0010
0000
0001
1000
0010
0000
1000
0100
,  // measure 17
0010
0000
0100
1000
0001
0000
0010
0000
0100
0000
1000
0001
0100
0000
0001
0000
,  // measure 18
1000
0000
0001
0010
0100
0000
1000
0000
0001
0000
0100
0010
1000
0000
0001
0010
,  // measure 19
0100
0000
0000
0000
0000
0000
1000
0000
0000
0000
0000
0000
0100
0000
0000
1000
0000
0000
0001
0000
0000
0000
0000
0000
0100
0000
0010
0000
0100
0000
0010
0000
0000
0000
0000
0000
1001
0000
0000
0000
0000
0000
1001
0000
0000
0000
0000
0000
,  // measure 20
0001
0000
0100
0010
1000
0000
1000
0100
0010
0000
0010
0100
1000
0000
0010
1000
,  // measure 21
0001
0000
0010
0100
1000
0000
1000
0001
0100
0000
0100
0001
1000
0000
0100
0010
,  // measure 22
0001
0010
0001
0100
0010
0100
0010
1000
0100
1000
0100
0010
0001
0100
0010
0000
,  // measure 23
1001
0000
0000
0000
0000
0000
1001
0000
0000
0000
0000
0000
0000
0000
0000
0000
0000
0000
0000
0000
0010
0000
0100
0000
0010
0000
0000
1000
0000
0000
0000
0000
0000
1010
0000
0000
0000
0000
0000
0000
0000
0000
0000
0000
0000
0000
0000
0000
,  // measure 24
1000
0001
0100
0001
1000
0000
1000
0000
0001
0010
0100
1000
0000
0100
1000
0000
,  // measure 25
0001
0100
0010
0100
0001
0000
0001
0000
1000
0100
0010
0001
0000
0010
0001
0000
,  // measure 26
1000
0001
0100
0001
1000
0000
1000
0000
0001
0010
0100
1000
0000
0100
1000
0000
,  // measure 27
0001
0000
0000
0100
0000
0000
0010
0000
0000
0100
0000
0000
0001
0000
0000
0000
0000
0000
0001
0000
0000
0000
0000
0000
0010
0000
0100
0000
0010
0000
0100
0000
0000
1000
0000
0000
0001
0000
0000
0000
0000
0000
0000
0000
0000
0000
0000
0000
,  // measure 28
1000
0100
0001
0100
1000
0010
1000
0010
1000
0100
0001
0100
1000
0010
1000
0010
,  // measure 29
1000
0100
0001
0100
1000
0100
0010
0100
1000
0010
0001
0010
1000
0100
1000
0100
,  // measure 30
0010
0001
0010
0001
0100
0010
0100
0010
1000
0100
1000
0100
0010
0001
1000
0010
,  // measure 31
0200
0020
0000
0330
,  // measure 32
0010
0001
0010
0001
0100
0000
0110
0000
0001
1000
0000
0001
0100
0000
0001
0000
,  // measure 33
1000
0000
1000
0100
1000
0000
0000
0001
1000
0000
0000
0100
0000
0010
0100
0000
,  // measure 34
1000
0010
0000
1000
0002
0000
0000
0000
0013
0100
0000
1000
0100
0000
0010
0100
,  // measure 35
0000
1000
0100
0010
0100
0010
0001
0010
0001
1000
0010
1000
0001
0000
0000
0000
,  // measure 36
1001
0000
1000
0100
0010
0000
0100
0010
0001
0000
0100
0010
0100
0010
1000
0100
,  // measure 37
0010
0000
0000
0001
0000
0000
0010
0000
0000
0001
0000
0000
0100
0000
0000
0010
0000
0000
0000
0000
0000
1000
0000
0000
0010
0000
0000
1000
0000
0000
0000
0000
0000
0000
0000
0000
0001
0000
0000
0000
0001
0000
0000
0000
0001
0000
0000
0000
,  // measure 38
1001
0000
0100
0001
1000
0000
0010
1000
0000
0000
0100
0000
0010
0001
0010
0001
,  // measure 39
1000
0000
1000
0001
0010
0000
0100
0000
1000
0001
1000
0001
0100
0000
0000
0000
,  // measure 40
1020
0030
0020
0030
0020
0030
0020
0030
0220
0330
0100
0010
1000
0000
1001
0000
,  // measure 41
0010
0001
0200
0300
0200
0300
0200
0300
2002
3003
0010
0100
1000
0001
0100
0001
,  // measure 42
1000
0100
0010
0001
0100
0000
0001
1000
0000
0100
1000
0000
0010
0000
0110
0000
,  // measure 43
1001
0000
0100
0010
0001
0010
0100
1000
0001
0100
0001
0100
0010
0000
0000
0000
,  // measure 44
0100
0001
0100
0001
1000
0000
0100
0010
0001
0000
0010
0001
0200
0300
0200
0300
,  // measure 45
0220
0000
0000
0330
0000
0000
0010
0000
0000
0100
0000
0000
0001
0000
0000
0010
0000
0000
0100
0000
0000
1000
0000
0000
0010
0000
0000
0001
0000
0000
0010
0000
0000
0000
0000
0000
1000
0000
0000
0000
1000
0000
0000
0000
1000
0000
0000
0000
,  // measure 46
0002
0000
0103
0010
1000
0000
0100
0010
0001
0010
0001
0010
0100
0000
1000
0010
,  // measure 47
0200
0300
0200
0300
0200
0300
0200
0300
0220
0330
0010
0100
0002
0000
0000
0000
,  // measure 48
1003
0100
1000
0001
0010
0001
1000
0100
1000
0001
0010
0001
,  // measure 49
1000
0010
1000
0001
0100
0001
1000
0010
1000
0100
0100
0001
,  // measure 50
1000
0100
1000
0001
0100
0001
1000
0100
1000
0001
0100
0001
,  // measure 51
1000
0010
1000
0001
0010
0001
1000
0010
1000
0100
0100
0001
,  // measure 52
1000
0100
1000
1001
0100
0010
0001
0100
0001
0101
1000
0100
,  // measure 53
1000
0010
0100
0110
0001
0010
0001
1000
0010
1000
0002
1003
,  // measure 54
0001
0010
0001
1001
0010
0100
0010
0100
1000
1010
0100
0010
,  // measure 55
1001
0000
1001
0000
1001
0000
1001
0000
1000
0001
0100
1000
0100
0010
1000
0010
,  // measure 56
0100
0002
0000
1003
0020
0000
1030
0100
1000
0010
0001
0010
0100
0001
1000
0100
,  // measure 57
0010
0002
0000
1003
0200
0000
1300
0010
1000
0100
0001
1000
0100
0010
1000
0001
,  // measure 58
0010
0200
0000
1300
0002
0000
1003
0100
1000
0010
0001
0010
0100
0001
0010
0100
,  // measure 59
1000
0002
0000
0103
0020
0000
1030
0001
0000
0001
0100
0010
1000
0100
0001
0100
,  // measure 60
1000
0020
0000
0130
0002
0000
0013
0100
1000
0010
0001
0010
1000
0100
0010
0001
,  // measure 61
1000
0020
0000
0130
0002
0000
1003
0100
0010
0001
1000
0010
0001
0010
1000
0010
,  // measure 62
0100
0001
1000
0100
0001
0100
1000
0001
0010
1000
0001
0010
0100
0001
0000
0002
,  // measure 63
2000
0000
0000
3003
0000
0101
0000
0000
,  // measure 64
0000
0000
0000
0000
0000
0000
0100
0000
0010
0000
0100
0000
0010
0000
0000
0000
0000
0000
1001
0000
0000
0000
0000
0000
0000
0000
0000
0000
0000
0000
0100
0000
0000
1000
0000
0000
0000
0000
0000
0001
0000
0000
1000
0000
0000
0100
0000
0000
,  // measure 65
0010
0000
0000
0001
0000
0000
0100
0000
0000
0000
0100
0000
0000
0000
0100
0000
0000
0000
0110
0000
0000
0000
0000
0000
0000
0000
0000
0000
0000
0000
1000
0000
0000
0001
0000
0000
0100
0000
0000
1000
0000
0000
0100
0000
0000
0001
0000
0000
,  // measure 66
0010
0200
0000
1300
0020
0000
1030
0100
0010
0001
1000
0001
0100
1000
0100
0001
,  // measure 67
1000
0020
0000
0130
0001
0010
0100
1000
0010
0000
1000
0100
0001
1000
0010
0001
,  // measure 68
1000
0100
0010
0001
1000
0001
0100
1000
0100
0001
1000
0100
0001
1000
0010
0001
,  // measure 69
1000
0000
0000
0100
0000
0000
0010
0000
0001
0000
0010
0000
0100
0000
0000
1000
0000
0000
0010
0000
0000
0100
0000
0000
0010
0000
0000
0000
0000
0000
1000
0000
0000
0100
0000
0000
1000
0000
0100
0000
0010
0000
0001
0000
0000
0100
0000
0000
,  // measure 70
0001
0000
0100
0000
0010
0000
1000
0000
0000
0010
0000
0000
0001
0000
0000
0010
0000
0000
1000
0000
0000
0100
0000
0000
0010
0000
0000
0001
0000
0000
1000
0000
0100
0000
1000
0000
0100
0000
0010
0000
0001
0000
0010
0000
0001
0000
0100
0000
,  // measure 71
0010
0100
0010
1000
0100
0010
0001
0010
0100
1000
0001
0100
0001
1000
0100
0010
0000
0000
0000
0000
0000
0000
0000
0000
;

//---------------dance-single - ----------------
#NOTES:
     dance-single:
     :
     Beginner:
     3:
     0.165472,0.235357,0.073934,0.000000,0.000000,141.000000,132.000000,9.000000,0.000000,0.000000,0.000000,0.165472,0.235357,0.073934,0.000000,0.000000,141.000000,132.000000,9.000000,0.000000,0.000000,0.000000:
0000
0000
0000
0000
,
0000
0000
0000
0000
,
0000
0000
0000
0000
,
0000
0000
0000
0000
,
1000
0000
1000
0000
,
0001
0000
0001
0000
,
1000
0000
1000
0000
,
0001
0000
0000
0000
,
0010
0000
0001
0000
,
0100
0000
0100
0000
,
0010
0000
1000
0000
,
0001
0000
0001
0000
,
1000
0000
1000
0000
,
1001
0000
1001
0000
,
0001
0000
0001
0000
,
1001
0000
1001
0000
,
1000
0000
0100
0000
,
0010
0000
0100
0000
,
1000
0000
0001
0000
,
0100
0000
0001
0000
,
1000
0000
0100
0000
,
1000
0000
0001
0000
,
0100
0000
0010
0000
,
0100
0000
0000
0000
,
0001
0000
0010
0000
,
0001
0000
1000
0000
,
0001
0000
0010
0000
,
0001
0000
1000
0000
,
0001
0000
0010
0000
,
0100
0000
1000
0000
,
0010
0000
0010
0000
,
0110
0000
0000
0000
,
1000
0000
1000
0000
,
1000
0000
0000
0000
,
0001
0000
0001
0000
,
0001
0000
0000
0000
,
1000
0000
1000
0000
,
1000
0000
0000
0000
,
0001
0000
0001
0000
,
0001
0000
0000
0000
,
1000
0000
0100
0000
,
1000
0000
0100
0000
,
0010
0000
0001
0000
,
0010
0000
0001
0000
,
0100
0000
0010
0000
,
0100
0000
0010
0000
,
1000
0001
1000
0000
,
0001
1000
0001
0000
,
1000
0000
1000
0000
,
0100
0000
0100
0000
,
0010
0000
0010
0000
,
0001
0000
0001
0000
,
1000
0000
0010
0000
,
0100
0000
0001
0000
,
1000
0000
0100
0000
,
1001
0000
0000
0000
0000
0001
0000
0000
,
0000
0001
0000
0000
0000
1000
0000
0000
,
0000
1000
0000
0000
0000
0100
0000
0000
,
0000
0010
0000
0000
0000
0001
0000
0000
,
0000
1000
0000
0000
0000
0100
0000
0000
,
0000
0100
0000
0000
0000
0010
0000
0000
,
0000
0010
0000
0000
0000
0001
0000
0000
,
0000
1000
0000
0000
0000
0100
0000
0000
,
0000
0000
0000
0000
0000
1001
0000
0000
,
0000
0000
0000
0000
0000
1001
0000
0000
,
0000
0000
0000
0000
0000
1000
0000
0000
,
0000
0100
0000
0000
0000
1000
0000
0000
,
0000
0001
0000
0000
0000
0100
0000
0010
,
0000
0100
0000
0000
0000
0010
0000
0100
,
0000
0010
0000
0000
0000
1000
0000
0001
,
0000
1000
0000
0001
0000
1000
0000
0000
,
0000
1000
0000
0000
0000
1001
0000
0000
;
