#TITLE:Mystic Light Quest;
#SUBTITLE:;
#ARTIST:ぺぺ(CV\:Machico);
#TITLETRANSLIT:;
#SUBTITLETRANSLIT:;
#ARTISTTRANSLIT:PEPE(CV\:Machico);
#GENRE:;
#CREDIT:DigiMindAxel;
#BANNER:Mystic Light Quest.png;
#BACKGROUND:Mystic Light Quest-bg.png;
#LYRICSPATH:Mystic Light Quest.lrc;
#CDTITLE:DigiMindAxel original simfile.png;
#MUSIC:Mystic Light Quest.ogg;
#OFFSET:-0.002000;
#SAMPLESTART:60.000736;
#SAMPLELENGTH:12.000000;
#SELECTABLE:YES;
#BPMS:0.000000=160.000000
;
#STOPS:
;
#BGCHANGES:0.000=Mystic Light Quest.avi=1.000=1=0=0=StretchNoLoop==CrossFade==,
99999=-nosongbg-=1.000=0=0=0 // don't automatically add -songbackground-
;
#KEYSOUNDS:;
#ATTACKS:;

//---------------dance-single - ----------------
#NOTES:
     dance-single:
     :
     Easy:
     4:
     0.209091,0.298636,0.109091,0.172727,0.000000,161.000000,149.000000,12.000000,19.000000,0.000000,0.000000,0.209091,0.298636,0.109091,0.172727,0.000000,161.000000,149.000000,12.000000,19.000000,0.000000,0.000000:
0000
0000
0000
0000
,
0000
0000
0000
0000
,
0000
0000
0000
0000
,
0000
0000
0000
0000
,
2002
0000
0000
0000
,
0000
0000
0000
3003
,
0220
0000
0000
0000
,
0000
0000
0000
0330
,
0002
0000
0000
0000
,
0203
0000
0300
0000
,
0020
0000
0000
0000
,
2030
0000
3000
0000
,
0002
0000
0000
0000
,
0023
0000
0030
0000
,
0200
0000
0000
0000
,
2300
0000
3000
0000
,
0001
0000
0001
0000
,
1000
0000
1000
0000
,
0100
0000
0100
0000
,
0010
0000
0010
0000
,
0001
0000
0001
0000
,
1000
0000
1000
0000
,
0010
0000
0010
0000
,
0100
0000
0100
0000
,
0002
0000
0000
0000
,
2003
0000
0000
0000
,
3200
0000
0000
0000
,
0320
0000
0000
0000
,
0031
0000
0001
0000
,
0100
0000
0100
0000
,
0010
0000
1000
0000
,
0001
0010
0001
0000
,
0001
0000
0001
0000
,
1000
0000
1000
0000
,
0100
0000
0100
0000
,
0010
0000
0010
0000
,
0001
0001
0001
0000
,
1000
1000
1000
0000
,
0001
0010
0100
1000
,
0002
0000
0000
0003
,
1000
1000
1000
0000
,
0100
0010
0100
0000
,
1000
0000
0001
0000
,
0100
0010
0100
0000
,
0001
0001
0001
0000
,
0010
0100
0010
0000
,
0001
0000
1000
0000
,
0100
0010
0100
0000
,
1000
1000
1000
0000
,
0010
0100
0010
0000
,
0100
0010
0100
0000
,
0001
0001
0001
0000
,
1000
1000
1000
0000
,
0100
0010
0100
0000
,
0010
0100
0010
0000
,
0001
0001
0001
0000
,
1001
0000
1001
0000
,
0100
0010
0100
0000
,
1001
0000
1001
0000
,
0010
0100
0010
0000
,
1001
0000
1001
0000
,
0100
0010
0100
0000
,
1001
0000
1001
0000
,
0010
0100
0010
0000
,
1001
0000
1001
0000
,
1000
0001
0100
0000
,
0001
1000
0001
0000
,
0010
0100
1000
0000
,
0100
0010
0100
0000
,
1000
0010
0100
0000
,
0001
1000
0001
0000
,
1000
0001
0010
0002
,
2000
0000
0000
0000
,
3003
0000
0000
0000
;

//---------------dance-single - ----------------
#NOTES:
     dance-single:
     :
     Medium:
     12:
     0.527273,0.597273,1.045455,0.063636,0.009091,406.000000,291.000000,115.000000,7.000000,0.000000,0.000000,0.527273,0.597273,1.045455,0.063636,0.009091,406.000000,291.000000,115.000000,7.000000,0.000000,0.000000:
// measure 0
0000
0000
0000
0000
,  // measure 1
0000
0000
0000
0000
,  // measure 2
0000
0000
0000
0000
,  // measure 3
0000
0000
0000
0000
,  // measure 4
1001
0000
0000
1000
0000
0000
0100
0000
,  // measure 5
1000
0001
1000
0000
0010
0000
0010
0000
,  // measure 6
1000
0100
0010
0001
,  // measure 7
1000
0000
0000
0100
0000
0100
0000
0110
0000
0000
0000
0000
,  // measure 8
0001
0010
1000
0010
,  // measure 9
0001
0000
1000
1000
0000
0000
0000
0000
,  // measure 10
0001
0100
1000
0100
,  // measure 11
0001
0000
1000
1000
0000
0000
0000
0000
,  // measure 12
0001
0010
1000
0010
,  // measure 13
0001
0000
1000
1000
0000
0000
0000
0000
,  // measure 14
0001
0100
1000
0100
,  // measure 15
0001
0010
0100
1000
0010
0000
0000
0000
,  // measure 16
1001
1001
1001
1001
,  // measure 17
0110
0110
0110
0110
,  // measure 18
1100
1100
1100
1100
,  // measure 19
0011
0011
0011
0011
,  // measure 20
1001
1001
1001
1001
,  // measure 21
1010
1010
1010
1010
,  // measure 22
0101
0101
0101
0101
,  // measure 23
1001
1001
1001
1001
,  // measure 24
0002
0000
0103
0000
,  // measure 25
2000
0000
3100
0000
,  // measure 26
0002
0000
0000
0000
1003
0000
0000
0001
,  // measure 27
0000
0000
0001
0100
0001
0010
0100
0000
,  // measure 28
2000
0000
3100
0000
,  // measure 29
0002
0000
0103
0000
,  // measure 30
1000
0001
1000
0000
0001
1000
0001
0000
,  // measure 31
0110
0110
1001
0000
,  // measure 32
0100
0100
0100
0100
,  // measure 33
1010
0010
0010
0010
,  // measure 34
1001
1000
1000
1000
,  // measure 35
1100
0100
0100
0100
,  // measure 36
0011
0001
0011
0001
,  // measure 37
1001
1000
1001
1000
,  // measure 38
1001
1001
0100
0100
,  // measure 39
1001
1001
1001
0110
,  // measure 40
1001
0000
1000
0010
1000
0010
0100
0000
,  // measure 41
1001
1001
0101
0101
,  // measure 42
0110
0110
1010
1010
,  // measure 43
1000
0001
0000
1000
0100
0010
0001
0000
,  // measure 44
0101
0000
0001
1000
0010
1000
0001
0000
,  // measure 45
0011
0011
0110
0110
,  // measure 46
1001
1001
0110
0110
,  // measure 47
1010
1010
1010
0000
,  // measure 48
1001
0000
0001
1000
0001
1000
0100
0000
,  // measure 49
1100
1100
0110
0110
,  // measure 50
0011
0011
1001
1001
,  // measure 51
0100
0010
0000
1000
0100
0010
0001
0000
,  // measure 52
0101
0000
0001
1000
0010
1000
0001
0000
,  // measure 53
1001
1001
1100
1100
,  // measure 54
0110
0110
0011
0011
,  // measure 55
1001
1001
1001
0000
,  // measure 56
1000
0100
1000
0000
1000
0001
1000
0000
,  // measure 57
0001
0101
0010
0110
,  // measure 58
0010
1000
0010
0000
0100
0010
0100
0000
,  // measure 59
0101
0001
1001
1000
,  // measure 60
0001
0100
0001
0000
0001
1000
0001
0000
,  // measure 61
0010
0011
0100
1100
,  // measure 62
0100
0010
0100
0000
1000
0100
0010
0001
,  // measure 63
1000
0001
1000
0000
1001
0000
0000
0000
,  // measure 64
1100
1100
1001
1001
,  // measure 65
0001
0100
0001
0000
0001
1000
0001
0000
,  // measure 66
0110
0110
1010
1010
,  // measure 67
1000
0001
0010
0000
0010
0001
0010
0000
,  // measure 68
1001
1001
0101
0101
,  // measure 69
0001
0100
0010
0000
0010
0100
0010
0000
,  // measure 70
0101
0101
1001
1001
,  // measure 71
0001
0010
0100
1000
0010
0000
0200
0000
,  // measure 72
0002
0000
0000
0000
,  // measure 73
0303
0000
0000
0000
;

//---------------dance-single - ----------------
#NOTES:
     dance-single:
     :
     Hard:
     13:
     0.641558,0.630455,0.563636,0.072727,0.186364,494.000000,432.000000,62.000000,8.000000,0.000000,0.000000,0.641558,0.630455,0.563636,0.072727,0.186364,494.000000,432.000000,62.000000,8.000000,0.000000,0.000000:
0000
0000
0000
0000
,
0000
0000
0000
0000
,
0000
0000
0000
0000
,
0000
0000
0000
0000
,
0201
0000
0000
0001
0001
0000
0001
0000
,
1000
1000
1000
0000
1000
0000
1300
0000
,
0001
0010
0100
1000
0001
0010
0100
1000
,
0001
0100
0010
1000
0000
1001
0000
1001
0000
0000
0000
0000
,
0001
0000
0001
0010
0100
0000
0010
0001
,
0100
0000
0010
1000
0100
0010
0001
0000
,
1000
0000
1000
0010
0100
0000
0001
0010
,
0100
0010
0001
1000
0010
0000
0000
0000
,
1000
0000
1000
0100
0010
0000
0100
1000
,
0010
0000
0100
0001
0010
0000
0100
0000
,
1000
0000
1000
0010
0100
0000
0001
0010
,
0100
0000
1000
0000
0010
0000
0001
0000
0010
0000
0000
1000
0001
0000
0001
0000
,
1000
0100
1000
0001
1000
0100
1001
0000
,
0101
0010
0100
0000
1010
0100
0010
0000
,
0001
0100
0001
1000
0001
0100
1001
0000
,
1100
0001
1000
0000
0011
1000
0001
0000
,
0100
0001
1000
0001
0100
0001
1001
0000
,
1010
0100
0010
0000
0101
0010
0100
0000
,
0010
0001
1000
0001
0010
0001
1001
0000
,
1100
0010
0001
0000
0011
0100
1000
0000
,
0001
0010
1000
0010
0001
0000
0000
0000
,
1000
0010
0001
0010
1000
0000
0000
0000
,
0001
0100
1000
0100
0001
0000
0000
2000
,
0000
0001
3001
0100
1000
0100
0001
0000
,
1000
0010
0001
0010
0100
0000
0000
0000
,
0001
0100
1000
0100
0010
0000
0000
0000
,
1000
0001
0100
1000
0100
0001
1000
0100
,
1100
0000
0101
0000
1001
0000
0000
0001
,
1000
0000
0000
1000
0100
0000
0000
0000
0001
0000
0000
0001
0100
0000
0000
0000
,
1001
0000
0000
1000
0010
0000
0000
0000
0001
0000
0000
0001
0010
0000
0000
0000
,
1001
0000
0000
1000
0100
0000
0000
0000
0001
0000
0000
0001
0100
0000
0000
0000
,
1001
0000
0000
1000
0010
0000
0000
0000
0001
0000
0000
0001
0010
0000
0000
0000
,
1000
0000
0000
1000
0100
0000
0000
0100
0010
0000
0000
0010
0001
0000
0000
0001
,
1000
0000
0000
1000
0010
0000
0000
0010
0100
0000
0000
0100
0001
0000
0000
0001
,
2000
0000
0000
3002
0000
0000
1003
0100
0010
0001
0010
0100
,
1001
1001
1001
0110
,
0101
0000
0010
1000
0100
0001
0100
1000
,
0100
0010
0100
1000
0010
0001
0010
1000
,
0100
0001
1000
0010
0001
1000
0100
0010
,
0100
0200
0000
1300
0010
0100
0001
0000
,
1010
0000
0100
0001
0010
0100
0010
0001
,
0010
1000
0010
0001
0100
1000
0100
0001
,
0100
1000
0001
0010
1000
0001
0010
0100
,
0011
1100
0011
0110
,
1001
0000
0000
1000
0001
0000
0100
0000
1000
0000
0100
0000
0010
0000
1000
0000
,
0001
0010
0100
0010
0001
0100
1000
0100
,
0001
0010
1000
0001
0010
0100
0001
1000
,
0010
0020
0000
1030
0100
0010
0001
0000
,
1001
0000
0000
0001
1000
0000
0010
0000
0001
0000
1000
0000
0010
0000
0100
0000
,
1000
0010
0001
0010
1000
0100
0010
0100
,
1000
0100
0001
1000
0100
0010
1000
0000
,
1010
0101
1001
0110
,
1001
0000
1001
0000
0110
0001
1000
0000
,
1010
0000
0110
0000
0101
0000
0010
0100
,
1001
0000
0001
0010
1000
0010
0001
1000
,
1001
0000
1001
0000
0110
0001
1000
0000
,
1001
0000
1001
0000
0110
1000
0001
0000
,
0011
0000
0110
0000
1100
0000
0010
0100
,
1001
0000
1000
0010
0001
0010
1000
0100
,
0010
0001
1000
0010
1001
0000
0110
0000
,
1001
0000
0000
1000
0100
0000
0000
0000
0001
0000
0100
0000
1000
0000
0000
0000
,
1010
0000
0000
0010
0100
0000
0000
0100
0001
0000
0000
0001
1000
0000
0000
0000
,
1001
0000
0000
0001
0100
0000
0000
0000
1000
0000
0100
0000
0001
0000
1000
0000
,
0001
0000
0000
0001
0010
0000
0000
0010
0100
0000
0000
0100
1000
0000
0000
0000
,
1001
0000
0000
1000
0010
0000
0000
0000
0001
0000
0010
0000
1000
0000
0001
0000
,
1000
0000
0000
1000
0010
0000
0000
0010
0100
0000
0000
0100
0001
0000
0000
0000
,
1001
0000
0000
0001
0100
0000
0000
1000
0100
0000
0001
0000
1000
0000
0000
0000
,
0100
0010
0001
1000
0010
0000
0100
0000
,
2002
0000
0000
0000
,
3003
0000
0000
0000
;

//---------------dance-single - ----------------
#NOTES:
     dance-single:
     :
     Challenge:
     15:
     0.764935,0.862727,0.390909,0.081818,0.677273,589.000000,546.000000,43.000000,9.000000,0.000000,0.000000,0.764935,0.862727,0.390909,0.081818,0.677273,589.000000,546.000000,43.000000,9.000000,0.000000,0.000000:
0000
0000
0000
0000
,
0000
0000
0000
0000
,
0000
0000
0000
0000
,
0000
0000
0000
0000
,
1002
0000
0000
0000
0000
0000
0103
0001
0100
0000
0000
0000
0100
0000
0000
0000
,
0010
1000
0010
0000
0010
0000
0000
0000
0010
0000
1000
0001
1000
0000
1000
0000
,
0001
0001
0010
0010
0100
0100
1000
1000
,
0010
0010
0100
0110
0000
0101
0000
1010
0000
0000
0000
0000
,
1000
0000
0000
0000
0000
1000
0010
0000
0000
0100
0000
0000
0010
0000
0000
0000
0000
1000
0001
0000
0000
0010
0000
0000
,
0001
0000
0000
0100
0000
0010
0100
0000
0000
0001
0000
0000
0000
0000
0000
0000
0000
0000
0000
0000
0000
0000
0000
0000
,
1000
0000
0000
0000
0000
1000
0001
0000
0000
0010
0000
0000
0001
0000
0000
0000
0000
1000
0010
0000
0000
0100
0000
0000
,
0010
0000
0000
1000
0000
0100
1000
0000
0000
0010
0000
0000
0000
0000
0000
0000
0000
0000
0000
0000
0000
0000
0000
0000
,
1000
0000
0000
0000
0000
1000
0010
0000
0000
0100
0000
0000
0010
0000
0000
0000
0000
1000
0001
0000
0000
0010
0000
0000
,
0001
0000
0000
1000
0000
0010
1000
0000
0000
0001
0000
0000
0000
0000
0000
0000
0000
0000
0000
0000
0000
0000
0000
0000
,
1000
0000
0000
0000
0000
1000
0001
0000
0000
0010
0000
0000
0001
0000
0000
0000
0000
1000
0010
0000
0000
0100
0000
0000
,
0010
0000
0000
0000
0000
0000
1000
0000
0000
0000
0100
0000
1000
0000
0000
0000
0000
0000
0001
0000
0000
0000
0000
0000
0010
0000
0000
0000
0000
0000
0000
0000
0000
0100
0000
0000
0010
0000
0000
0000
0000
0000
0010
0000
0000
0000
0000
0000
,
1001
0000
0100
0010
0001
0000
0001
1000
0010
0000
0010
0100
0001
0000
0000
0000
,
1000
0100
1000
0100
0010
0001
0010
0001
1000
0010
0100
0001
1000
0000
0000
0000
,
1001
0000
0010
0100
1000
0000
1000
0001
0100
0000
0100
0010
1000
0000
0000
0000
,
0001
0010
0001
0010
0100
1000
0100
1000
0001
0000
0100
0010
1000
0000
0000
0000
,
1001
0000
0010
0100
0001
0000
0001
0010
0100
0000
0100
1000
0010
0000
0000
0000
,
0100
0001
0100
0001
0010
0100
0010
0100
1000
0010
0100
0001
0010
0000
0000
0000
,
1001
0000
0100
0010
1000
0000
1000
0100
0010
0000
0010
0001
0100
0000
0000
0000
,
0010
1000
0010
1000
0100
0010
0100
0010
0001
1000
0001
1000
0001
0000
0000
0000
,
0010
0001
0100
0010
1000
0000
0100
0010
,
0001
0100
0010
1000
0100
0000
0010
0100
,
1000
0010
0100
0001
0010
0000
0000
1002
,
0000
0000
0103
0000
0010
0000
1000
0000
0100
0000
1000
0001
1000
0000
1000
0000
,
0100
1000
0010
0100
0001
0000
0010
0100
,
1000
0010
0100
0001
0010
0000
0100
0010
,
0001
0001
0100
0010
1000
1000
0010
0100
,
0101
0000
1100
0000
1001
0001
1000
1000
,
0001
0000
0000
0100
0001
0000
1000
0000
1000
0000
0000
0100
1000
0000
0001
0000
,
0001
0000
0000
0010
0001
0000
1000
0000
1000
0000
0000
0010
1000
0000
0001
0000
,
0001
0000
0000
0100
0001
0000
1000
0000
1000
0000
0000
0100
1000
0000
0001
0000
,
0001
0000
0000
0010
0001
0000
1000
0000
1000
0000
0000
0010
1000
0000
0001
0000
,
0001
0000
1000
0100
1000
0000
0001
0100
0001
0000
1000
0100
1000
0000
0001
0100
,
0001
0000
1000
0010
1000
0000
0001
0010
0001
0000
1000
0010
1000
0000
0001
0010
,
0001
0000
0000
0000
0000
0000
0100
0000
0000
0010
0000
0000
0100
0000
0000
0000
0000
0000
0000
0000
0000
0000
0000
0000
0001
0000
0000
0000
0100
0000
0000
0000
1000
0000
0000
0000
0100
0000
0000
0000
0001
0000
0000
0000
0010
0000
0000
0000
,
1100
0101
1001
0110
,
1001
0000
0000
1000
0001
0000
0100
0000
1000
0000
0100
0000
0001
0000
0000
0000
,
1000
0000
0000
1000
0010
0000
0000
0010
0001
0000
0000
0001
0010
0000
0000
0000
,
1000
0000
0000
1000
0100
0000
0000
0000
0001
0000
0000
0001
0100
0000
0000
0000
,
2000
0000
0002
0000
3003
0000
1000
0000
0001
0010
0001
0000
1000
0000
0000
0000
,
1001
0000
0000
0001
1000
0000
0010
0000
0001
0000
0010
0000
1000
0000
0000
0000
,
0001
0000
0000
0001
0100
0000
0000
0100
1000
0000
0000
1000
0100
0000
0000
0000
,
0001
0000
0000
0001
0010
0000
0000
0000
1000
0000
0000
1000
0010
0000
0000
0000
,
0001
0000
1000
0100
1000
0100
1000
0000
0001
0100
0010
0100
0001
0000
0000
0000
,
1001
0000
0000
1000
0001
0000
0010
0000
1000
0000
0010
0001
0010
0000
1000
0000
,
0001
0000
0000
0001
0100
0000
0000
0100
1000
0000
0000
1000
0100
0000
0000
0000
,
0001
0000
0000
0001
0010
0000
0000
0010
1000
0000
0000
1000
0010
0000
0000
0000
,
0002
0000
2000
0000
3003
0000
0001
0000
1000
0100
1000
0000
0001
0000
0000
0000
,
1001
0000
0000
1000
0001
0000
0100
0000
1000
0000
0100
0001
0100
0000
1000
0000
,
0001
0000
0000
0001
0010
0000
0000
0010
1000
0000
0000
1000
0010
0000
0000
0000
,
0001
0000
0000
0001
0100
0000
0000
0100
1000
0000
0000
1000
0100
0000
0000
0000
,
0101
1100
1001
0110
,
1001
0000
0000
1000
0100
0000
1000
0000
0001
0000
0001
0000
0101
0000
0000
0000
,
1010
0000
0000
1000
0001
0000
0000
0001
0010
0000
0000
0000
0100
0000
0010
0000
,
1001
0000
0000
0001
0010
0000
0001
0000
1000
0000
1000
0000
1010
0000
0000
0000
,
0101
0000
0000
0100
0010
0000
0000
0010
1000
0000
0000
1000
0001
0000
0000
0000
,
1001
0000
0000
1000
0010
0000
1000
0000
0001
0000
0001
0000
0011
0000
0000
0000
,
1100
0000
0000
1000
0010
0000
0000
0010
0100
0000
0000
0100
0001
0000
0000
0000
,
1001
0000
0000
0001
0100
0000
0001
0000
1000
0000
1000
0000
1100
0000
0000
0000
,
0010
0000
0001
1000
0001
0000
0010
0000
0100
0010
0001
0000
0100
0000
0000
0000
,
1001
0000
0000
0001
0010
0000
0001
0010
0100
0000
1000
0010
1000
0000
0000
0000
,
1001
0000
0000
1000
0010
0000
0000
0010
0200
0000
0000
0000
0301
0000
0010
0000
,
1001
0000
0000
1000
0100
0000
1000
0100
0010
0000
0001
0100
0001
0000
0000
0000
,
1001
0000
0000
0001
0100
0000
0000
0100
0010
1000
0100
0010
0001
0000
1000
0000
,
1001
0000
0000
0001
0100
0000
0001
0100
0010
0000
1000
0100
1000
0000
0000
0000
,
1001
0000
0000
0001
0010
0000
0000
0010
0100
0000
0000
0000
1000
0000
0100
0000
,
1001
0000
0000
0001
0100
0000
0001
0100
0010
0000
1000
0100
1000
0000
0000
0000
,
0001
0000
1000
0100
1000
0100
1000
0000
0001
0100
0010
0100
0001
0000
0000
0000
,
2002
0000
0000
0000
,
3003
0000
0000
0000
;

//---------------dance-single - ----------------
#NOTES:
     dance-single:
     :
     Beginner:
     2:
     0.090909,0.163636,0.100000,0.000000,0.000000,70.000000,59.000000,11.000000,0.000000,0.000000,0.000000,0.090909,0.163636,0.100000,0.000000,0.000000,70.000000,59.000000,11.000000,0.000000,0.000000,0.000000:
0000
0000
0000
0000
,
0000
0000
0000
0000
,
0000
0000
0000
0000
,
0000
0000
0000
0000
,
1000
0000
0000
0000
,
0000
0000
0000
0000
,
0001
0000
0000
0000
,
0000
0000
0000
0000
,
0100
0000
0000
0000
,
0000
0000
0000
0000
,
0100
0000
0000
0000
,
0000
0000
0000
0000
,
0010
0000
0000
0000
,
0000
0000
0000
0000
,
0010
0000
0000
0000
,
0000
0000
0000
0000
,
1001
0000
0000
0000
,
1000
0000
0000
0000
,
1000
0000
0000
0000
,
1000
0000
0000
0000
,
0001
0000
0000
0000
,
0001
0000
0000
0000
,
0001
0000
0000
0000
,
0001
0000
0000
0000
,
1001
0000
0000
0000
,
0000
0000
0000
0000
,
0100
0000
0000
0000
,
0000
0000
0000
0000
,
0010
0000
0000
0000
,
0000
0000
0000
0000
,
0001
0000
0000
0000
,
0000
0000
0000
0000
,
0100
0000
0000
0000
,
0100
0000
0000
0000
,
0100
0000
0000
0000
,
0100
0000
0000
0000
,
0010
0000
0000
0000
,
0010
0000
0000
0000
,
0010
0000
0000
0000
,
0010
0000
0000
0000
,
1001
0000
0000
0000
,
1000
0000
0000
0000
,
0001
0000
0000
0000
,
0010
0000
0000
0000
,
0001
0000
0000
0000
,
1000
0000
0000
0000
,
0010
0000
0000
0000
,
1000
0000
0000
0000
,
0001
0000
0000
0000
,
0001
0000
0000
0000
,
0010
0000
0000
0000
,
0010
0000
0000
0000
,
0100
0000
0000
0000
,
0100
0000
0000
0000
,
1000
0000
0000
0000
,
1000
0000
0000
0000
,
1001
0000
0000
0000
,
0001
0000
0000
0000
,
1001
0000
0000
0000
,
1000
0000
0000
0000
,
0110
0000
0000
0000
,
0010
0000
0000
0000
,
0110
0000
0000
0000
,
0100
0000
0000
0000
,
1001
0000
0000
0000
,
0001
0000
0000
0000
,
1001
0000
0000
0000
,
1000
0000
0000
0000
,
0110
0000
0000
0000
,
0100
0000
0000
0000
,
0110
0000
0000
0000
,
0010
0000
0000
0000
,
0001
0000
0000
0000
;
