#VERSION:0.83;
#TITLE:Mr. Vampire;
#SUBTITLE:;
#ARTIST:ITZY;
#TITLETRANSLIT:;
#SUBTITLETRANSLIT:;
#ARTISTTRANSLIT:;
#GENRE:;
#ORIGIN:;
#CREDIT:DigiMindAxel;
#BANNER:Mr. Vampire.png;
#BACKGROUND:Mr. Vampire-bg.png;
#PREVIEWVID:;
#JACKET:Mr. Vampire-jacket.png;
#CDIMAGE:;
#DISCIMAGE:;
#LYRICSPATH:Mr. Vampire.lrc;
#CDTITLE:DigiMindAxel original simfile.png;
#MUSIC:Mr. Vampire.ogg;
#OFFSET:-0.262000;
#SAMPLESTART:41.643494;
#SAMPLELENGTH:12.000000;
#SELECTABLE:YES;
#BPMS:0.000=174.000;
#STOPS:;
#DELAYS:;
#WARPS:;
#TIMESIGNATURES:0.000=4=4;
#TICKCOUNTS:0.000=4;
#COMBOS:0.000=1;
#SPEEDS:0.000=1.000=0.000=0;
#SCROLLS:0.000=1.000;
#FAKES:;
#LABELS:0.000=Song Start;
#BGCHANGES:0.125=Mr. Vampire.avi=1.000=1=0=0=StretchNoLoop==CrossFade==,
99999=-nosongbg-=1.000=0=0=0 // don't automatically add -songbackground-
;
#KEYSOUNDS:;
#ATTACKS:
;

//---------------dance-single - ----------------
#NOTEDATA:;
#CHARTNAME:;
#STEPSTYPE:dance-single;
#DESCRIPTION:;
#CHARTSTYLE:;
#DIFFICULTY:Easy;
#METER:5;
#RADARVALUES:0.252674,0.356028,0.041519,0.099646,0.000000,213.000000,208.000000,5.000000,12.000000,0.000000,0.000000,0.000000,0.000000,0.000000,0.252674,0.356028,0.041519,0.099646,0.000000,213.000000,208.000000,5.000000,12.000000,0.000000,0.000000,0.000000,0.000000,0.000000;
#CREDIT:;
#NOTES:
0000
0000
0000
0000
,
0000
0000
0000
0000
,
0000
0000
0000
0000
,
0000
0000
0000
0000
,
0000
0000
0000
0000
,
0000
0000
0000
0000
,
1001
0000
0001
0000
,
1000
0000
0001
0000
,
0010
0000
0001
0000
,
0010
0000
0100
0000
,
0010
0000
0100
0000
,
1000
0000
0100
0000
,
1000
0000
0001
0000
,
1000
0000
0001
0000
,
0200
0000
0000
0000
,
0310
0000
0010
0000
,
2000
0000
0000
0000
,
3001
0000
0001
0000
,
0020
0000
0000
0000
,
0031
0000
0001
0000
,
0200
0000
0000
0000
,
0310
0000
0010
0000
,
1001
0000
0001
0000
,
0001
1000
0001
0000
,
0000
0000
1000
0000
,
1000
0001
1000
0000
,
0100
0000
0100
0000
,
1000
0100
1000
0000
,
0010
0100
0000
0010
,
0100
0000
1001
1001
,
0001
1000
0001
0000
,
1000
0100
1000
0000
,
0001
1000
0001
0000
,
0010
0001
0010
0000
,
0001
1000
0001
0000
,
0100
0010
0100
0100
,
0001
1000
0001
0000
,
0010
0001
0010
0000
,
0001
0010
0100
1000
,
0010
0100
0001
0000
,
1000
0100
0010
0001
,
1000
0010
0100
0000
,
0010
0100
0001
0100
,
0010
0100
0001
0000
,
0100
0010
1000
0010
,
0100
0010
1000
0000
,
0001
0001
1000
0000
,
0100
0100
1000
0000
,
0010
0010
0100
0100
,
0001
0001
1000
1000
,
0100
0010
0100
0000
,
1000
0010
1000
0000
,
0001
0100
0001
0000
,
1000
0010
1000
0000
,
0002
0000
0000
0000
,
2003
0000
0000
0000
,
3100
0000
0010
0000
,
0001
0100
0010
0000
,
2000
0000
0000
0000
,
3002
0000
0000
0000
,
0013
0000
0100
0000
,
1000
0001
0100
0000
,
0002
0000
1000
0000
,
1000
0000
1003
0000
,
0200
0000
1000
0000
,
1000
0000
1300
0000
,
0020
0000
0100
0000
,
0100
0000
0130
0000
,
0002
0000
0010
0000
,
0013
0000
0000
0000
,
1001
0000
0001
0000
,
1000
0100
0010
0001
,
1000
0000
1000
0000
,
0010
0100
0001
0100
,
0010
0000
0010
0000
,
1000
0100
0010
0001
,
1000
0000
1000
0000
,
0100
1000
0010
0000
,
0100
0001
0100
0001
,
1000
0100
0010
0000
,
0100
1000
0100
1000
,
0001
0100
0010
0000
,
0100
0001
0100
0001
,
1000
0100
0010
0000
,
0001
0010
0001
0010
,
0001
1000
0010
0100
;

//---------------dance-single - ----------------
#NOTEDATA:;
#CHARTNAME:;
#STEPSTYPE:dance-single;
#DESCRIPTION:;
#CHARTSTYLE:;
#DIFFICULTY:Medium;
#METER:10;
#RADARVALUES:0.436546,0.498439,0.207596,0.199293,0.000000,368.000000,343.000000,25.000000,24.000000,0.000000,0.000000,0.000000,0.000000,0.000000,0.436546,0.498439,0.207596,0.199293,0.000000,368.000000,343.000000,25.000000,24.000000,0.000000,0.000000,0.000000,0.000000,0.000000;
#CREDIT:;
#NOTES:
0000
0000
0000
0000
,
0000
0000
0000
0000
,
0000
0000
0000
0000
,
0000
0000
0000
0000
,
0000
0000
0000
0000
,
0000
0000
0000
0000
,
0001
0010
0100
1000
0002
0000
0000
0000
,
1003
0000
0010
1000
0000
0001
0000
0000
,
1000
0100
0010
0001
2000
0000
0000
0000
,
3000
0001
0000
0000
0010
0100
0010
0000
,
0001
0100
0010
1000
0002
0000
0000
0000
,
0003
1000
0000
0000
0100
0000
0010
0000
,
0001
0100
0010
0000
0100
0010
1000
0000
,
0100
0010
0001
1000
,
1010
0010
0110
0000
,
0100
0000
0001
0010
0000
0100
0000
0000
,
1001
1000
1100
0000
,
0000
1001
0000
0000
0010
0001
0010
0000
,
0101
0001
1001
0000
,
0000
1001
0000
0000
0010
0000
0100
0000
,
1000
0010
0100
0000
0010
0100
0001
0000
,
0010
0100
1000
0001
,
2000
0000
0000
0010
0010
0000
3010
0000
,
0000
1000
0001
0000
0001
0000
0001
0000
,
0020
0000
0000
0100
0100
0000
0130
0000
,
0000
1000
0001
0000
0001
0000
0001
0000
,
0200
0000
0000
0010
0010
0000
0310
0000
,
0000
1000
0001
0000
0001
0000
0001
0000
,
0101
0101
0000
1010
,
1010
0000
0110
0110
,
1001
0000
0000
1000
0100
0000
0010
0100
,
0000
2000
0000
0000
0001
0000
3001
0000
,
1001
0000
0000
1000
0100
0000
0010
0100
,
0000
2000
0000
0000
0001
0000
3001
0000
,
1001
0000
0000
0001
0100
0000
0010
0100
,
0000
0002
0000
0000
1000
0000
1003
0000
,
0001
1000
0000
0001
0100
0000
0010
0100
,
0000
0001
1000
0000
0010
0000
0010
0000
,
1001
0000
0010
0000
0100
0000
1000
0001
,
0000
0200
0000
0000
0001
0000
0301
0000
,
1001
0000
0100
0000
0010
0000
0001
1000
,
0000
0020
0000
0000
1000
0000
1030
0000
,
1001
0000
0010
0000
0100
0000
1000
0010
,
0000
0200
0000
0000
0010
0000
0310
0000
,
1000
0001
0000
0010
0001
0000
0100
0010
,
0000
1000
0100
0000
1000
0000
1000
0000
,
0001
0010
0100
0010
0001
0000
0000
0000
,
0100
0001
0010
0001
0100
0000
0000
0000
,
0010
1000
0010
0000
0100
0010
0100
0000
,
0001
1000
0001
1000
0100
0000
0100
0000
,
0000
0000
1000
0100
0010
0000
0001
1000
,
0000
0000
0010
0100
0001
0000
0001
0000
,
0000
0000
0010
0001
0100
0000
0001
1000
,
0000
0100
0010
0000
0001
0000
0001
0000
,
0200
0010
0010
0300
,
0002
0000
1000
0003
,
0020
0100
0100
0030
,
0002
0000
0100
0003
,
2000
0100
0100
3000
,
0020
0000
0100
0030
,
1000
0100
0001
0100
,
1000
0001
0100
0001
1000
0000
1000
0000
,
0020
0000
0000
1000
1000
0000
1030
0000
,
0000
0001
1000
0000
1000
0000
1000
0000
,
0200
0000
0000
0010
0010
0000
0310
0000
,
0000
0001
1000
0000
1000
0000
1000
0000
,
0002
0000
0000
0100
0100
0000
0103
0000
,
0000
0001
1000
0000
1000
0000
1000
0000
,
0001
0010
0100
0000
1000
0100
0010
0000
,
0001
0000
0110
0110
,
1001
0000
1000
0001
0100
0000
0001
1000
,
0000
0200
0000
0000
1000
0000
1300
0000
,
1001
0000
0001
1000
0100
0000
1000
0010
,
0000
0200
0000
0000
0001
0000
0301
0000
,
1001
0000
1000
0001
0010
0000
0100
0010
,
0000
0002
0000
0000
0100
0000
0103
0000
,
0001
1000
0000
0100
1000
0000
0010
0100
,
0000
0001
0010
0000
0001
0000
0001
0000
,
1000
0100
0001
0000
0100
0000
1000
0001
,
0000
1000
0100
1000
0001
0000
0001
0000
,
1000
0010
0001
0000
0010
0000
1000
0001
,
0000
1000
0100
1000
0001
0000
0001
0000
,
1000
0100
0001
0000
0100
0000
1000
0001
,
0000
1000
0010
1000
0001
0000
0001
0000
,
1000
0010
0001
0000
0010
0000
1000
0001
,
0000
1000
0010
1000
0001
0000
0001
0000
;

//---------------dance-single - ----------------
#NOTEDATA:;
#CHARTNAME:;
#STEPSTYPE:dance-single;
#DESCRIPTION:;
#CHARTSTYLE:;
#DIFFICULTY:Hard;
#METER:12;
#RADARVALUES:0.594319,0.607012,0.639397,0.473320,0.016608,501.000000,424.000000,77.000000,57.000000,0.000000,0.000000,0.000000,0.000000,0.000000,0.594319,0.607012,0.639397,0.473320,0.016608,501.000000,424.000000,77.000000,57.000000,0.000000,0.000000,0.000000,0.000000,0.000000;
#CREDIT:;
#NOTES:
// measure 0
0000
0000
0000
0000
,  // measure 1
0000
0000
0000
0000
,  // measure 2
0000
0000
0000
0000
,  // measure 3
0000
0000
0000
0000
,  // measure 4
0000
0000
0000
0000
,  // measure 5
0000
0000
0000
0000
,  // measure 6
1001
0000
1010
0000
0100
0001
0010
0001
,  // measure 7
0100
0000
1001
0000
0000
0000
1000
0001
,  // measure 8
1000
0010
0001
0010
1000
0100
0001
0100
,  // measure 9
1000
1100
0000
0010
,  // measure 10
0011
0000
0100
1000
0000
0010
0200
0000
,  // measure 11
0000
0301
0000
0000
1000
0100
0010
0001
,  // measure 12
2000
3200
0302
0023
,  // measure 13
2030
3200
0320
0031
,  // measure 14
2002
0000
0000
0000
3003
0000
0001
0010
,  // measure 15
0100
1000
0001
0100
0000
1000
0100
0000
,  // measure 16
0001
0000
0010
0100
1000
0001
0100
0000
,  // measure 17
1001
0000
1000
0100
0000
0001
0100
0000
,  // measure 18
1000
1100
0001
0101
,  // measure 19
1000
0010
0100
0001
1000
0000
1100
0000
,  // measure 20
0010
0001
1000
0001
0010
0000
0001
1000
,  // measure 21
0100
1000
0001
0000
2001
0000
0000
0000
,  // measure 22
3010
0000
0000
0010
0010
0000
0110
0000
,  // measure 23
0000
1000
1000
0000
1001
0000
1001
0000
,  // measure 24
1100
0000
0000
0100
0100
0000
0110
0000
,  // measure 25
0000
0001
0001
0000
1001
0000
1001
0000
,  // measure 26
0101
0000
0000
0100
0100
0000
0110
0000
,  // measure 27
0000
1000
1000
0000
1001
0000
1001
0000
,  // measure 28
0001
0000
0010
0000
0100
0000
1000
0000
0200
0000
0000
0302
0000
0000
0013
0000
,  // measure 29
0000
0000
1000
1000
1001
0000
1001
0000
,  // measure 30
0011
0000
0100
1000
0002
0000
0100
0103
,  // measure 31
0000
0120
0000
0000
1030
0000
1001
0000
,  // measure 32
1100
0000
0010
0001
0200
0000
0001
0301
,  // measure 33
0000
0120
0000
0000
1030
0000
1001
0000
,  // measure 34
0011
0000
0100
1000
0020
0000
1000
1030
,  // measure 35
0000
0210
0000
0000
0301
0000
1001
0000
,  // measure 36
1000
1000
0001
0100
0100
0000
0001
0001
,  // measure 37
1000
0100
0100
0000
2100
0000
3002
0000
,  // measure 38
1003
0010
0100
0001
1000
0100
0001
0100
,  // measure 39
0000
1000
0010
0100
0101
0000
1001
0000
,  // measure 40
1000
0100
0010
0001
1000
0010
0001
0010
,  // measure 41
0000
1000
0100
0010
0011
0000
1001
0000
,  // measure 42
1100
0000
0010
0001
2000
0000
3100
0010
,  // measure 43
0002
0203
2300
3020
,  // measure 44
0031
0010
0100
1000
0001
0100
1000
0100
,  // measure 45
0000
0001
0010
0100
1100
0000
1001
0000
,  // measure 46
0001
0000
0100
0002
0000
0000
1003
0000
1000
0000
0000
0000
1001
0000
0000
0000
,  // measure 47
1000
0000
0010
2000
0000
0000
3001
0000
0002
0000
1000
0000
1003
0000
0000
0000
,  // measure 48
0001
0010
1000
0010
0001
0010
0100
1000
,  // measure 49
0001
0100
1000
0100
0002
1000
1003
0000
,  // measure 50
0001
0000
1000
0100
0002
0000
0103
2000
,  // measure 51
0000
3000
0001
0010
1000
0010
0001
0000
,  // measure 52
1000
0001
0010
0001
1000
0100
0001
0100
,  // measure 53
1000
0010
0100
0001
2000
0000
3001
0000
,  // measure 54
0220
0000
0000
0330
,  // measure 55
0100
0001
0010
0100
0000
1000
0020
0000
,  // measure 56
0030
0000
0110
0000
0101
0000
0001
1000
,  // measure 57
0000
0100
0010
0001
1000
0001
0010
0000
,  // measure 58
0220
0000
0330
0010
,  // measure 59
0010
0100
1000
0100
0000
0001
0200
0000
,  // measure 60
0300
0000
1000
0010
1000
0001
0010
0001
,  // measure 61
1000
0100
0001
0100
1000
1000
0001
0001
,  // measure 62
0010
0000
0000
0010
0010
0000
0110
0000
,  // measure 63
0000
1000
1000
0000
1001
0000
1001
0000
,  // measure 64
0011
0000
0000
0010
0010
0000
0011
0000
,  // measure 65
0000
0001
0001
0000
1001
0000
1001
0000
,  // measure 66
1010
0000
0000
0010
0010
0000
1010
0000
,  // measure 67
0000
1000
1000
0000
1001
0000
1001
0000
,  // measure 68
0001
0000
0010
0000
0100
0000
1000
0000
0200
0000
0000
0302
0000
0000
0013
0000
,  // measure 69
0000
0000
1000
1000
1001
0000
1001
0000
,  // measure 70
0102
0000
0000
1000
1003
0000
0001
0100
,  // measure 71
1000
0100
0001
1000
1100
0000
0011
0000
,  // measure 72
1002
0000
0023
0000
0230
0000
1300
0010
,  // measure 73
0001
0010
1000
0001
0101
0000
1001
0000
,  // measure 74
2010
0000
0000
0001
3001
0000
1000
0100
,  // measure 75
0001
0100
1000
0001
0101
0000
1010
0000
,  // measure 76
1000
0100
0001
0100
1000
0000
0001
0100
,  // measure 77
1000
0100
0001
0000
0101
0000
1001
0000
,  // measure 78
1000
0001
0100
1000
0100
0001
1000
0020
,  // measure 79
0000
1030
0100
0010
1001
0000
0110
0000
,  // measure 80
1000
0001
0010
1000
0010
0001
1000
0200
,  // measure 81
0000
1300
0010
0100
1001
0000
0110
0000
,  // measure 82
2002
0000
3003
0001
1000
0010
0001
0010
,  // measure 83
2000
3200
0302
0023
,  // measure 84
1030
0001
0100
1000
0100
0001
0010
0200
,  // measure 85
0000
1300
0010
0100
1001
0000
0220
0000
,  // measure 86
0330
0000
0000
0000
;

//---------------dance-single - ----------------
#NOTEDATA:;
#CHARTNAME:;
#STEPSTYPE:dance-single;
#DESCRIPTION:;
#CHARTSTYLE:;
#DIFFICULTY:Beginner;
#METER:2;
#RADARVALUES:0.099646,0.178014,0.083039,0.000000,0.000000,84.000000,74.000000,10.000000,0.000000,0.000000,0.000000,0.000000,0.000000,0.000000,0.099646,0.178014,0.083039,0.000000,0.000000,84.000000,74.000000,10.000000,0.000000,0.000000,0.000000,0.000000,0.000000,0.000000;
#CREDIT:;
#NOTES:
0000
0000
0000
0000
,
0000
0000
0000
0000
,
0000
0000
0000
0000
,
0000
0000
0000
0000
,
0000
0000
0000
0000
,
0000
0000
0000
0000
,
1000
0000
0000
0000
,
1000
0000
0000
0000
,
0100
0000
0000
0000
,
0100
0000
0000
0000
,
1000
0000
0000
0000
,
1000
0000
0000
0000
,
0001
0000
0000
0000
,
0010
0000
0000
0000
,
0100
0000
0000
0000
,
0100
0000
0000
0000
,
1000
0000
0000
0000
,
1000
0000
0000
0000
,
0010
0000
0000
0000
,
0010
0000
0000
0000
,
0100
0000
0000
0000
,
0100
0000
0000
0000
,
0001
0000
0000
0000
,
0000
0000
0000
0000
,
0001
0000
0000
0000
,
0000
0000
0000
0000
,
1000
0000
0000
0000
,
0000
0000
0000
0000
,
1000
0000
0000
0000
,
0000
0000
0000
0000
,
1001
0000
0000
0000
,
0000
0000
0000
0000
,
0010
0000
0000
0000
,
0000
0000
0000
0000
,
0110
0000
0000
0000
,
0000
0000
0000
0000
,
0100
0000
0000
0000
,
0000
0000
0000
0000
,
1001
0000
0000
0000
,
0000
0000
0000
0000
,
0001
0000
0000
0000
,
0000
0000
0000
0000
,
1001
0000
0000
0000
,
0000
0000
0000
0000
,
1000
0000
0000
0000
,
0000
0000
0000
0000
,
0010
0000
0010
0000
,
0010
0000
0000
0000
,
0100
0000
0100
0000
,
0100
0000
0000
0000
,
0001
0000
0001
0000
,
0001
0000
0000
0000
,
1000
0000
1000
0000
,
1000
0000
0000
0000
,
1001
0000
0000
0000
,
0001
0000
1000
0000
,
0001
0000
0000
0000
,
0010
0000
0001
0000
,
0010
0000
0000
0000
,
0100
0000
0010
0000
,
0100
0000
0000
0000
,
1000
0000
0010
0000
,
1000
0000
0000
0000
,
0000
0000
0000
0000
,
1000
0000
0000
0000
,
0000
0000
0000
0000
,
0001
0000
0000
0000
,
0000
0000
0000
0000
,
0001
0000
0000
0000
,
0000
0000
0000
0000
,
1001
0000
0000
0000
,
0000
0000
0000
0000
,
0110
0000
0000
0000
,
0000
0000
0000
0000
,
1001
0000
0000
0000
,
0000
0000
0000
0000
,
0110
0000
0000
0000
,
0000
0000
0000
0000
,
1001
0000
0001
0000
,
0001
0000
0000
0000
,
1000
0000
1000
0000
,
1000
0000
0000
0000
,
0010
0000
0010
0000
,
0100
0000
0000
0000
,
0001
0000
0001
0000
,
1000
0000
0100
0100
;
