#TITLE:Matt Silver;
#SUBTITLE:;
#ARTIST:Remo-con;
#TITLETRANSLIT:;
#SUBTITLETRANSLIT:;
#ARTISTTRANSLIT:;
#GENRE:;
#CREDIT:DigiMindAxel;
#BANNER:Matt Silver.png;
#BACKGROUND:Matt Silver-bg.png;
#LYRICSPATH:;
#CDTITLE:beatmania IIDX.png;
#MUSIC:Matt Silver.ogg;
#OFFSET:-0.912000;
#SAMPLESTART:40.320610;
#SAMPLELENGTH:12.000000;
#SELECTABLE:YES;
#BPMS:0.000000=146.000000
;
#STOPS:
;
#BGCHANGES:-3.750=Matt Silver.avi=1.000=1=0=0=StretchNoLoop==CrossFade==,
99999=-nosongbg-=1.000=0=0=0 // don't automatically add -songbackground-
;
#KEYSOUNDS:;
#ATTACKS:;

//---------------dance-single - ----------------
#NOTES:
     dance-single:
     :
     Easy:
     7:
     0.254389,0.410331,0.225612,0.322303,0.000000,221.000000,193.000000,28.000000,40.000000,0.000000,0.000000,0.254389,0.410331,0.225612,0.322303,0.000000,221.000000,193.000000,28.000000,40.000000,0.000000,0.000000:
0000
0000
0000
0000
,
0000
0000
0000
0000
,
0000
0000
0000
0000
,
0000
0000
0000
0000
,
1000
0002
0000
0203
,
0000
0320
0000
2030
,
0000
3002
0000
2003
,
0000
3002
0000
0003
,
1000
1000
1000
1000
,
0001
0001
0001
0001
,
1000
1000
1000
1000
,
0001
0001
0001
0110
,
0010
0100
0010
0100
,
0001
1000
0001
1000
,
0100
1000
0100
1000
,
0001
1000
0001
0000
,
0200
0000
0001
0000
,
0301
0000
1000
0000
,
0200
0000
1000
0000
,
1300
0001
1000
0000
,
0010
0010
0100
0100
,
0001
0001
1000
1000
,
0100
0100
0010
0010
,
2002
0000
0000
3003
,
1000
0001
1000
0001
,
0100
0001
0100
0001
,
0010
0100
0010
0100
,
1000
0010
1000
1000
,
0002
1003
0001
1000
,
0010
0100
0010
0100
,
0001
1000
0001
1000
,
0100
0100
0100
0100
,
2002
0000
0000
3003
,
0220
0000
0000
0330
,
2002
0000
0000
3003
,
0220
0000
0000
0330
,
0200
0000
0000
0000
,
0000
0000
0000
0300
,
0020
0000
0000
0000
,
0030
0000
0000
0000
,
2000
0000
0000
0000
,
3002
0000
0000
0003
,
2000
0000
0000
0000
,
3002
0000
0000
0003
,
0200
0000
0000
0000
,
0320
0000
0000
0030
,
2000
0001
0001
0001
,
0002
0000
0000
3003
,
1000
0100
0010
0001
,
1000
0100
0010
0001
,
1000
0010
0100
0001
,
1000
0010
0100
0001
,
1000
0100
0010
0100
,
1000
0100
0010
0001
,
0200
0000
0000
0000
,
0300
0000
0000
0000
,
1001
0001
1001
0001
,
1001
1000
1001
1000
,
0110
0010
0110
0010
,
0110
0100
0110
0100
,
0002
1003
0001
0110
,
1000
0110
0001
0110
,
1000
1001
0010
1001
,
0010
2002
0000
3003
,
1000
1000
1000
0001
,
0110
0110
0110
0110
,
0010
1000
0001
0010
,
1001
2002
0000
3003
,
0100
0100
0100
0010
,
2002
0000
0000
3003
,
1000
0100
0010
0100
,
1000
0001
0100
0100
,
2002
0000
0000
3003
;

//---------------dance-single - ----------------
#NOTES:
     dance-single:
     :
     Medium:
     11:
     0.474245,0.527569,0.410936,0.185324,0.229641,412.000000,361.000000,51.000000,23.000000,0.000000,0.000000,0.474245,0.527569,0.410936,0.185324,0.229641,412.000000,361.000000,51.000000,23.000000,0.000000,0.000000:
0000
0000
0000
0000
,
0000
0000
0000
0000
,
0000
0000
0000
0000
,
0000
0000
0000
0000
,
1000
0100
0010
0001
0000
0010
0100
1000
,
0001
0010
0100
1000
0000
0100
0010
0001
,
1000
0010
0100
0001
0000
0100
0010
1000
,
0001
0100
0010
1000
0000
1000
0000
1000
,
0101
1001
0101
1001
,
0101
1001
0101
1001
,
1100
1001
1100
1001
,
1100
0000
0000
0000
1001
0000
0000
0000
2200
0000
0000
0000
0000
3300
0000
0000
,
1001
0000
0010
0100
1001
0000
0010
0100
,
1001
0000
0010
0100
1001
0000
2200
0000
,
3300
0000
0100
0010
1001
0000
0100
0010
,
1001
0000
0100
0010
2002
0000
3003
0000
,
1100
0001
1100
0001
,
1100
0001
1100
0001
,
0110
1000
0110
0001
,
0110
2002
0000
3003
,
0101
1000
0101
1000
,
0101
1000
0101
1000
,
0110
0001
0110
1000
,
2002
0000
0000
3003
,
1000
0100
0010
0000
0100
1000
0001
0000
,
0100
0001
0010
0000
0001
0010
0100
0000
,
1000
0010
0100
0000
0001
1000
0100
0000
,
1000
0100
0010
0000
0100
1000
0100
1000
,
0002
0000
1003
0000
0001
0010
0100
1000
,
0001
0100
0010
0000
1000
0100
0010
0001
,
1000
0010
0100
0000
0001
1000
0100
0010
,
0001
0100
0001
0100
0001
0100
0001
0100
,
0010
0000
0000
1000
0000
0100
0000
0010
0000
0000
0000
0001
0000
0000
1000
0000
,
0010
0000
0000
1000
0000
0000
0100
0000
0000
0010
0000
0000
0001
0000
0000
0000
,
1000
0000
0000
0100
0000
0000
1000
0000
0000
0010
0000
0100
0000
0001
0000
0000
,
1000
0000
0100
0000
0000
1000
0000
0000
0001
0000
0000
0100
0000
0000
0001
0000
,
0010
0010
0010
0010
,
0010
0000
0010
0000
0000
0010
0000
0000
,
0010
0010
0010
0020
,
0030
0000
0000
0000
,
0000
1000
0000
0000
1000
0000
0000
0020
0000
0000
0030
0000
0000
0200
0000
0000
,
0300
0001
0000
0000
0001
0000
0000
0020
0000
0000
0030
0000
0000
0100
0000
0000
,
0000
1000
0000
0000
1000
0000
0000
0020
0000
0000
0030
0000
0000
0200
0000
0000
,
0300
0001
0000
0000
0001
0000
0000
0020
0000
0000
0030
0000
0000
0200
0000
0000
,
1300
0001
0000
0010
0000
1000
0000
0010
,
0000
0001
0000
0010
0000
1000
0000
0010
,
0000
0001
0000
0100
0000
1000
0000
0100
,
0000
0001
0000
0100
0000
1000
0000
0100
,
0001
0010
0100
1000
0001
0010
0100
1000
,
0001
0100
0010
0100
0001
1000
0100
1000
,
0001
0100
0010
1000
0001
0100
0010
1000
,
0001
0010
0100
0010
0001
1000
0010
1000
,
0001
0010
0100
1000
0001
0100
0010
1000
,
0001
0010
0100
1000
0001
0100
0010
1000
,
0200
0000
0000
0000
,
0300
0000
0000
0000
,
1001
0000
0110
0000
1000
0001
0011
0000
,
1001
0000
1100
0000
0010
0001
0101
0000
,
1010
0000
0110
0000
0001
1000
1100
0000
,
0011
0000
0110
0000
1000
0001
0100
0001
,
2000
0000
3001
0000
1000
0001
1000
0001
,
0100
0010
0100
0010
1000
0001
1000
0001
,
0010
0100
0010
0100
1000
0001
1000
0001
,
0100
0010
2000
0000
0000
0000
0000
0000
,
3001
0000
0000
0001
1000
0000
0000
1000
0001
0000
0000
0001
1000
0000
0000
1000
,
0001
0000
0100
0000
0010
0000
1000
0000
1100
0000
0000
0000
,
0001
0000
0000
0001
1000
0000
0000
1000
0001
0000
0000
0001
1000
0000
0000
1000
,
0001
0000
0000
0000
0000
0100
0000
0010
0000
0100
0000
0010
0000
0100
0000
0010
,
1000
0000
0000
1000
0001
0000
0000
0001
1000
0000
0000
1000
0001
0000
0000
0001
,
1000
0000
0100
0000
0010
0000
0001
0000
0101
0000
0000
0000
,
1000
0000
0000
1000
0001
0000
0000
0001
1000
0000
0000
1000
0001
0000
0000
0001
,
1000
0000
0000
1000
0010
0000
0000
0000
0000
0100
0000
0010
0000
0100
0000
0010
,
2000
0000
0000
3000
;

//---------------dance-single - ----------------
#NOTES:
     dance-single:
     :
     Hard:
     15:
     0.725181,0.762044,0.265900,0.362590,0.833958,630.000000,597.000000,33.000000,45.000000,0.000000,0.000000,0.725181,0.762044,0.265900,0.362590,0.833958,630.000000,597.000000,33.000000,45.000000,0.000000,0.000000:
0000
0000
0000
0000
,
0000
0000
0000
0000
,
0000
0000
0000
0000
,
0000
0000
0000
0000
,
0001
0000
1000
0000
0100
0000
1000
0001
0000
0000
1000
0000
0100
0000
1000
0001
,
0000
0000
0100
0000
0010
0000
0100
0001
0000
0000
0100
0000
0010
0000
0100
0001
,
0000
0000
1000
0000
0100
0000
1000
0001
0000
0000
1000
0000
0100
0000
1000
0001
,
0000
0000
0100
0000
0010
0000
0100
0001
0000
0000
0100
0001
0000
0000
0100
0001
,
1000
0000
0000
0000
0100
1000
0100
1000
0100
0000
0000
0000
0010
0001
0010
0001
,
0010
0000
0000
0000
0100
1000
0100
1000
0100
0000
0010
0000
0001
0000
0000
0000
,
1001
0000
0000
0000
0100
0001
0100
0001
0100
0000
0000
0000
0010
1000
0010
1000
,
0010
0000
0000
0000
0100
0001
0100
0001
1000
0000
0000
0100
0000
0010
0000
0000
,
1001
0000
0000
0000
0100
1000
0100
1000
0100
0000
0000
0000
0010
0100
0010
0100
,
0010
0000
0000
0000
0001
0010
0001
0010
0001
0000
0100
0000
0010
0000
0000
0000
,
1001
0000
0000
0000
0100
0001
0100
0001
0100
0000
0000
0000
0010
0100
0010
0100
,
0010
0000
0000
0000
1000
0010
1000
0010
0100
0000
0001
0000
1000
0000
0000
0000
,
1001
0011
1001
1100
,
1001
0011
1001
1100
,
1001
0110
1001
0110
,
1001
0000
0000
0000
1000
0000
0100
0001
0000
0100
0000
0000
1100
0000
0000
0000
,
0010
1000
0001
1000
0010
1000
0001
1000
,
0010
1000
0100
0010
0100
1000
0100
0010
,
0001
0100
0010
0100
0001
0010
0001
1000
,
0010
0000
0010
0000
1001
0000
0000
0010
0000
0100
0000
0000
1000
0000
1100
0000
,
0001
0100
0001
0000
0010
0000
0100
0000
1000
0001
1000
0000
0010
0000
0100
0000
,
0001
1000
0001
0000
0010
0000
0100
0000
0010
0001
0010
0000
0100
0000
1000
0000
,
0010
0100
0010
0000
1000
0000
0100
0000
0010
0001
0010
0000
0100
0000
1000
0000
,
0001
0100
0001
0000
0010
0000
0100
0000
1000
0010
1000
0000
1000
0010
1000
0000
,
2002
0000
3003
0000
1000
0001
0100
0000
0001
0100
0001
0000
0010
0000
0100
0000
,
1000
0001
0010
0000
0001
0010
0001
0000
0100
0000
0010
0000
1000
0000
0010
0000
,
0100
0001
1000
0000
0100
1000
0100
0000
0010
0000
0001
0000
0100
0000
0010
0000
,
1000
0001
1000
0000
1000
0001
1000
0000
1000
0001
1000
0000
1000
0001
1000
0000
,
1001
0000
0001
0100
0000
0100
0000
0010
1000
0000
0000
0100
0000
0000
1000
0000
,
0010
0100
0000
0100
0000
0001
0010
0100
1000
0010
0000
1000
0100
0010
0001
1000
,
0001
0000
0100
0001
0000
0000
1000
0000
0000
0100
0000
0010
0000
0001
0000
0000
,
1000
0000
0001
0100
0000
0100
0000
0010
1000
0000
0000
0001
0000
0001
1000
0000
,
0010
0000
0000
0010
0100
0000
0000
0010
0100
0000
0000
0010
0100
0000
0000
0010
,
0100
0000
0000
0010
0100
0000
0000
0000
0000
0010
0100
0000
0000
0000
0000
0010
,
0100
0000
0010
0100
0000
0010
0100
0000
0010
0100
0000
0010
0200
0000
0000
0000
,
0300
0000
0000
0000
,
0001
2000
0000
0000
3002
0000
0000
1003
0100
1000
0100
0000
0000
0010
0000
0010
,
0000
0002
0000
0000
2003
0000
0000
3001
0010
0001
0010
0000
0000
0110
0000
0000
,
0000
2000
0000
0000
3002
0000
0000
0003
1000
0010
1000
0010
0000
0100
0000
0100
,
0000
0002
0000
0000
2003
0000
0000
3001
0100
0001
0100
0000
0000
0110
0000
0000
,
0001
0000
1000
0100
0000
0000
0001
0100
0000
0000
1000
0100
0000
0000
0001
0100
,
0000
0000
1000
0010
0000
0000
0001
0010
0000
0000
1000
0010
0000
0000
0001
0010
,
1000
1000
1000
1000
1000
1000
1000
1000
,
1000
0100
0010
0001
0000
1000
0001
0000
1000
0100
0010
0001
0000
1000
0001
0000
,
1001
0000
0100
1000
0100
0000
0010
0100
0010
0000
0001
0010
0001
0000
1000
0001
,
1000
0000
0010
1000
0010
0000
0100
0010
0100
0000
0001
0100
0001
0000
1000
0001
,
1000
0000
0100
0010
0001
0000
0100
0010
0100
0000
0001
0010
0100
0000
1000
0001
,
1000
0000
0010
0100
0001
0000
1000
0100
1000
0000
0010
0100
0001
0000
1000
0001
,
2000
3200
0302
0203
2300
3020
0032
0023
,
2030
3200
0302
2003
3200
0320
2030
3002
,
0203
0000
0000
0000
,
0310
0000
1000
0100
0000
0010
0000
0001
0100
0001
0000
1000
0100
1000
0100
0000
,
1000
0001
0010
0000
2002
0000
3003
0000
1000
0001
0010
0000
2002
0000
3003
0000
,
1000
0010
0100
0000
2020
0000
3030
0000
0001
0100
0010
0000
0202
0000
0303
0000
,
0010
0100
1000
0000
0220
0000
0330
0000
0100
0010
0001
0000
0220
0000
0330
0000
,
1000
0010
0100
0000
2002
0000
3003
0000
0001
0100
0010
0000
1000
0001
1000
0000
,
2002
0000
3003
0000
0010
0001
0010
0000
0001
0010
0100
0000
1000
0010
1000
0000
,
0001
0010
0100
0000
0010
0001
0010
0000
0001
0100
0010
0000
1000
0100
1000
0000
,
0001
0100
0010
0000
0100
0001
0100
0000
0001
0010
0100
0000
1000
0010
1000
0000
,
0010
0100
0001
0000
1000
0000
0010
1000
0000
0100
0000
0000
0010
0000
0000
0000
,
0001
0000
0000
0001
1000
0000
0000
1000
0001
0000
0000
0001
1000
0000
0000
1000
,
0001
0100
0001
0100
0010
1000
0100
0000
1100
0000
0000
0000
,
0001
0000
1000
0100
1000
0000
0001
0010
0001
0000
1000
0100
1000
0000
0001
0010
,
0001
0000
1000
0100
0000
0100
0000
0100
0000
0100
0000
0100
0000
0100
0000
0100
,
1000
0000
0001
0100
0001
0000
1000
0010
1000
0000
0001
0100
0001
0000
1000
0010
,
1000
0001
1000
0001
1000
0100
0010
0100
0010
0000
0000
0000
,
0001
0000
1000
0100
1000
0000
0001
0100
0001
0000
1000
0010
1000
0000
0001
0010
,
0100
0000
1000
0100
0010
0000
0001
0100
0000
0010
0000
0010
0000
0010
0000
0010
,
2000
0000
0000
3000
;

//---------------dance-single - ----------------
#NOTES:
     dance-single:
     :
     Challenge:
     17:
     0.973814,1.025829,0.435108,0.169209,1.470505,846.000000,792.000000,54.000000,21.000000,0.000000,0.000000,0.973814,1.025829,0.435108,0.169209,1.470505,846.000000,792.000000,54.000000,21.000000,0.000000,0.000000:
// measure 0
0000
0000
0000
0000
,  // measure 1
0000
0000
0000
0000
,  // measure 2
0000
0000
0000
0000
,  // measure 3
0000
0000
0000
0000
,  // measure 4
1000
0001
0100
0001
1000
0001
0100
0010
0000
1000
0100
1000
0001
1000
0100
0010
,  // measure 5
0000
0001
0100
0001
1000
0001
0100
0010
0000
1000
0001
0010
0001
1000
0010
0100
,  // measure 6
0000
0001
0100
0010
0100
0001
1000
0100
0000
1000
0001
0010
0100
0010
0001
1000
,  // measure 7
0000
0100
1000
0010
1000
0001
0010
0100
0000
0100
0010
0001
0000
0001
0010
0100
,  // measure 8
1001
0000
0000
0001
0100
0010
0100
0010
0100
0000
0000
0100
0010
1000
0010
1000
,  // measure 9
0010
0000
0000
0010
0100
0001
0100
0001
0100
0000
0000
0000
0120
0000
0000
0000
,  // measure 10
1030
0000
0000
1000
0001
0010
0001
0010
0001
0000
0000
0001
1000
0010
1000
0010
,  // measure 11
1000
0000
0000
1000
0100
0010
0100
0010
0100
0000
0000
1000
0000
1010
0000
0000
,  // measure 12
1001
0000
0000
0001
1000
0100
1000
0100
1000
0000
0000
1000
0010
0100
0010
0100
,  // measure 13
0010
0000
0000
0010
1000
0001
1000
0001
1000
0000
0000
0000
1200
0000
0000
0000
,  // measure 14
0310
0000
0000
0010
0001
0100
0001
0100
0001
0000
0000
0001
1000
0100
1000
0100
,  // measure 15
1000
0000
0000
1000
0010
0100
0010
0100
0010
0000
0101
0000
0000
0000
0000
0000
,  // measure 16
1001
0001
0011
0000
0110
0100
1100
0000
,  // measure 17
1001
0000
0001
0000
0101
0000
0000
0000
0110
0000
0010
0000
1010
0000
0000
1000
,  // measure 18
0001
0000
1000
0000
1100
0000
0000
0010
0001
0000
1000
0000
1001
0000
0000
0010
,  // measure 19
0100
0000
0001
0000
0101
0000
2000
0001
0000
0001
0000
0000
3001
0100
0000
0000
,  // measure 20
1001
0000
0010
0001
0010
0000
0001
1000
0001
0000
0010
0001
0010
0000
0001
1000
,  // measure 21
0001
0000
1000
0010
1000
0000
0010
0100
0010
0000
1000
0010
1000
0000
0010
0100
,  // measure 22
0010
0000
1000
0001
1000
0000
0001
0010
0001
0000
1000
0001
1000
0000
0000
0000
,  // measure 23
0010
0000
0010
0000
0110
0000
1000
0010
0000
0100
0000
0001
1000
0000
1001
0000
,  // measure 24
0001
0010
0100
0000
0010
0001
0100
0000
0001
0010
0100
0000
0010
0001
0100
0000
,  // measure 25
0001
1000
0100
0000
1000
0010
0100
0000
0001
1000
0100
0000
1000
0010
0100
0000
,  // measure 26
0001
0100
0010
0000
0001
0010
0100
0000
0001
0100
0010
0000
0001
0010
0100
0000
,  // measure 27
0001
1000
0010
0000
0100
0010
1000
0000
0001
0100
1000
0000
0001
0010
1000
0000
,  // measure 28
2002
0000
3003
0000
1000
0010
0100
0000
0010
1000
0100
0000
1000
0010
0100
0000
,  // measure 29
0010
1000
0100
0000
1000
0001
0010
0000
0100
0010
0001
0000
1000
0001
0010
0000
,  // measure 30
0100
0010
0001
0000
1000
0010
0100
0000
0001
0010
0100
0000
1000
0010
0100
0000
,  // measure 31
0001
0100
1000
0000
0001
0010
1000
0000
0001
0100
1000
0000
0001
0010
1000
0000
,  // measure 32
1001
0000
0100
1000
0000
1001
0000
0001
0010
0000
0000
1100
0000
0000
0011
0000
,  // measure 33
0001
1000
0000
0001
0100
1000
0100
0001
1000
0100
0000
0100
1000
0001
0010
0100
,  // measure 34
1000
0001
0100
0001
0000
0000
1001
0000
0000
1100
0000
0110
0000
1100
0000
0000
,  // measure 35
1000
0001
0010
0001
1000
0010
0000
0010
1000
0000
0100
0010
0001
1000
0010
0100
,  // measure 36
0010
0000
0000
0100
0010
0100
0000
0100
0010
0100
0000
0100
0010
0100
0000
0100
,  // measure 37
0010
0100
0000
0100
0010
0100
0001
0000
0000
0100
0010
0100
0001
0010
0000
0100
,  // measure 38
1000
0000
0100
1000
0000
0100
1000
0000
0100
1000
0000
0100
1000
0100
1000
0100
,  // measure 39
0000
0000
0000
0000
,  // measure 40
1000
0002
0103
0000
0020
1030
0000
0001
1000
0100
0010
0000
0000
0110
0000
0110
,  // measure 41
0000
0002
0103
0000
0020
1030
0000
0001
1000
0100
0010
0000
0000
0110
0000
0000
,  // measure 42
0000
2000
3100
0000
0020
0031
0000
1000
0010
0100
0010
0000
0000
0110
0000
0110
,  // measure 43
0000
0002
0013
0000
0200
1300
0000
0001
0100
0010
0100
0000
0000
0110
0000
0000
,  // measure 44
1001
0000
1000
0100
0001
0000
1000
0100
0010
0000
1000
0100
0001
0000
1000
0100
,  // measure 45
0010
0000
1000
0010
0001
0000
1000
0010
0100
0000
1000
0010
0001
0000
1000
0010
,  // measure 46
0100
0001
0100
0001
0100
0001
0100
0001
1000
0100
1000
0100
1000
0100
1000
0100
,  // measure 47
1000
0001
0010
0100
0000
0010
0100
0000
0010
0001
1000
0010
0100
0001
1000
0000
,  // measure 48
0001
1000
0100
1000
0001
1000
0100
1000
0001
0100
0010
0100
0001
0100
0010
0100
,  // measure 49
0001
1000
0100
0001
0100
1000
0010
0001
0010
1000
0100
0001
0100
1000
0100
0010
,  // measure 50
0001
1000
0010
0001
0010
1000
0100
0001
0100
1000
0001
0010
0100
1000
0001
0010
,  // measure 51
0100
1000
0001
0100
0001
1000
0100
1000
0001
0100
0001
1000
0100
1000
0001
0010
,  // measure 52
0100
1000
0100
1000
0000
0000
0010
0100
0010
0100
0000
0000
0001
0010
0001
0010
0000
0000
0100
0010
0100
0010
0000
0000
,  // measure 53
0001
0100
0001
0100
0000
0000
0010
1000
0010
1000
0000
0000
0100
0010
0100
0010
0000
0000
0001
1000
0001
1000
0001
1000
,  // measure 54
0002
0000
0000
0000
,  // measure 55
1003
0000
0001
0100
0000
0100
0000
0010
1000
0100
0000
0010
0100
0010
0001
0000
,  // measure 56
1000
0010
0100
0001
1000
0100
1000
0000
0001
0100
0010
1000
0001
0010
0001
0000
,  // measure 57
0100
0010
1000
0100
0010
0001
0010
0000
0001
0100
0010
1000
0100
0010
0100
0000
,  // measure 58
1000
0001
0010
0100
0010
0001
0010
0000
0001
1000
0010
0100
0010
1000
0010
0000
,  // measure 59
1000
0100
0010
0001
0100
0010
0100
0000
0001
0010
0100
1000
0001
0100
0001
0000
,  // measure 60
2002
3003
2002
3003
1000
0100
0001
1000
0100
0010
1000
0000
0001
0010
1000
0001
,  // measure 61
0010
0100
0001
0000
1000
0010
0001
0010
0100
0001
1000
0000
0001
0100
1000
0100
,  // measure 62
0010
1000
0001
0000
1000
0100
0001
0100
1000
0001
0010
0100
1000
0010
0001
0010
,  // measure 63
1000
0100
0010
0001
1000
0000
0001
0100
0000
0110
0000
0000
1010
0000
0000
0000
,  // measure 64
1001
0000
1000
0001
0010
0000
0010
0001
0100
0000
0100
0010
1000
0000
1000
0100
,  // measure 65
0010
0010
0001
0001
0100
0100
0010
0010
2000
3000
0000
0000
,  // measure 66
1001
0000
0001
0010
0100
0000
0100
1000
0010
0000
0010
1000
0100
0000
0100
0010
,  // measure 67
0001
0010
0100
1000
0000
0110
0000
0110
0000
0110
0000
0110
0000
0110
0000
0110
,  // measure 68
1000
0001
0010
0100
0010
0001
1000
0001
0100
0010
0100
0001
1000
0001
0010
0100
,  // measure 69
0010
0000
0000
0000
0001
0000
0000
0000
0101
0000
0000
0000
0010
0000
0000
0000
1000
0000
0000
0000
1100
0000
0000
0000
0010
0000
0000
0000
0001
0000
0000
0000
1001
0000
0000
0000
0010
0000
0000
0100
0000
0000
0010
0000
0000
1000
0000
0000
,  // measure 70
0001
0010
1000
0001
0010
0100
0001
1000
0100
0001
1000
0100
0010
1000
0001
0010
,  // measure 71
0100
0010
0001
1000
0010
0100
0001
1000
0000
0110
0000
0110
0000
0110
0000
0020
,  // measure 72
0200
0000
0000
0330
;

//---------------dance-single - ----------------
#NOTES:
     dance-single:
     :
     Beginner:
     3:
     0.119712,0.203051,0.016115,0.000000,0.000000,104.000000,102.000000,2.000000,0.000000,0.000000,0.000000,0.119712,0.203051,0.016115,0.000000,0.000000,104.000000,102.000000,2.000000,0.000000,0.000000,0.000000:
0000
0000
0000
0000
,
0000
0000
0000
0000
,
0000
0000
0000
0000
,
0000
0000
0000
0000
,
1000
0000
0000
0000
,
0100
0000
0000
0000
,
0010
0000
0000
0000
,
0001
0000
0000
0000
,
1000
0000
1000
0000
,
1000
0000
1000
0000
,
0001
0000
0001
0000
,
0001
0000
0001
0000
,
1000
0000
1000
0000
,
1000
0000
1000
0000
,
0001
0000
0001
0000
,
0001
0000
0001
0000
,
1000
0000
0000
0000
,
0000
0000
0000
0000
,
0100
0000
0000
0000
,
0000
0000
0000
0000
,
0010
0000
0000
0000
,
0001
0000
0000
0000
,
1000
0000
0000
0000
,
0010
0000
0000
0000
,
0100
0000
0100
0000
,
0100
0000
0100
0000
,
0010
0000
0010
0000
,
0010
0000
0010
0000
,
1000
0000
1000
0000
,
1000
0000
1000
0000
,
0001
0000
0001
0000
,
0001
0000
0000
0000
,
0010
0000
0000
0000
,
0001
0000
0000
0000
,
0100
0000
0000
0000
,
0010
0000
0000
0000
,
1000
0000
0000
0000
,
0000
0000
0000
0000
,
1000
0000
0000
0000
,
0000
0000
0000
0000
,
0001
0000
0000
0000
,
0010
0000
0000
0000
,
0001
0000
0000
0000
,
0100
0000
0000
0000
,
0001
0000
0000
0000
,
0010
0000
0000
0000
,
0100
0000
0000
0000
,
1000
0000
0000
0000
,
0010
0000
0010
0000
,
0010
0000
0010
0000
,
0010
0000
0010
0000
,
0010
0000
0010
0000
,
0010
0000
0000
0000
,
0100
0000
0000
0000
,
0010
0000
0000
0000
,
0000
0000
0000
0000
,
1001
0000
1000
0000
,
1000
0000
1000
0000
,
0001
0000
0001
0000
,
0001
0000
0001
0000
,
0001
0000
0010
0000
,
0010
0000
0100
0000
,
0100
0000
1000
0000
,
1000
0000
0000
0000
,
0010
0100
0010
0100
,
0010
0000
0000
0000
,
0100
0010
0100
0010
,
0100
0000
0000
0000
,
0001
1000
0001
1000
,
0001
0000
0000
0000
,
1000
0001
1000
0001
,
1000
0000
0000
0000
,
1001
0000
0000
0000
;
