#TITLE:もってけ!セーラーふく【祭みっくす!】;
#SUBTITLE:;
#ARTIST:remix by 小池雅也@4-EVER;
#TITLETRANSLIT:MOTTEKE! SAILOR FUKU[MATSURI MIX!];
#SUBTITLETRANSLIT:;
#ARTISTTRANSLIT:remix by MASAYA KOIKE@4-EVER;
#GENRE:;
#CREDIT:DigiMindAxel;
#BANNER:MOTTEKE! SAILOR FUKU[MATSURI MIX!].png;
#BACKGROUND:MOTTEKE! SAILOR FUKU[MATSURI MIX!]-bg.png;
#LYRICSPATH:MOTTEKE! SAILOR FUKU[MATSURI MIX!].lrc;
#CDTITLE:DigiMindAxel original simfile.png;
#MUSIC:MOTTEKE! SAILOR FUKU[MATSURI MIX!].ogg;
#OFFSET:-0.006000;
#SAMPLESTART:56.102722;
#SAMPLELENGTH:12.599998;
#SELECTABLE:YES;
#BPMS:0.000000=300.000000
,271.000000=150.000000
,335.000000=300.000000
;
#STOPS:177.000000=1.200000,
190.000000=0.600000
;
#BGCHANGES:;
#KEYSOUNDS:;
#ATTACKS:;

//---------------dance-single - ----------------
#NOTES:
     dance-single:
     :
     Easy:
     8:
     0.325299,0.471314,0.128148,0.138006,0.000000,231.000000,218.000000,13.000000,14.000000,0.000000,0.000000,0.325299,0.471314,0.128148,0.138006,0.000000,231.000000,218.000000,13.000000,14.000000,0.000000,0.000000:
// measure 0
0000
0000
0000
0000
,  // measure 1
0000
0000
0000
0000
,  // measure 2
0000
0000
0000
0000
,  // measure 3
0000
0000
0000
0000
,  // measure 4
0000
0000
0000
0000
,  // measure 5
0000
0000
0000
0000
,  // measure 6
0000
0000
0000
0000
,  // measure 7
0000
0000
0000
0000
,  // measure 8
0000
0000
0000
0000
,  // measure 9
0000
0000
0000
0000
,  // measure 10
1001
0000
1000
0000
,  // measure 11
0100
0000
0010
0000
,  // measure 12
0100
0000
1000
0010
,  // measure 13
0100
0000
0001
1000
,  // measure 14
0001
0000
1001
0000
,  // measure 15
0001
0000
1001
0000
,  // measure 16
1000
0000
1001
0000
,  // measure 17
1000
0000
1001
0000
,  // measure 18
0001
0000
1001
0000
,  // measure 19
0001
0000
1001
0000
,  // measure 20
1000
0000
0100
0000
,  // measure 21
0010
0000
0002
0000
,  // measure 22
1003
0000
0001
0000
,  // measure 23
0100
0000
0001
0000
,  // measure 24
1000
0000
0100
0000
,  // measure 25
1000
0000
0010
0000
,  // measure 26
1000
0000
0100
0000
,  // measure 27
0010
0000
0001
0000
,  // measure 28
1001
0000
0001
0000
,  // measure 29
0100
0000
0110
0000
,  // measure 30
1000
0000
0010
0000
,  // measure 31
1000
0000
0001
0000
,  // measure 32
1000
0000
0100
0000
,  // measure 33
0010
0000
0001
0000
,  // measure 34
0100
0000
0100
0000
,  // measure 35
0010
0000
0010
0000
,  // measure 36
1000
0001
1000
0001
,  // measure 37
1000
0001
1000
0000
,  // measure 38
0010
0000
0010
0000
,  // measure 39
0100
0000
0100
0000
,  // measure 40
0001
0000
0001
0000
,  // measure 41
1000
0000
1000
0000
,  // measure 42
0100
0000
0100
0000
,  // measure 43
0010
0000
0010
0000
,  // measure 44
0001
0000
1000
0000
,  // measure 45
0001
0000
0100
0000
,  // measure 46
0100
0000
0010
0000
,  // measure 47
0010
0000
0000
1000
,  // measure 48
0000
0100
0000
1000
,  // measure 49
0000
1000
0000
0001
,  // measure 50
0000
0001
0000
2002
,  // measure 51
0000
0000
3003
0000
,  // measure 52
0010
0010
0000
2000
,  // measure 53
0000
0000
0000
3000
,  // measure 54
0010
0010
0000
2000
,  // measure 55
0000
0000
0000
3000
,  // measure 56
0100
0100
0000
2000
,  // measure 57
0000
0000
0000
3000
,  // measure 58
0100
0100
0000
2000
,  // measure 59
0000
0000
0000
3000
,  // measure 60
1001
0000
0000
0002
,  // measure 61
0000
0000
0000
0003
,  // measure 62
0100
0100
0000
0002
,  // measure 63
0000
0000
0000
1003
,  // measure 64
0000
0100
0000
1000
,  // measure 65
0000
0001
0000
1000
,  // measure 66
0001
1000
0000
0001
,  // measure 67
0100
0001
0000
0000
,  // measure 68
1000
0100
0010
0001
,  // measure 69
0100
0001
1000
0010
,  // measure 70
1000
0100
0010
0001
,  // measure 71
0000
0000
1000
0020
,  // measure 72
0000
0030
0000
0000
0100
0000
0001
0000
,  // measure 73
0010
0100
1000
0001
,  // measure 74
0200
0000
0000
0000
,  // measure 75
0300
0000
0001
1000
,  // measure 76
0100
1000
0001
0100
,  // measure 77
0010
1000
0001
0010
,  // measure 78
0100
1000
0001
0100
,  // measure 79
0000
0010
2000
0000
,  // measure 80
3001
0100
0001
0010
,  // measure 81
0100
1000
0010
1000
,  // measure 82
0002
0000
0000
0000
,  // measure 83
0000
0003
0000
1000
,  // measure 84
0000
0010
0000
1000
,  // measure 85
0001
0000
1000
0100
,  // measure 86
1000
0010
0100
0000
,  // measure 87
1001
0000
1000
0100
,  // measure 88
0000
1000
0001
0100
,  // measure 89
0000
0001
1000
0100
,  // measure 90
0010
0001
1000
0020
,  // measure 91
0000
0000
0030
1001
,  // measure 92
0000
0001
0000
1000
,  // measure 93
0000
1000
0000
0100
,  // measure 94
0000
0100
0000
1000
,  // measure 95
0001
1000
0001
0010
,  // measure 96
0000
0010
0000
0001
,  // measure 97
0000
0001
0000
0100
,  // measure 98
0000
0100
0000
0010
,  // measure 99
1000
0010
1000
0001
,  // measure 100
0000
0001
0000
0010
,  // measure 101
0000
0010
0000
0001
,  // measure 102
0000
0001
0000
1000
,  // measure 103
0100
1000
0100
0010
,  // measure 104
0000
0010
0000
0001
,  // measure 105
0000
0001
0000
1000
,  // measure 106
0000
0100
0000
0000
;

//---------------dance-single - ----------------
#NOTES:
     dance-single:
     :
     Hard:
     14:
     0.688621,0.840850,0.709744,0.463305,0.000000,489.000000,417.000000,72.000000,47.000000,0.000000,0.000000,0.688621,0.840850,0.709744,0.463305,0.000000,489.000000,417.000000,72.000000,47.000000,0.000000,0.000000:
// measure 0
0000
0000
0000
0000
,  // measure 1
0000
0000
0000
0000
,  // measure 2
0000
0000
0000
0000
,  // measure 3
0000
0000
0000
0000
,  // measure 4
0000
0000
0000
0000
,  // measure 5
0000
0000
0000
0000
,  // measure 6
0000
0000
0000
0000
,  // measure 7
0000
0000
0000
0000
,  // measure 8
0000
0000
0000
0000
,  // measure 9
0000
0000
0000
0100
,  // measure 10
1001
1001
0100
0001
,  // measure 11
0101
0101
1000
0010
,  // measure 12
1000
1001
1000
0010
,  // measure 13
0100
0020
0000
0000
1030
0000
0001
0000
,  // measure 14
2002
3003
0101
1000
,  // measure 15
2002
3003
1100
0001
,  // measure 16
2002
3003
0011
0001
,  // measure 17
2002
3003
1010
1000
,  // measure 18
2002
3003
0011
0010
,  // measure 19
2002
3003
1100
0100
,  // measure 20
1000
0100
0010
0001
0200
0000
0000
0000
,  // measure 21
0320
0000
2030
0000
,  // measure 22
3001
0000
0001
0000
0100
0001
0000
0001
,  // measure 23
1000
0000
0001
0000
0100
0001
0000
0000
,  // measure 24
1001
0000
1000
0000
0010
0100
1000
0100
,  // measure 25
0010
1000
1001
1001
,  // measure 26
0001
0000
0001
0000
0010
0100
0000
0100
,  // measure 27
1000
0000
0001
0000
0100
0001
0000
0000
,  // measure 28
1001
0000
1000
0000
0010
1000
0100
1000
,  // measure 29
0010
1001
1001
0000
,  // measure 30
0001
0000
0001
0000
0100
0010
0000
0010
,  // measure 31
1000
0000
0100
0000
0010
0100
0000
0000
,  // measure 32
1001
0000
0001
0000
0100
0010
0001
0010
,  // measure 33
0100
0001
1001
1001
,  // measure 34
0100
0001
0100
0001
0100
0000
0001
1000
,  // measure 35
0001
1000
0100
0000
1000
0001
0000
0000
,  // measure 36
0100
0100
0100
0100
,  // measure 37
0100
0100
0110
0000
,  // measure 38
0010
0100
0010
0100
0010
0000
1000
0000
,  // measure 39
0001
0100
0001
0000
0100
0010
0000
1000
,  // measure 40
0100
0000
1000
0001
1000
0000
0001
0010
,  // measure 41
0001
0010
0100
1000
0010
0000
1010
0000
,  // measure 42
0001
1000
0001
0000
1001
0000
1000
0100
,  // measure 43
1000
0000
1100
0000
0010
0100
0010
0000
,  // measure 44
0110
0000
0001
0100
,  // measure 45
0010
0000
1000
0000
0001
0010
0001
0010
,  // measure 46
0100
1000
0100
0000
1000
0010
1000
0010
,  // measure 47
0100
0001
0100
0000
0000
0000
0010
0100
,  // measure 48
0010
0100
0010
0000
1000
0100
0010
0000
,  // measure 49
0001
1001
2000
3020
,  // measure 50
0230
0000
0320
0000
1030
0000
0001
1000
,  // measure 51
0001
1000
0001
1000
0000
0000
0101
0000
,  // measure 52
0010
0010
0000
1100
,  // measure 53
0000
0110
0000
0000
0011
0000
0000
0000
,  // measure 54
0100
0100
0000
0011
,  // measure 55
0000
0110
0000
0000
1100
0000
0000
0000
,  // measure 56
0010
0010
0000
1100
,  // measure 57
0000
0110
0000
0000
0011
0000
0000
0000
,  // measure 58
0100
0100
0000
1001
,  // measure 59
0000
0110
0000
0000
1001
0000
0000
0000
,  // measure 60
2002
0000
3003
1010
,  // measure 61
0000
0110
0000
0000
0101
0000
0000
0000
,  // measure 62
0001
0001
0000
0011
,  // measure 63
0000
0110
0000
0000
1100
0000
0010
0000
,  // measure 64
0001
0000
1000
0000
0010
0100
0010
0000
,  // measure 65
0100
0000
0001
1000
0001
0000
1000
0000
,  // measure 66
0100
0000
0010
0000
0001
0100
0001
0100
,  // measure 67
0001
1000
0100
1000
0100
0000
0000
1001
,  // measure 68
0000
0100
2000
0000
3100
0020
0000
0031
,  // measure 69
1000
0010
0100
1000
0100
0020
0000
1030
,  // measure 70
0001
0010
1000
0010
0001
0100
0000
0202
,  // measure 71
0000
0303
0000
1000
0001
0200
0000
0000
,  // measure 72
0310
2000
0000
0000
3100
0010
0000
0001
,  // measure 73
0000
0210
0000
0000
0301
0000
1001
0000
,  // measure 74
0010
0002
0000
0000
0000
0000
1000
0000
,  // measure 75
0100
0000
0013
0000
1001
0000
0000
0001
,  // measure 76
0100
0010
2000
0000
3100
0020
0000
0031
,  // measure 77
0100
0010
2000
0000
3100
0020
0000
0031
,  // measure 78
1000
0100
0001
0100
1000
0001
0000
2002
,  // measure 79
0000
3003
0000
0100
0010
2000
0000
0000
,  // measure 80
3100
0020
0000
0000
0031
0100
0000
0101
,  // measure 81
0000
2001
0000
0000
3100
0000
0010
0000
,  // measure 82
0001
2000
0000
0000
0000
0000
0010
0000
,  // measure 83
3010
0100
0001
0010
0100
1000
0001
0100
,  // measure 84
0001
0000
1000
0010
1000
0000
0100
0000
,  // measure 85
1001
0000
0000
0000
1000
0000
0001
0100
,  // measure 86
0000
0010
1000
0000
0001
0000
0000
0000
,  // measure 87
1001
0000
0100
1100
,  // measure 88
2002
3003
0010
0011
,  // measure 89
2002
3003
0100
1001
,  // measure 90
0100
1001
0100
2002
,  // measure 91
0000
0000
3003
0001
,  // measure 92
0001
0000
1000
0100
0000
1000
0001
0000
,  // measure 93
0010
0000
0100
0010
0000
0000
0001
0000
,  // measure 94
0001
0000
0100
0001
0000
1000
0001
0000
,  // measure 95
0010
1100
1000
1001
,  // measure 96
0001
0000
0010
0001
0000
0100
0010
0000
,  // measure 97
1000
0000
0100
1000
0000
0000
0001
0000
,  // measure 98
0001
0000
0100
0001
0000
1000
0100
0000
,  // measure 99
0010
0000
0001
1000
0000
0000
1010
0000
,  // measure 100
0010
0000
1000
0001
0000
0010
0001
0000
,  // measure 101
0100
0000
0010
1000
0000
0000
0001
0000
,  // measure 102
0001
0000
0010
0100
0000
1000
0100
0000
,  // measure 103
0010
0000
0001
1000
0000
0000
0100
0000
,  // measure 104
0100
0000
0010
0001
0000
0100
0010
0000
,  // measure 105
1000
0000
0010
1000
0000
0000
0100
0000
,  // measure 106
0100
0000
0010
0001
0010
0001
0000
0000
;

//---------------dance-single - ----------------
#NOTES:
     dance-single:
     :
     Medium:
     10:
     0.454856,0.682389,0.207009,0.315442,0.000000,323.000000,302.000000,21.000000,32.000000,0.000000,0.000000,0.454856,0.682389,0.207009,0.315442,0.000000,323.000000,302.000000,21.000000,32.000000,0.000000,0.000000:
// measure 0
0000
0000
0000
0000
,  // measure 1
0000
0000
0000
0000
,  // measure 2
0000
0000
0000
0000
,  // measure 3
0000
0000
0000
0000
,  // measure 4
0000
0000
0000
0000
,  // measure 5
0000
0000
0000
0000
,  // measure 6
0000
0000
0000
0000
,  // measure 7
0000
0000
0000
0000
,  // measure 8
0000
0000
0000
0000
,  // measure 9
0000
0000
0000
1000
,  // measure 10
1001
0001
0000
1000
,  // measure 11
1100
0100
0000
0010
,  // measure 12
0001
0010
0100
1000
,  // measure 13
0002
0000
0103
0010
,  // measure 14
2002
0000
3003
0010
,  // measure 15
2002
0000
3003
0010
,  // measure 16
2002
0000
3003
0010
,  // measure 17
2002
0000
3003
0010
,  // measure 18
2002
0000
3003
0010
,  // measure 19
2002
0000
3003
0010
,  // measure 20
0001
0010
0200
0000
,  // measure 21
2300
0000
3002
0000
,  // measure 22
1003
0001
0100
0001
,  // measure 23
1000
0100
0010
0000
,  // measure 24
0001
0010
0001
1000
,  // measure 25
0010
0100
0001
0000
,  // measure 26
1000
0001
0100
0001
,  // measure 27
1000
0100
0010
0000
,  // measure 28
0100
1000
0010
0100
,  // measure 29
0001
0001
1001
0000
,  // measure 30
1000
0010
1000
0100
,  // measure 31
0010
0001
1000
0000
,  // measure 32
0010
0100
0010
1000
,  // measure 33
0100
0010
0001
0100
,  // measure 34
0001
0010
1000
0010
,  // measure 35
0001
1000
0001
0000
,  // measure 36
0100
0010
0100
0010
,  // measure 37
0100
0010
0110
0000
,  // measure 38
1000
0100
1000
0001
,  // measure 39
0010
0100
1000
0000
,  // measure 40
0001
0010
0001
1000
,  // measure 41
0010
0100
0001
0000
,  // measure 42
0010
0001
1000
1000
,  // measure 43
0010
0100
0001
1000
,  // measure 44
1000
0000
0001
0100
,  // measure 45
0010
1000
0001
0010
,  // measure 46
0100
0000
1000
0100
,  // measure 47
0010
0001
0000
0100
,  // measure 48
0010
1000
0000
0010
,  // measure 49
0100
0001
0000
1000
,  // measure 50
0001
1000
0001
2002
,  // measure 51
0000
0000
0000
3003
0000
0000
1001
0000
,  // measure 52
0010
0010
0000
1000
,  // measure 53
0000
0100
0000
0000
0001
0000
0000
0000
,  // measure 54
0100
1000
0000
0001
,  // measure 55
0000
0010
0000
0000
1000
0000
0000
0000
,  // measure 56
0010
0001
0000
1000
,  // measure 57
0000
0010
0000
0000
0001
0000
0000
0000
,  // measure 58
0010
1000
0000
0001
,  // measure 59
0000
0010
0000
0000
0100
0000
0000
0000
,  // measure 60
2002
0000
3003
1000
,  // measure 61
0000
0010
0000
0000
0001
0000
0000
0000
,  // measure 62
0010
1000
0000
0001
,  // measure 63
0000
0100
0000
0000
1000
0000
0100
0000
,  // measure 64
0001
1000
0001
0010
,  // measure 65
0100
0010
0001
2000
,  // measure 66
0000
3020
0000
0230
,  // measure 67
0000
0000
0300
0000
0000
0000
0000
1001
,  // measure 68
0000
0001
0100
0001
0100
0010
0000
0010
,  // measure 69
0000
1000
0100
0000
0010
0001
0000
0001
,  // measure 70
0000
1000
0100
1000
0001
0100
0000
1001
,  // measure 71
0000
0000
0000
0002
0000
2003
0000
0000
,  // measure 72
0100
3100
0000
0000
0000
0010
0000
0001
,  // measure 73
0000
2000
0000
0000
3001
0000
1000
0000
,  // measure 74
0010
0200
0000
0000
0000
0000
0001
0000
,  // measure 75
0001
0000
0001
0000
0301
0000
0000
0100
,  // measure 76
0010
1000
0100
0000
0000
1000
0000
1000
,  // measure 77
0001
0010
0100
0000
0000
1000
0000
0100
,  // measure 78
0000
0010
0100
0000
1000
0010
0000
0110
,  // measure 79
0000
0000
0000
1000
0100
0020
0000
0000
,  // measure 80
0000
0032
0000
0000
0000
0103
0000
0010
,  // measure 81
0000
2000
0000
0000
3001
0000
1000
0000
,  // measure 82
0010
0200
0000
0000
0000
0000
0000
0000
,  // measure 83
0000
0300
0000
1001
,  // measure 84
0000
1001
0000
1000
,  // measure 85
0001
0000
1000
0001
,  // measure 86
0010
0100
1000
0000
,  // measure 87
1001
0000
0001
0010
,  // measure 88
0100
0000
0000
1000
,  // measure 89
0100
0010
0000
1001
,  // measure 90
0000
1001
0000
0200
,  // measure 91
0000
0000
0000
0301
,  // measure 92
1000
0001
0000
1000
,  // measure 93
0100
1000
0000
0010
,  // measure 94
0100
0010
1000
0100
,  // measure 95
0010
0100
0000
1000
,  // measure 96
0001
1000
0000
0001
,  // measure 97
0010
0001
0000
1000
,  // measure 98
0010
1000
0100
0010
,  // measure 99
0001
1000
0000
0010
,  // measure 100
0100
0010
0000
0100
,  // measure 101
0001
0100
0000
0010
,  // measure 102
1000
0010
1000
0100
,  // measure 103
0010
0001
0000
0100
,  // measure 104
0001
0100
0000
0001
,  // measure 105
1000
0001
0000
1000
,  // measure 106
0100
1000
0010
0000
;

//---------------dance-single - ----------------
#NOTES:
     dance-single:
     :
     Challenge:
     16:
     0.902671,0.945956,0.837892,0.364730,0.004929,641.000000,556.000000,85.000000,37.000000,0.000000,0.000000,0.902671,0.945956,0.837892,0.364730,0.004929,641.000000,556.000000,85.000000,37.000000,0.000000,0.000000:
// measure 0
0000
0000
0000
0000
,  // measure 1
0000
0000
0000
0000
,  // measure 2
0000
0000
0000
0000
,  // measure 3
0000
0000
0000
0000
,  // measure 4
0000
0000
0000
0000
,  // measure 5
0000
0000
0000
0000
,  // measure 6
0000
0000
0000
0000
,  // measure 7
0000
0000
0000
0000
,  // measure 8
0000
0000
0000
0000
,  // measure 9
0000
0000
0000
0010
,  // measure 10
1001
1100
0010
0001
,  // measure 11
0101
1001
0100
0010
,  // measure 12
0001
0100
0010
0000
1000
0010
1000
0000
,  // measure 13
0100
0010
0000
0001
0100
0000
0101
0000
,  // measure 14
1001
1000
0110
0101
,  // measure 15
1001
1000
0110
0101
,  // measure 16
1001
1000
0110
0101
,  // measure 17
1001
1000
0110
0101
,  // measure 18
1001
1000
0110
0101
,  // measure 19
1001
1000
0220
0330
,  // measure 20
0001
0100
1000
0100
0001
0010
0100
1000
,  // measure 21
0001
0100
0010
0100
0002
0000
0000
0003
,  // measure 22
1001
0000
1000
0001
0010
0100
0010
0001
,  // measure 23
1000
0010
0100
0001
0010
0100
0000
0000
,  // measure 24
1001
0000
0001
1000
0100
0010
0100
1000
,  // measure 25
0001
0100
0010
1000
0100
0000
1100
0000
,  // measure 26
1001
0000
1000
0001
0010
0100
0010
0001
,  // measure 27
1000
0010
0100
0001
0010
0100
0000
0000
,  // measure 28
1010
0000
1000
0001
0010
1000
0010
0001
,  // measure 29
0010
0100
1000
0000
2002
0000
3003
0000
,  // measure 30
0101
0000
0001
1000
0010
0100
0010
1000
,  // measure 31
0001
0010
1000
0010
0001
0100
0000
0000
,  // measure 32
1001
0000
1000
0001
0100
0010
0100
0001
,  // measure 33
1000
0100
0001
0100
1000
0010
0000
0000
,  // measure 34
1000
0010
0100
0001
0010
0100
1000
0001
,  // measure 35
1000
0010
0100
0001
1000
0100
0000
0000
,  // measure 36
0010
0010
0010
0010
,  // measure 37
0010
0010
1001
0000
,  // measure 38
0001
0100
1000
0100
0001
0000
1000
0100
,  // measure 39
0001
0100
1000
0000
0100
0010
0000
0001
,  // measure 40
1000
0010
0001
0010
0100
0001
1000
0100
,  // measure 41
0010
0100
1000
0000
0110
0000
0110
0000
,  // measure 42
0001
1000
0100
0000
1100
0000
1000
0001
,  // measure 43
0010
0000
0011
0000
0100
1000
0001
0000
,  // measure 44
1001
0000
0000
0000
1001
0000
0001
1000
,  // measure 45
0010
0000
1000
0000
0001
0100
1000
0100
,  // measure 46
0010
1000
0000
0001
1000
0010
0001
0010
,  // measure 47
0100
0001
1000
0000
0000
0000
0001
0100
,  // measure 48
1000
0100
0001
0000
1000
0010
0001
0010
,  // measure 49
1000
0100
0010
0000
0100
1000
0001
1000
,  // measure 50
0010
0001
0010
0100
0001
1000
0010
0100
,  // measure 51
0010
0100
0010
0100
0000
0000
1001
0000
,  // measure 52
0011
0000
0011
0000
0000
0000
2000
0100
,  // measure 53
3000
0020
0100
0030
0200
0001
0300
0000
,  // measure 54
1010
0000
1010
0000
0000
0000
0200
0001
,  // measure 55
0300
0020
1000
0030
2000
0001
3000
0000
,  // measure 56
0011
0000
0011
0000
0000
0000
0200
1000
,  // measure 57
0300
0020
0100
0030
0002
0010
0003
0000
,  // measure 58
1001
0000
1001
0000
0000
0000
0200
0001
,  // measure 59
0300
0020
1000
0030
0200
0010
0300
0000
,  // measure 60
2002
0000
0000
0000
3003
0000
0002
0010
,  // measure 61
0003
2000
0100
3000
0020
0100
0030
0000
,  // measure 62
0101
0000
0101
0000
0000
0000
0002
0010
,  // measure 63
0003
2000
0100
3000
0001
0000
0010
0001
,  // measure 64
0010
0001
0100
0010
1000
0100
0001
0100
,  // measure 65
1000
0100
0010
0001
1000
0010
0200
0001
,  // measure 66
0300
0020
1000
0030
1000
0001
0010
0100
,  // measure 67
0010
0001
1000
0100
0010
0000
0011
0100
,  // measure 68
1000
0010
0110
0000
0001
0011
0000
0100
,  // measure 69
1000
0001
0101
0000
0010
0110
0000
1000
,  // measure 70
0010
0001
0010
1000
0100
0011
0000
2200
,  // measure 71
0000
3300
0000
1000
0001
0100
0100
0100
,  // measure 72
1000
0110
0000
0000
0001
0010
0100
1000
,  // measure 73
0010
1010
0000
0000
1001
0000
1000
0001
,  // measure 74
0100
0100
0100
0100
0100
0100
0002
0003
,  // measure 75
0020
0030
0200
0300
2002
3003
0001
0100
,  // measure 76
0010
1000
1100
0000
0010
0110
0000
0001
,  // measure 77
1000
0010
1010
0000
0100
0110
0000
0001
,  // measure 78
1000
0100
0001
0100
1000
1100
0000
2002
,  // measure 79
0000
3003
0000
0001
1000
0100
0100
0100
,  // measure 80
1000
0011
0000
0000
0001
0100
0010
1000
,  // measure 81
0100
1100
0000
0000
1001
0000
1000
0001
,  // measure 82
0100
0100
0100
0100
0100
0100
0002
0003
,  // measure 83
2000
0000
3001
0010
0100
0000
0100
0000
1000
0000
1000
0000
0001
0000
0010
0000
,  // measure 84
1000
0010
0001
1000
0100
0000
1100
0000
,  // measure 85
1001
0000
0000
0000
0101
0000
0100
0001
,  // measure 86
0010
1000
0010
0001
0100
0000
0000
0000
,  // measure 87
1001
0000
0101
0110
,  // measure 88
0110
1001
1010
0110
,  // measure 89
0110
0000
1001
0000
0010
0000
0100
1000
,  // measure 90
0010
0001
0010
1000
0100
0010
0001
1000
,  // measure 91
0001
1000
0001
1000
0001
0000
1100
0000
,  // measure 92
1000
0001
0010
1000
0010
0001
1000
0010
,  // measure 93
0100
1000
0100
0010
0000
0000
1001
0000
,  // measure 94
1000
0001
0100
1000
0100
0001
0010
0100
,  // measure 95
0010
0001
0100
0010
0000
0000
1100
0000
,  // measure 96
1000
0001
0100
1000
0100
0001
1000
0100
,  // measure 97
0010
0100
1000
0010
0000
0000
1001
0000
,  // measure 98
0001
1000
0010
0001
0010
1000
0001
0010
,  // measure 99
0100
0010
0001
0100
0000
0000
0010
1000
,  // measure 100
0100
1000
0001
0010
1000
0010
0001
1000
,  // measure 101
0100
0010
0100
1000
0000
0000
0001
1000
,  // measure 102
0100
1000
0001
0100
1000
0100
0001
0010
,  // measure 103
0100
0010
0001
1000
0000
0000
0100
1000
,  // measure 104
0010
0100
0001
0010
1000
0010
0001
1000
,  // measure 105
0100
0010
0100
1000
0000
0000
0100
0010
,  // measure 106
0001
1000
0100
0010
0001
1000
0000
0000
;

//---------------dance-single - ----------------
#NOTES:
     dance-single:
     :
     Beginner:
     3:
     0.132373,0.312731,0.088718,0.000000,0.000000,94.000000,85.000000,9.000000,0.000000,0.000000,0.000000,0.132373,0.312731,0.088718,0.000000,0.000000,94.000000,85.000000,9.000000,0.000000,0.000000,0.000000:
0000
0000
0000
0000
,
0000
0000
0000
0000
,
0000
0000
0000
0000
,
0000
0000
0000
0000
,
0000
0000
0000
0000
,
0000
0000
0000
0000
,
0000
0000
0000
0000
,
0000
0000
0000
0000
,
0000
0000
0000
0000
,
0000
0000
0000
0000
,
1000
0000
0000
0000
,
1000
0000
0000
0000
,
0001
0000
0000
0000
,
0001
0000
0000
0000
,
0100
0000
0000
0000
,
0100
0000
0000
0000
,
0100
0000
0000
0000
,
0100
0000
0000
0000
,
0100
0000
0000
0000
,
0100
0000
0000
0000
,
0100
0000
0000
0000
,
0000
0000
0000
0000
,
0010
0000
0000
0000
,
0010
0000
0000
0000
,
1000
0000
0000
0000
,
1000
0000
0000
0000
,
0001
0000
0000
0000
,
0001
0000
0000
0000
,
0010
0000
0000
0000
,
0010
0000
0000
0000
,
0001
0000
0000
0000
,
0001
0000
0000
0000
,
1000
0000
0000
0000
,
1000
0000
0000
0000
,
0010
0000
0000
0000
,
0010
0000
0000
0000
,
0100
0000
0100
0000
,
0100
0000
0100
0000
,
1001
0000
0000
0000
,
0000
0000
0000
0000
,
0001
0000
0000
0000
,
0000
0000
0000
0000
,
0010
0000
0000
0000
,
0000
0000
0000
0000
,
0000
0000
1001
0000
,
0000
0000
1000
0000
,
0000
0000
0100
0000
,
0000
0000
0000
0010
,
0000
0000
0000
0001
,
0000
0000
0000
0010
,
0000
0000
0000
0110
,
0000
0000
0000
1001
,
0000
0000
0000
0000
,
0000
0000
0000
0000
,
0001
0000
0000
0000
,
0000
0000
0000
0000
,
1000
0000
0000
0000
,
0000
0000
0000
0000
,
0001
0000
0000
0000
,
0000
0000
0000
0000
,
1001
0000
0000
0000
,
0000
0000
0000
0000
,
0100
0000
0000
0000
,
0000
0000
0000
1000
,
0000
0000
0000
1000
,
0000
0000
0000
0001
,
0000
0000
0000
0000
,
0000
0000
0000
1001
,
0000
0000
0000
1000
,
0000
0000
0000
0001
,
0000
0000
0000
1000
,
0000
0000
0000
0100
,
0000
0000
0000
0010
,
0000
0000
0000
0001
,
0000
0000
0000
0000
,
0000
0000
0000
0100
,
0000
0000
0000
0001
,
0000
0000
0000
0010
,
0000
0000
0000
0001
,
0000
0000
0000
0100
,
0000
0000
0000
0100
,
0000
0000
0000
0100
,
0000
0000
0000
0000
,
0000
0000
0000
1001
,
0000
1000
0000
1000
,
0000
0000
0000
0100
,
0000
0000
0000
0000
0000
0000
0000
0100
,
0000
0000
0000
1001
,
0000
0000
0000
1001
,
0000
0000
0000
0001
,
0000
0000
0000
0000
,
0000
0000
0000
0100
,
0000
0000
0000
0100
,
0000
0000
0000
0010
,
0000
0000
0000
0010
,
0000
0000
0000
1000
,
0000
0000
0000
1000
,
0000
0000
0000
0001
,
0000
0000
0000
0001
,
0000
0000
0000
0010
,
0000
0000
0000
0010
,
0000
0000
0000
0001
,
0000
0000
0000
0001
,
0000
0000
0000
0100
,
0000
0000
0000
0100
,
0000
0000
0000
0010
;
