#TITLE:ミライどんなだろう;
#SUBTITLE:;
#ARTIST:Mitchie M;
#TITLETRANSLIT:MIRAI DONNA DAROU;
#SUBTITLETRANSLIT:;
#ARTISTTRANSLIT:;
#GENRE:;
#CREDIT:DigiMindAxel;
#BANNER:MIRAI DONNA DAROU.png;
#BACKGROUND:MIRAI DONNA DAROU-bg.png;
#LYRICSPATH:MIRAI DONNA DAROU.lrc;
#CDTITLE:DigiMindAxel original simfile.png;
#MUSIC:MIRAI DONNA DAROU.ogg;
#OFFSET:-0.375000;
#SAMPLESTART:42.630589;
#SAMPLELENGTH:12.000000;
#SELECTABLE:YES;
#BPMS:0.000000=178.000000
;
#STOPS:
;
#BGCHANGES:-4.000=MIRAI DONNA DAROU.avi=1.000=1=0=0=StretchNoLoop==CrossFade==,
99999=-nosongbg-=1.000=0=0=0 // don't automatically add -songbackground-
;
#KEYSOUNDS:;
#ATTACKS:;

//---------------dance-single - ----------------
#NOTES:
     dance-single:
     :
     Easy:
     5:
     0.240587,0.355413,0.043743,0.120294,0.000000,154.000000,150.000000,4.000000,11.000000,0.000000,0.000000,0.240587,0.355413,0.043743,0.120294,0.000000,154.000000,150.000000,4.000000,11.000000,0.000000,0.000000:
0000
0000
0000
0000
,
0000
0000
0000
0000
,
0000
0000
0000
0000
,
0000
0000
0000
0000
,
0001
0010
0001
0010
,
0100
0000
0000
0000
,
0010
0001
0010
0001
,
1000
0000
0000
0000
,
0010
1000
0010
1000
,
0001
0000
0000
0000
,
0010
0100
0010
0100
,
1000
0000
0000
0000
,
0001
1000
0001
1000
,
0100
1000
0100
0010
,
0002
0000
0000
0000
,
0203
0000
0000
0000
,
0310
0100
0010
0100
,
0001
1000
0001
1000
,
0200
0000
0000
0000
,
0320
0000
0000
0000
,
0031
0000
0000
0000
,
0001
0000
0000
0000
,
1000
0000
0000
0000
,
1000
0000
0000
0000
,
0010
0000
0010
0000
,
0100
0000
0100
0000
,
0001
0000
0001
0000
,
1000
0000
1000
0000
,
0100
0010
0100
0000
,
1000
0010
1000
0000
,
0002
0000
0000
0000
,
0000
0000
0000
0000
,
1003
0100
1000
0010
,
1000
0000
0001
0000
,
0010
0001
0010
0001
,
1000
0000
0100
0000
,
1000
0010
1000
0001
,
0100
0000
0001
0000
,
0010
0100
1000
0010
,
0200
0000
0000
0000
,
0301
1000
0001
1000
,
0100
0000
0010
0000
,
0001
0100
0001
0100
,
0010
0000
0000
1001
0000
0000
0000
0000
,
1000
0100
1000
0100
,
0010
0001
0010
0001
,
1000
0010
1000
0010
,
0100
0000
0100
0000
,
0001
1000
0001
1000
,
0010
0000
0010
0000
,
0100
0000
0000
0100
0000
0000
0100
0000
,
0000
1001
0000
0000
,
0001
0002
0000
0103
,
0200
0000
0000
0310
,
2000
0000
0000
0000
,
3001
0000
0000
1001
,
1000
0001
1000
0010
,
0100
0000
0000
0000
,
0001
0010
0001
0010
,
0100
0000
0000
0000
,
1000
0010
1000
0010
,
0100
0000
0000
0000
,
0001
1000
0001
1000
,
0100
0010
0001
1000
,
2002
0000
0000
0000
,
3003
0000
0000
0000
;

//---------------dance-single - ----------------
#NOTES:
     dance-single:
     :
     Medium:
     11:
     0.440555,0.568660,0.229651,0.185908,0.010936,282.000000,261.000000,21.000000,17.000000,0.000000,0.000000,0.440555,0.568660,0.229651,0.185908,0.010936,282.000000,261.000000,21.000000,17.000000,0.000000,0.000000:
0000
0000
0000
0000
,
0000
0000
0000
0000
,
0000
0000
0000
0000
,
0000
0000
0000
0000
,
1000
0010
1000
0010
0000
0010
0000
1000
,
0001
0010
0000
0000
0000
0000
0000
0000
,
0100
1000
0100
1000
0000
1000
0000
0001
,
1000
0010
0000
0000
0000
0000
0000
0000
,
0100
0010
0100
0010
0000
0010
0000
1000
,
0100
0010
0000
0000
0000
0000
0000
0000
,
0001
0100
0001
0100
0000
0100
0000
0001
,
1000
0000
0000
1001
,
0001
0000
0011
0000
0100
1000
0000
0001
,
0000
1000
0100
0010
0001
0000
0100
0010
,
0200
0001
0010
0301
,
2000
0001
0100
3001
,
1000
0000
0010
0000
0100
0001
0000
1000
,
0000
0001
0010
0100
1000
0000
0010
0100
,
0020
1000
0100
1030
,
0002
0000
0000
2000
0000
0000
3003
0000
,
0100
0000
0100
0000
,
0010
0000
0010
0000
,
0100
0000
0100
0000
,
0010
0000
0010
0000
,
1000
0100
1000
0100
,
0010
0001
0010
0001
,
1000
0010
1000
0010
,
0100
0001
0100
0001
,
1000
0100
1000
0100
0000
0010
0010
0000
,
0001
0100
0001
0100
0000
0010
0010
0000
,
2002
0000
0000
0000
,
0000
0000
0000
3003
,
1000
0001
1000
0000
0100
1000
0100
0010
,
0000
0010
0000
0000
0001
0000
0100
0000
,
0010
0100
0010
0000
0100
0001
0100
0010
,
0000
0010
0000
0000
0100
0000
0001
0000
,
1000
0100
1000
0000
0001
0100
0001
1000
,
0000
1000
0000
0100
0000
0010
0000
0001
,
0000
0000
2000
0000
3020
0000
0130
0001
,
1000
0100
0010
0001
,
1000
0010
1000
0000
0001
0010
0001
1000
,
0000
1000
0000
0000
0100
0000
0010
0000
,
0001
0100
0001
0000
1000
0100
1000
0001
,
0000
0001
0000
0101
0000
0101
0000
0100
,
0010
0110
1000
1100
,
0010
0110
1000
1100
,
0010
0001
1000
0000
0010
1000
0001
0000
,
0101
0000
0101
0000
0010
1000
0100
0000
,
0011
0011
1100
1100
,
0010
0001
0010
0100
1000
0001
0010
0000
,
0100
0100
0000
1000
1000
0000
0010
0010
,
0000
2002
0000
3003
,
0001
0000
0000
0000
0100
0000
0020
0000
0000
0000
0000
0000
0000
0000
0000
0000
0000
0000
1030
0000
0000
0100
0000
0000
,
0010
0000
0001
0200
0000
0000
0000
0000
0000
0320
0000
0000
,
2030
0000
0000
0000
,
3001
0000
0000
1001
,
0100
1000
0100
1000
0000
1000
0000
0001
,
1000
0100
0010
0000
0001
0000
1100
0000
,
0010
0001
0010
0001
0000
0001
0000
1000
,
0001
0010
0100
0000
1000
0000
1010
0000
,
0100
0001
0100
0001
0000
0001
0000
1000
,
0001
0100
0010
0000
1000
0000
1001
0000
,
0010
1000
0010
1000
0000
1000
0000
0001
,
1000
0010
0100
0000
0001
0010
0100
1000
,
2002
0000
0000
0000
,
3003
0000
0000
0000
;

//---------------dance-single - ----------------
#NOTES:
     dance-single:
     :
     Hard:
     13:
     0.638962,0.888532,0.426495,0.185908,0.131229,409.000000,370.000000,39.000000,17.000000,0.000000,0.000000,0.638962,0.888532,0.426495,0.185908,0.131229,409.000000,370.000000,39.000000,17.000000,0.000000,0.000000:
0000
0000
0000
0000
,
0000
0000
0000
0000
,
0000
0000
0000
0000
,
0000
0000
0000
0000
,
0100
0100
0100
0100
0000
0100
0000
0100
,
0001
1000
0100
0000
0010
0000
1001
0000
,
0100
0100
0100
0100
0000
0100
0000
0100
,
0010
1000
0001
0010
1000
0010
0001
1000
,
0100
0100
0100
0100
0000
0100
0000
0100
,
1000
0001
0010
0000
0100
0000
1010
0000
,
1000
0010
0100
0001
0000
0001
0000
1000
,
0200
0300
0200
0300
0200
0300
1001
0000
,
0001
0100
0001
0100
0010
1000
0010
0100
,
0000
0100
0001
0010
0001
0010
0100
1000
,
0001
0100
0001
0000
0100
0010
0100
0000
0010
1000
0010
0000
1000
0001
1000
0000
,
0100
1000
0100
0000
0010
0100
0010
0000
0001
0010
0001
0000
1000
0001
1000
0000
,
0001
0010
0001
0010
0100
1000
0100
0010
,
0000
0010
0001
0100
0001
0100
0010
1000
,
0010
0100
0010
0000
1000
0100
1000
0000
0001
0010
0001
0000
0100
0010
0100
0000
,
0001
0100
0001
0000
2000
0000
0020
0000
0000
0000
0000
0000
3030
0000
0000
0000
,
1001
0000
0100
0001
,
0010
0000
0010
0100
,
1000
0000
1000
0001
,
0100
0020
0100
0030
,
0101
0100
1100
0100
,
0101
0100
1100
1001
,
1010
0010
0011
0010
,
1010
0010
0011
1001
,
1000
1000
1000
0010
0000
0100
0110
0000
,
0001
0001
0001
0100
0000
0010
0110
0000
,
2002
0000
0000
0000
,
0000
0000
0000
3003
,
0001
0100
0100
0001
1000
1000
0100
0010
,
0000
0101
0000
0001
1000
0100
0010
0001
,
1000
0010
0010
1000
0001
0001
0010
0100
,
0000
1010
0000
0010
0100
0001
0010
0100
,
1000
0010
0010
1000
0001
0001
0010
0100
,
0000
1010
0000
0110
0000
0101
0000
1001
,
0000
0000
0000
0000
0200
0000
0000
0000
0320
0000
0000
0000
0130
0000
0001
0010
,
0001
0000
0010
0100
0010
0000
0100
1000
0100
0000
1000
0001
1000
0001
1000
0000
,
0001
0010
0010
0001
1000
1000
0100
0010
,
0000
0101
0000
0010
0001
0100
0010
0010
,
1000
0100
0100
1000
0001
0001
0100
0010
,
0000
1010
0000
1001
0000
1001
0000
1001
,
0001
0010
0001
0010
0100
1000
0100
1000
,
0010
0100
0010
0100
0001
1000
0001
1000
,
0010
0001
0010
1000
0100
0001
0100
1000
,
0110
0000
0110
0000
0010
0100
0001
1000
,
0010
0001
0010
1000
0100
0001
0100
1000
,
0001
0010
0100
1000
0001
0010
0100
0000
,
1000
0010
1000
0000
0000
0000
0001
0100
0001
0000
0000
0000
1000
0001
1000
0001
,
0000
0000
1001
0100
0010
0001
1000
0100
,
0011
0000
0000
0000
0002
0000
0200
0000
0000
0000
0000
0000
0000
0000
0000
0303
0000
0000
0010
0000
0000
1000
0000
0000
,
0001
0000
0000
0000
2000
0000
0200
0000
0000
0000
0000
0000
0000
0000
0000
3300
0000
0000
0110
0000
0000
0000
0000
0000
,
1002
0100
1000
0100
,
1003
0000
0000
1001
,
0010
0010
0010
0010
0000
0010
0000
0010
,
1000
0100
0010
0000
0100
1000
0001
0000
,
0010
0010
0010
0010
0000
0010
0000
0010
,
0001
1000
0100
0010
0001
0010
0100
1000
,
0010
0010
0010
0010
0000
0100
0000
1000
,
0001
0010
0100
0000
0010
0001
1000
0000
,
0001
0100
0010
1010
0000
0110
0000
0101
,
0010
0100
1000
0100
0001
0100
1000
0010
,
2002
0000
0000
0000
,
3003
0000
0000
0000
;

//---------------dance-single - ----------------
#NOTES:
     dance-single:
     :
     Beginner:
     2:
     0.104671,0.209967,0.043743,0.000000,0.000000,67.000000,63.000000,4.000000,0.000000,0.000000,0.000000,0.104671,0.209967,0.043743,0.000000,0.000000,67.000000,63.000000,4.000000,0.000000,0.000000,0.000000:
// measure 0
0000
0000
0000
0000
,  // measure 1
0000
0000
0000
0000
,  // measure 2
0000
0000
0000
0000
,  // measure 3
0000
0000
0000
0000
,  // measure 4
1000
0000
0000
0000
,  // measure 5
0000
0000
0000
0000
,  // measure 6
1000
0000
0000
0000
,  // measure 7
0000
0000
0000
0000
,  // measure 8
0001
0000
0000
0000
,  // measure 9
0000
0000
0000
0000
,  // measure 10
0001
0000
0000
0000
,  // measure 11
0000
0000
0000
0000
,  // measure 12
0010
0000
0000
0000
,  // measure 13
0010
0000
0000
0000
,  // measure 14
0100
0000
0000
0000
,  // measure 15
0100
0000
0000
0000
,  // measure 16
0010
0000
0000
0000
,  // measure 17
0010
0000
0000
0000
,  // measure 18
0100
0000
0000
0000
,  // measure 19
0100
0000
0000
0000
,  // measure 20
1000
0000
0000
0000
,  // measure 21
0000
0000
0000
0000
,  // measure 22
1000
0000
0000
0000
,  // measure 23
0000
0000
0000
0000
,  // measure 24
0001
0000
0001
0000
,  // measure 25
0001
0000
0000
0000
,  // measure 26
1000
0000
1000
0000
,  // measure 27
1000
0000
0000
0000
,  // measure 28
0010
0000
0000
0000
,  // measure 29
0100
0000
0000
0000
,  // measure 30
0110
0000
0000
0000
,  // measure 31
0000
0000
0000
0000
,  // measure 32
1001
0000
0000
0000
,  // measure 33
0001
0000
0000
0000
,  // measure 34
1000
0000
0000
0001
,  // measure 35
0000
0000
0000
0000
,  // measure 36
0010
0000
0000
0000
,  // measure 37
0001
0000
0000
0000
,  // measure 38
0100
0000
0000
0000
,  // measure 39
0010
0000
0000
0000
,  // measure 40
1000
0000
0000
0000
,  // measure 41
0100
0000
0000
0000
,  // measure 42
1000
0000
0000
0000
,  // measure 43
0001
0000
0000
0000
,  // measure 44
1000
0000
1000
0000
,  // measure 45
1000
0000
0000
0000
,  // measure 46
0001
0000
0001
0000
,  // measure 47
0001
0000
0000
0000
,  // measure 48
1000
0000
1000
0000
,  // measure 49
1000
0000
0000
0000
,  // measure 50
1001
0000
0000
0000
,  // measure 51
0000
0000
0000
0000
,  // measure 52
0001
0000
0000
0000
,  // measure 53
0010
0000
0000
0000
,  // measure 54
0100
0000
0000
0000
,  // measure 55
1000
0000
0000
0000
,  // measure 56
0001
0000
0001
0000
,  // measure 57
0001
0000
0000
0000
,  // measure 58
1000
0000
1000
0000
,  // measure 59
1000
0000
0000
0000
,  // measure 60
0010
0000
0010
0000
,  // measure 61
0010
0000
0000
0000
,  // measure 62
0100
0000
0100
0000
,  // measure 63
0100
0000
0001
0000
,  // measure 64
1001
0000
0000
0000
;
