#TITLE:マーシャル・マキシマイザー;
#SUBTITLE:;
#ARTIST:柊マグネタイト feat.可不;
#TITLETRANSLIT:MARSHALL MAXIMIZER;
#SUBTITLETRANSLIT:;
#ARTISTTRANSLIT:HIIRAGI MAGNETITE feat.KAFU;
#GENRE:;
#CREDIT:DigiMindAxel;
#BANNER:MARSHALL MAXIMIZER.png;
#BACKGROUND:MARSHALL MAXIMIZER-bg.png;
#LYRICSPATH:MARSHALL MAXIMIZER.lrc;
#CDTITLE:DigiMindAxel original simfile.png;
#MUSIC:MARSHALL MAXIMIZER.ogg;
#OFFSET:-0.077000;
#SAMPLESTART:49.321671;
#SAMPLELENGTH:12.000000;
#SELECTABLE:YES;
#BPMS:0.000000=190.000000
;
#STOPS:
;
#BGCHANGES:-2.000=MARSHALL MAXIMIZER.avi=1.000=1=0=0=StretchNoLoop==CrossFade==,
99999=-nosongbg-=1.000=0=0=0 // don't automatically add -songbackground-
;
#KEYSOUNDS:;
#ATTACKS:;

//---------------dance-single - ----------------
#NOTES:
     dance-single:
     :
     Easy:
     4:
     0.207500,0.311728,0.111731,0.156423,0.000000,130.000000,120.000000,10.000000,14.000000,0.000000,0.000000,0.207500,0.311728,0.111731,0.156423,0.000000,130.000000,120.000000,10.000000,14.000000,0.000000,0.000000:
// measure 0
0000
0000
0000
0000
,  // measure 1
0000
0000
0000
0000
,  // measure 2
0000
0000
0000
0000
,  // measure 3
0000
0000
0000
0000
,  // measure 4
0000
0000
0000
0000
,  // measure 5
0000
0000
0000
0000
,  // measure 6
0000
0000
0000
0000
,  // measure 7
0001
0000
1000
0000
,  // measure 8
0001
0000
0001
0000
,  // measure 9
1000
0000
0100
0000
,  // measure 10
1000
0000
1000
0000
,  // measure 11
2002
0000
0000
0000
,  // measure 12
3003
0000
0000
0000
,  // measure 13
2002
0000
0000
0000
,  // measure 14
3003
0000
0000
0000
,  // measure 15
0220
0000
0000
0000
,  // measure 16
0330
0000
0000
0000
,  // measure 17
0220
0000
0000
0000
,  // measure 18
0330
0000
0000
0000
,  // measure 19
0001
0000
0001
0000
,  // measure 20
1000
0000
0100
0000
,  // measure 21
1000
0000
1000
0000
,  // measure 22
0010
0000
0100
0000
,  // measure 23
1001
0000
0001
0000
,  // measure 24
0001
0000
0001
0000
,  // measure 25
1000
0000
1000
0000
,  // measure 26
1000
0000
0100
0000
,  // measure 27
0010
0000
0001
0000
,  // measure 28
0001
0000
0001
0000
,  // measure 29
0100
0000
0010
0000
,  // measure 30
0100
0000
0000
0000
,  // measure 31
2002
0000
0000
0000
,  // measure 32
0000
0000
0000
3003
,  // measure 33
0220
0000
0000
0000
,  // measure 34
0000
0000
0000
0330
,  // measure 35
1001
0000
0001
0000
,  // measure 36
1000
0000
1000
0000
,  // measure 37
0100
0000
0010
0000
,  // measure 38
0001
0000
0000
0000
,  // measure 39
1001
0000
1001
0000
,  // measure 40
0010
0100
0010
0000
,  // measure 41
1000
0000
0001
0000
,  // measure 42
1000
0100
1000
0000
,  // measure 43
0001
0000
1000
0000
,  // measure 44
0001
0010
0001
0000
,  // measure 45
0100
0000
0010
0000
,  // measure 46
1000
0001
1000
0000
,  // measure 47
0100
0000
0010
0000
,  // measure 48
0001
0100
0001
0000
,  // measure 49
0010
0000
0100
0000
,  // measure 50
1000
0010
1000
0000
,  // measure 51
0100
0000
0010
0000
,  // measure 52
0001
1000
0001
0000
,  // measure 53
0100
0000
0010
0000
,  // measure 54
1000
0001
1000
0000
,  // measure 55
0100
0000
0010
0000
,  // measure 56
0001
0100
0002
0000
,  // measure 57
1000
0000
1000
0000
,  // measure 58
1000
0000
1003
0000
,  // measure 59
0010
0000
0100
0000
,  // measure 60
0001
1000
0002
0000
,  // measure 61
1000
0000
1000
0000
,  // measure 62
1000
0000
1003
0000
,  // measure 63
0001
0000
0010
0000
,  // measure 64
0100
0000
1000
0000
,  // measure 65
0001
0100
0001
0000
,  // measure 66
1000
0010
1000
0000
,  // measure 67
0100
0000
0010
0000
,  // measure 68
0001
0000
1000
0000
,  // measure 69
0010
0100
0010
1000
;

//---------------dance-single - ----------------
#NOTES:
     dance-single:
     :
     Medium:
     11:
     0.486826,0.585538,0.335192,0.022346,0.000000,305.000000,275.000000,30.000000,2.000000,0.000000,0.000000,0.486826,0.585538,0.335192,0.022346,0.000000,305.000000,275.000000,30.000000,2.000000,0.000000,0.000000:
0000
0000
0000
0000
,
0000
0000
0000
0000
,
0000
0000
0000
0000
,
0000
0000
0000
0000
,
0000
0000
0000
0000
,
0000
0000
0000
0000
,
0000
0000
0000
0000
,
0001
0000
0100
0000
0010
1000
0000
0001
,
0000
0001
1000
0000
0100
0000
0010
0000
,
0001
0000
1000
0000
0010
0100
0000
0100
,
0000
0001
1000
0100
0000
0000
1000
0000
,
1001
0000
0000
0001
0000
0000
0000
0000
,
0000
0000
0101
0000
,
1001
0000
0000
1000
0000
0000
0000
0100
,
0000
0100
0010
0000
,
1001
0000
0000
0001
0000
0000
0000
0000
,
0000
0000
0110
0000
,
1001
0000
0000
1000
0000
0000
0000
0110
,
0000
0010
0100
0010
,
1000
0000
0100
0000
0010
0001
0000
1000
,
0000
0001
0010
0000
0100
0000
1000
0001
,
1000
0000
0010
0000
0100
0001
0000
1000
,
0000
0001
0100
0001
0000
1000
0001
0000
,
0000
1001
0010
0010
,
0010
0000
0010
0000
0010
0100
0000
0010
,
0100
0000
0001
0100
0001
0000
0000
1000
,
0000
1000
0100
0000
0010
0000
0001
0000
,
1000
0000
1000
0100
1000
0000
1000
0000
,
1000
0000
1000
0000
1000
0001
0000
1000
,
0001
0000
0000
0001
0000
0000
0000
0100
,
0000
0100
0010
0100
,
1001
1000
1000
1000
,
0001
0001
0001
0001
,
1000
1000
1000
1000
,
0001
0001
0001
0001
,
1000
0100
1000
0000
0001
0010
0001
0000
,
1000
0100
1000
0000
0001
0010
0001
0000
,
0100
0010
0100
0000
0001
0100
0001
0000
,
0100
0010
0100
0001
1000
0000
0000
0000
,
1001
0000
1000
0010
0000
0100
0000
1001
,
0000
0001
0010
0000
1100
0000
0001
0000
,
1001
0000
0100
0000
0010
0001
0000
1000
,
0000
0001
0100
0010
0100
0000
0110
0000
,
1001
0000
0001
0010
0000
0100
0000
1000
,
0000
0001
0100
0010
0100
0000
0110
0000
,
1000
0100
0010
0001
1000
0000
0010
1000
,
0000
0001
0010
0000
1100
0000
0000
0000
,
1001
0000
0001
0100
0000
0010
0000
1001
,
0000
1000
0100
0000
0011
0000
0000
0000
,
1001
0000
1000
0010
0100
0001
1000
0000
,
0001
0010
0100
0000
1010
0000
0010
0000
,
1001
0000
0001
0010
0000
1100
0000
0010
,
0000
0001
1000
0010
0100
0000
0000
0000
,
0001
0010
0100
1000
0001
0000
0100
0010
,
0000
1000
0010
0000
0101
0000
0000
0000
,
1001
0000
1000
0010
0000
0100
0000
1001
,
0000
1000
0100
0000
0020
0000
0000
0000
,
0001
0001
0100
0100
,
0001
0001
0100
0130
,
1001
0000
0001
0010
0000
0100
0000
1001
,
0000
0001
0100
0000
0020
0000
0000
0000
,
1000
1000
0100
0100
,
1000
1000
0100
0130
,
1001
0000
0001
0000
0100
0010
1000
0100
,
0010
0000
0001
0010
0100
1000
0001
0000
,
1000
0000
1000
0010
0000
0100
0001
1000
,
0000
0100
0010
0001
,
1000
0000
1000
0000
0010
0100
0001
0000
,
0010
0100
1000
0001
0100
0000
0001
0000
,
0010
0100
1000
0000
0010
0100
0001
0100
;

//---------------dance-single - ----------------
#NOTES:
     dance-single:
     :
     Hard:
     13:
     0.686345,0.780718,0.413403,0.100558,0.072625,430.000000,393.000000,37.000000,9.000000,0.000000,0.000000,0.686345,0.780718,0.413403,0.100558,0.072625,430.000000,393.000000,37.000000,9.000000,0.000000,0.000000:
0000
0000
0000
0000
,
0000
0000
0000
0000
,
0000
0000
0000
0000
,
0000
0000
0000
0000
,
0000
0000
0000
0000
,
0000
0000
0000
0000
,
0000
0000
0000
0000
,
1000
0000
0100
0000
0001
0100
0000
1000
,
0000
0000
1000
0000
0001
0000
0000
0000
0001
0000
0100
0000
0001
0000
1000
0100
,
0010
0000
0001
0000
0010
1000
0000
0010
,
0000
0001
1000
0100
0000
1000
0001
0100
,
0101
0000
0000
0101
0000
0000
0000
0000
,
0000
0000
0000
0000
0100
0110
0000
0000
,
1100
0000
0000
1100
0000
0000
0000
0110
,
0000
0000
0010
0100
0010
1000
0001
0000
,
1001
0000
0000
1001
0000
0000
0000
0000
,
0000
0000
0000
0000
0010
0110
0000
0000
,
0011
0000
0000
0011
0000
0000
0000
0110
,
0000
0000
0100
0010
0100
0001
1000
0000
,
1001
0000
1100
0000
0001
1000
0000
0010
,
0000
0000
1000
0000
0001
0000
0000
0000
0100
0000
0001
0000
1000
0000
0100
0010
,
0001
0000
1001
0000
0100
1000
0000
0001
,
0000
1000
0100
0010
0000
0001
0100
0010
,
0000
0000
1001
0000
0001
0100
0001
0000
,
1000
0100
1000
0000
0001
0001
1000
0010
,
0010
1000
0001
0001
0010
0000
0000
1001
,
0000
1000
0100
0010
0001
0100
0001
1000
,
0100
0000
1000
0001
1000
0000
0001
0100
,
0001
0000
1000
0100
1000
0001
0001
0100
,
0010
0000
0000
1010
0000
0000
0000
0100
,
0010
0100
0001
1000
0100
0010
0100
1000
,
0001
0000
0000
0000
1000
0000
0001
0100
0001
0000
0010
0000
0100
0000
1000
0000
,
0000
0000
0001
0100
0001
0000
0010
0000
0100
0000
1000
0000
0001
0000
0001
0000
,
0000
0000
1000
0000
0010
0100
0010
0000
1000
0000
0100
0000
0010
0000
0010
0000
,
0100
0100
1000
1000
0010
0010
0100
0000
,
1001
0010
0100
0000
1001
0100
0010
0001
,
0100
1000
0100
0001
1000
0000
1000
0000
,
1001
0010
0100
0000
1001
0010
0100
1000
,
0010
0001
0010
1000
0001
0000
0002
0000
,
1003
0010
0100
1000
0100
0010
1000
0002
,
0000
0013
0100
1000
0001
0000
0100
0010
,
1000
0010
0001
0010
1000
0100
0010
0200
,
0000
1300
0001
0010
1000
0010
0011
0000
,
0001
0100
0010
0001
0010
0100
0001
2000
,
0000
3001
0100
0010
1000
0000
0100
0010
,
0001
0100
1000
0100
0001
0010
1000
0020
,
0000
0031
1000
0100
0010
0100
1100
0000
,
0001
0010
0100
0001
0100
0010
0001
0200
,
0000
0301
0010
0100
1000
0000
0010
0100
,
0001
0010
1000
0010
0001
1000
0001
0100
,
1000
0100
0001
1000
0010
0000
1010
0000
,
1000
0100
0010
1000
0010
0100
1000
0020
,
0000
0130
0001
0010
0100
0000
0010
0001
,
1000
0010
0001
0010
1000
0001
1000
0100
,
0001
0100
1000
0001
0010
0000
0011
0000
,
0001
0100
0010
1000
0100
0001
0000
1001
,
0000
1000
0010
0100
0002
0000
0000
0000
,
1003
0000
0010
0000
0100
0000
0010
0000
1000
0100
1000
0000
0000
0000
0001
0000
,
0100
0010
0100
0000
0010
0000
0010
0000
1000
0000
1000
0000
0001
0000
0000
0000
,
1000
0010
0100
0001
0100
1000
0000
1001
,
0000
0001
0010
0100
2000
0000
0000
0000
,
3001
0000
0010
0000
0100
0000
0010
0000
0001
0100
0001
0000
0000
0000
1000
0000
,
0001
0010
0100
1000
1010
0000
0110
0000
,
1001
0000
0000
0000
0101
0000
0000
0000
1001
0000
0100
0000
0010
0000
0001
1000
,
0010
0000
0010
0000
1000
0000
0010
0100
0001
0000
0010
0000
0100
0000
1000
0000
,
0001
0000
0100
0000
0001
0000
1000
0000
0000
0000
0100
0010
0001
0000
0100
0000
,
0010
0000
0100
0000
0001
0000
0010
0100
1000
0000
0000
0000
1010
0000
0000
0000
,
0101
0000
0000
0000
1001
0000
0100
0000
0010
0001
0010
0000
0100
0000
1000
0000
,
0001
0001
0100
0100
0000
0100
0001
0010
,
0100
1000
0010
1000
0001
0010
0100
0110
;

//---------------dance-single - ----------------
#NOTES:
     dance-single:
     :
     Beginner:
     2:
     0.146846,0.194830,0.201115,0.000000,0.000000,92.000000,74.000000,18.000000,0.000000,0.000000,0.000000,0.146846,0.194830,0.201115,0.000000,0.000000,92.000000,74.000000,18.000000,0.000000,0.000000,0.000000:
0000
0000
0000
0000
,
0000
0000
0000
0000
,
0000
0000
0000
0000
,
0000
0000
0000
0000
,
0000
0000
0000
0000
,
0000
0000
0000
0000
,
0000
0000
0000
0000
,
1000
0000
1000
0000
,
0001
0000
0001
0000
,
0100
0000
0100
0000
,
0010
0000
0000
0000
,
1001
0000
0000
0000
,
0000
0000
0000
0000
,
1001
0000
0000
0000
,
0000
0000
0000
0000
,
0110
0000
0000
0000
,
0000
0000
0000
0000
,
0110
0000
0000
0000
,
0000
0000
0000
0000
,
1000
0000
1000
0000
,
1000
0000
0000
0000
,
0001
0000
0001
0000
,
0001
0000
0000
0000
,
1001
0000
0000
0000
,
0000
0000
0000
0000
,
0010
0000
0000
0000
,
0100
0000
0010
0000
,
0100
0000
0000
0000
,
0000
0000
0000
0000
,
1000
0000
0001
0000
,
1000
0000
0000
0000
,
1001
0000
0000
0000
,
0000
0000
0000
0000
,
0001
0000
0000
0000
,
0000
0000
0000
0000
,
1000
0000
1000
0000
,
1000
0000
0000
0000
,
0001
0000
0001
0000
,
0001
0000
0000
0000
,
1001
0000
0000
0000
,
0110
0000
0000
0000
,
0010
0000
0010
0000
,
0100
0000
0000
0000
,
0110
0000
0000
0000
,
1001
0000
0000
0000
,
1000
0000
1000
0000
,
0001
0000
0000
0000
,
1001
0000
0000
0000
,
0110
0000
0000
0000
,
0100
0000
0100
0000
,
0010
0000
0000
0000
,
0110
0000
0000
0000
,
1001
0000
0000
0000
,
0001
0000
0001
0000
,
1000
0000
0000
0000
,
1001
0000
0000
0000
,
0110
0000
0000
0000
,
0010
0000
0000
0000
,
0100
0000
0000
0000
,
0110
0000
0000
0000
,
1001
0000
0000
0000
,
0001
0000
0000
0000
,
1000
0000
0000
0000
,
0001
0000
0001
0000
,
1000
0000
1000
0000
,
0100
0000
0100
0000
,
0010
0000
0000
0000
,
0001
0000
0001
0000
,
0100
0000
0100
0000
,
0010
0000
0000
1000
;
