#TITLE:Le grand Bleu;
#SUBTITLE:;
#ARTIST:KIEN;
#TITLETRANSLIT:;
#SUBTITLETRANSLIT:;
#ARTISTTRANSLIT:;
#GENRE:;
#CREDIT:DigiMindAxel;
#BANNER:Le grand Bleu.png;
#BACKGROUND:Le grand Bleu-bg.png;
#LYRICSPATH:;
#CDTITLE:EZ2DJ.png;
#MUSIC:Le grand Bleu.ogg;
#OFFSET:-1.311000;
#SAMPLESTART:24.584000;
#SAMPLELENGTH:12.000000;
#SELECTABLE:YES;
#BPMS:0.000000=165.000000
;
#STOPS:
;
#BGCHANGES:-4.000=Le grand Bleu.avi=1.000=1=0=0=StretchNoLoop==CrossFade==,
99999=-nosongbg-=1.000=0=0=0 // don't automatically add -songbackground-
;
#KEYSOUNDS:;
#ATTACKS:;

//---------------dance-single - ----------------
#NOTES:
     dance-single:
     :
     Easy:
     4:
     0.193453,0.328029,0.025233,0.328029,0.000000,161.000000,158.000000,3.000000,39.000000,0.000000,0.000000,0.193453,0.328029,0.025233,0.328029,0.000000,161.000000,158.000000,3.000000,39.000000,0.000000,0.000000:
0000
0000
0000
0000
,
0000
0000
0000
0000
,
0000
0000
0000
0000
,
0000
0000
0000
0000
,
1000
0000
0000
0000
,
0100
0000
0000
0000
,
0010
0000
0000
0000
,
2002
0000
0000
3003
,
0001
1000
0001
0000
,
0010
0000
0100
0000
,
1000
0010
1000
0000
,
0001
0000
0010
0000
,
0100
0010
0100
0000
,
1000
0000
0010
0000
,
0100
0001
0100
0000
,
0001
0000
1000
0000
,
0200
0000
0000
2300
0000
0000
0000
0000
,
3010
0100
0010
0100
,
0002
0000
0023
0000
,
0032
0000
0000
0003
,
2000
0000
0000
3020
0000
0000
0000
0000
,
0230
0000
0000
0302
0000
0000
0000
0000
,
0203
0000
0000
0000
,
0302
0000
0000
0000
,
2003
0000
0000
3200
0000
0000
0000
0000
,
1300
0001
1000
0001
,
2000
0000
3020
0000
,
2030
0000
0000
3000
,
0002
0000
0000
0023
0000
0000
0000
0000
,
0230
0000
0000
2300
0000
0000
0000
0000
,
3001
0100
0001
1000
,
0100
0100
0100
0100
,
2002
0000
0000
0000
,
0000
0000
0000
0000
,
3003
0000
0000
0000
,
0000
0000
0000
0000
,
0001
0000
1000
0000
,
0100
0000
1000
0000
,
0001
0000
0001
0000
,
0010
0000
0100
0000
,
0010
0001
0010
0000
,
0001
1000
0001
0000
,
0010
0001
0010
0001
,
2000
0000
0000
3000
,
1002
0000
0000
0000
,
0023
0000
0000
0000
,
0032
0000
0000
0000
,
2003
0000
0000
0000
,
3200
0000
0000
0000
,
2300
0000
0000
0000
,
3002
0000
0000
0000
,
0023
0000
0000
0000
,
0031
1000
0100
0010
,
0001
0001
1000
1000
,
0001
0010
0100
1000
,
0010
0010
0100
0100
,
0001
1000
0100
1000
,
0001
0001
0100
0100
,
0010
1000
0100
0010
,
0001
0001
1000
1000
,
0100
1000
0100
1000
,
0010
0100
0010
0100
,
0001
0010
0100
1000
,
0001
0010
0100
1000
,
0001
0100
0001
0100
,
0010
0100
0010
0100
,
0001
1000
0100
0010
,
0002
0000
0000
0000
,
2003
0000
0000
0000
,
0010
0000
0000
0000
,
3020
0000
0000
0000
,
1000
0000
0000
0000
,
2030
0000
0000
0000
,
0001
0000
0000
0000
,
3002
0000
0000
0000
,
0010
0000
0000
0000
,
0023
0000
0000
0000
,
0000
0000
0000
0000
,
0030
0000
0000
0000
;

//---------------dance-single - ----------------
#NOTES:
     dance-single:
     :
     Medium:
     11:
     0.421751,0.557649,0.067288,0.445783,0.004205,351.000000,343.000000,8.000000,53.000000,0.000000,0.000000,0.421751,0.557649,0.067288,0.445783,0.004205,351.000000,343.000000,8.000000,53.000000,0.000000,0.000000:
0000
0000
0000
0000
,
0000
0000
0000
0000
,
0000
0000
0000
0000
,
0000
0000
0000
0000
,
2000
0000
0000
3100
,
0020
0000
0000
0001
0000
0000
0031
0000
,
0200
0000
0000
0000
0000
0310
0100
0010
,
2000
0000
0000
0001
0000
0000
3001
0000
,
0101
0000
0001
0000
1000
0100
0010
0001
,
2000
0000
0000
3020
0000
0000
0031
0000
,
1010
0000
1000
0000
0001
0010
0100
1000
,
0002
0000
0000
0203
0000
1300
0100
0001
,
1000
0000
0010
0000
1000
0000
0100
0010
,
0002
0000
0000
0203
0000
0000
1300
0000
,
0101
0000
0001
0000
1000
0100
0010
0001
,
2000
0000
0000
3020
0000
0000
0130
0000
,
1002
0000
0000
0203
0000
0000
0000
0310
,
2000
3200
0320
0032
,
2003
0000
0000
0000
3001
0010
0100
1000
,
0020
0000
0000
0100
0000
0000
0130
0000
,
0002
0000
0000
0203
0000
0000
0310
1000
,
0002
0000
0000
0023
0000
0000
0031
1000
,
0200
0000
0000
0000
0000
1300
0100
0010
,
0002
0000
0000
0100
0000
0000
0103
0000
,
2001
0000
0000
0000
0000
0000
3200
0000
0000
0000
0000
0000
0000
0000
1300
0001
,
2000
3200
0320
0032
,
0203
0000
0000
0000
0301
1000
0100
0010
,
0002
0000
0000
0100
0000
0103
0001
0010
,
0200
0000
0000
0320
0000
0000
0031
0100
,
0020
0000
0000
2030
0000
3001
0010
0100
,
1000
0001
1000
0000
1000
0100
0010
0001
,
1000
0001
1000
0001
1000
0001
0100
0010
,
0200
0000
0001
0000
,
0000
0000
0001
0000
,
0301
0000
0001
0000
1000
0000
0100
0100
,
0100
0010
0001
0000
,
1001
0010
0100
0000
,
0010
0001
0100
0000
,
0010
1000
0100
0000
,
1000
0100
0010
0001
,
1000
0000
0010
0000
1000
0001
1000
0000
,
0010
0000
0100
0000
0001
0100
0001
0000
,
1000
0000
0100
0000
1000
0001
1000
0001
,
0200
0000
0000
0300
,
1002
0000
0000
0010
0000
0000
0013
0100
,
1000
0010
0100
0001
,
2000
0000
0000
0000
3100
0010
0100
0010
,
0002
0000
0000
0100
0000
0103
0010
0100
,
0002
0000
0000
1000
0000
0000
1003
0001
,
0200
0000
0000
0010
0000
0000
0310
0100
,
0002
0000
0000
0000
,
2000
0000
0000
3003
,
0001
1000
0100
1000
0100
0010
0100
0010
,
0100
1000
0010
0100
0001
0010
0100
0000
,
0010
0001
1000
0001
0100
1000
0100
0001
,
0010
0001
0100
0010
1000
0100
1000
0000
,
0100
0010
0001
1000
0001
0100
1000
0100
,
0001
0100
0010
1000
0001
0010
0001
0000
,
0100
0010
1000
0010
0100
0001
1000
0100
,
0010
0100
1000
0001
0010
0100
1000
0000
,
0001
0100
0010
0100
0001
0010
1000
0010
,
0001
1000
0010
1000
0001
0010
0100
0000
,
0001
0100
1000
0100
0001
0100
1000
0100
,
0001
0010
0100
0010
0001
1000
0010
0000
,
0100
0001
1000
0100
0010
0001
0100
0001
,
1000
0100
0010
0001
1000
0010
1000
0000
,
0001
0010
1000
0010
0001
0100
1000
0100
,
0001
1000
0010
1000
0001
1000
0010
0100
,
0020
0000
0000
0000
0000
0130
0001
0000
,
1000
0100
0010
0001
,
0200
0000
0000
0000
0310
0100
0010
0000
,
0100
0000
0000
0100
0000
0001
1000
0000
,
1000
0100
0010
0001
,
1000
0000
0000
1000
0001
0000
0010
0000
,
0200
0000
0000
1300
0001
0000
0010
0000
,
0200
0000
0000
1300
0010
0000
0100
0000
,
2002
0000
0000
0000
,
0000
0000
0000
0000
,
3003
0000
0000
0000
;

//---------------dance-single - ----------------
#NOTES:
     dance-single:
     :
     Hard:
     16:
     0.747377,1.016889,0.126165,0.361673,0.668674,622.000000,607.000000,15.000000,43.000000,0.000000,0.000000,0.747377,1.016889,0.126165,0.361673,0.668674,622.000000,607.000000,15.000000,43.000000,0.000000,0.000000:
0000
0000
0000
0000
,
0000
0000
0000
0000
,
0000
0000
0000
0000
,
0000
0000
0000
0000
,
2100
0000
0000
0000
0000
0000
3100
0010
,
0002
0000
0000
0203
0000
0000
0301
0000
,
2000
0000
0000
0000
0000
3001
0010
0100
,
1000
0001
1000
0001
0100
0001
0100
0001
1000
0100
1000
0100
0010
0001
1000
0001
,
0010
0000
0011
0000
0001
1000
0100
0010
,
0002
0000
1003
0020
0000
0130
0001
0000
,
1002
0000
0000
0000
1003
0001
0010
0100
,
2000
0000
3001
0200
0000
0301
0010
0100
,
1000
0000
1100
0000
1000
0000
0001
0100
,
0020
0000
0130
0002
0000
0013
0100
0000
,
1020
0000
0000
0000
0000
1030
0100
0010
,
0002
0000
0000
0000
0103
0000
0020
0000
0000
0000
1030
0000
0100
0010
0000
0010
,
0100
0000
1000
0000
0010
0000
0200
0000
0000
0000
0301
0000
0010
0000
0100
0010
,
0100
0000
0000
0100
1000
0000
0000
1000
0010
0000
0000
0010
0100
0000
0000
0100
,
0002
0000
0000
0000
1003
0100
0010
0001
,
2000
0000
0100
0100
0000
3001
0010
0100
,
2000
0000
3001
0200
0000
0301
0010
0100
,
2000
0000
3001
0020
0000
0130
1000
0010
,
1002
0000
0000
0000
0000
1003
0100
0010
,
0002
0000
0000
0000
1003
0000
0020
0000
0000
0000
0130
0000
0001
1000
0000
1000
,
0002
0000
0000
0000
1003
0000
0200
0000
0000
0000
1300
0000
0010
0000
0100
0001
,
0100
0000
0000
0100
0010
0000
0000
0010
1000
0000
0000
1000
0001
0000
0000
0001
,
0200
0000
0000
0000
0301
0010
0100
1000
,
0002
0000
0103
0020
0000
1030
0100
0010
,
0200
0000
1300
0020
0000
0130
0001
0010
,
0200
0000
1300
0002
0000
0103
0010
1000
,
0001
0100
0001
1000
0100
0010
0001
1000
,
0010
1000
0010
1000
0001
0010
0001
0010
0100
1000
0100
1000
0001
0100
0010
0100
,
0002
0000
0010
0000
0010
0010
0000
0010
,
0000
1000
1000
0000
1000
1000
0000
1003
,
0010
0000
0000
0000
0110
0000
0000
0000
0100
0000
0001
0000
1000
0100
1000
0100
,
1000
0000
0001
0000
0010
0100
0000
0010
0100
1000
0100
1000
0100
0000
1000
0010
,
0100
0000
0010
0000
1000
0000
0100
0000
0010
0100
0010
0000
0001
1000
0000
0001
,
1000
0000
0010
0000
0100
0000
0001
0000
1000
0100
1000
0000
0010
0100
0000
0010
,
0100
0000
0001
0000
0010
0000
0001
0000
1000
0001
1000
0000
0010
0100
0000
0010
,
0100
0000
0001
0000
0010
0000
0001
0000
0010
0100
0010
0000
0001
1000
0001
1000
,
0001
0000
0100
0000
0010
0000
0100
0000
0001
1000
0001
0000
0010
0100
0010
0100
,
0010
0000
0001
0000
1000
0000
0001
0000
0100
0010
0100
0000
0001
1000
0001
1000
,
0001
0000
0010
0000
0100
0000
1000
0000
0001
0100
0001
0000
0100
0010
0100
0010
,
1000
0100
1000
0100
0010
0001
0010
0001
0100
0010
0100
0010
1000
0100
0010
0001
,
1000
0000
0000
0000
0000
0000
0110
0000
0000
0000
0010
0000
0100
0000
0001
0010
,
0200
2300
3200
0302
,
0203
0000
0000
0000
1300
0001
0010
0001
,
1000
0000
0000
1001
0000
0001
0100
0010
,
1000
0000
0000
1010
0000
0000
0100
0010
,
0001
0000
0000
0011
0000
0000
0100
1000
,
0010
0100
0010
0100
0010
0100
0010
0100
,
0001
0000
0010
0000
0100
0000
1000
0000
0001
0100
0001
0100
0010
1000
0010
1000
,
0001
0010
0001
0000
1000
0100
1000
0000
0001
1000
0010
1000
0001
1000
0010
0000
,
0100
0001
0100
0000
0010
1000
0010
0000
1000
0001
0010
0001
1000
0001
0010
0000
,
0100
1000
0100
0000
1000
0001
1000
0000
0001
0100
0010
0100
0001
0100
0010
0000
,
0100
0001
0100
0000
0001
1000
0001
0000
1000
0100
1000
0001
1000
0100
1000
0000
,
0100
0010
0100
0000
0010
0001
0010
0000
0001
1000
0010
1000
0001
1000
0010
0000
,
0100
0010
0100
0000
0001
0100
0001
0000
1000
0100
0010
0100
1000
0100
0010
0000
,
0100
1000
0100
0000
0010
0100
0010
0000
0001
0100
0010
0100
0001
0100
0010
0000
,
0100
0001
0100
0000
0001
1000
0001
0000
1000
0010
1000
0000
0001
1000
0001
0000
,
0010
0100
1000
0000
0001
0100
0000
0100
0001
1000
0100
0010
0100
1000
0001
0000
,
0010
0100
1000
0000
0001
0100
0000
0100
0001
1000
0100
0010
0100
1000
0010
0000
,
0100
0001
0010
0000
0001
0010
0100
0000
0010
0001
0100
0000
0001
0100
0010
0000
,
1000
0001
1000
0001
0010
0100
1000
0001
1000
0001
0010
0100
1000
0001
0100
0001
,
1000
0100
0010
0000
0001
0100
0000
0001
1000
0000
0100
0000
0010
0001
1000
0100
,
0010
0100
1000
0000
0001
0100
0000
0001
1000
0000
0100
0000
0010
0001
1000
0010
,
1000
0100
0010
0000
0001
0010
0100
0000
0010
0001
1000
0001
0010
0001
1000
0001
,
0010
0001
0010
0001
0100
0010
0100
0010
1000
0010
0100
0001
1000
0010
0100
0001
,
2000
0000
0000
0000
0000
3001
0010
0100
,
1000
0000
0001
0100
0010
0100
0001
0000
,
1002
0000
0000
0000
0000
0000
0000
0000
1003
0000
0001
0010
0100
0000
0010
0000
,
0001
0000
0000
0101
0000
0100
0010
1000
,
1100
0000
0010
0001
1000
0001
0010
0001
,
1000
0000
0000
0100
0010
0001
0100
0001
,
0010
0000
0000
0100
0010
0001
1000
0001
,
0010
0000
0000
0001
0100
0010
1000
0010
,
0202
0000
0000
0000
,
0000
0000
0000
0000
,
0303
0000
0000
0000
;

//---------------dance-single - ----------------
#NOTES:
     dance-single:
     :
     Challenge:
     18:
     0.943233,1.148101,0.126165,0.269152,1.122868,785.000000,770.000000,15.000000,32.000000,0.000000,0.000000,0.943233,1.148101,0.126165,0.269152,1.122868,785.000000,770.000000,15.000000,32.000000,0.000000,0.000000:
0000
0000
0000
0000
,
0000
0000
0000
0000
,
0000
0000
0000
0000
,
0000
0000
0000
0000
,
1001
0000
0000
0000
0010
0000
0010
0000
0000
0000
0010
0000
0100
0010
0100
0000
,
1001
0000
0000
0000
0100
0000
0100
0000
0000
0000
0100
0000
0010
0100
0010
0000
,
1001
0000
0000
0000
0010
0000
0010
0000
0000
0000
0010
0000
0100
0010
0100
0010
,
1000
0100
0010
0001
0100
0010
0100
0010
1000
0010
0100
0001
0010
0100
1000
0001
,
1000
0010
1000
0000
0010
0100
0010
0000
0100
0001
0100
0000
0001
1000
0001
0000
,
1000
0100
0010
0000
0001
0010
0001
0000
1000
0100
0010
0000
0001
0010
0001
0000
,
0100
0010
0100
0000
0001
0100
0001
0000
1000
0010
1000
0000
0001
1000
0001
0000
,
0100
0010
1000
0000
0001
0010
0001
0000
0100
0010
1000
0000
0001
0010
0001
0000
,
1000
0001
1000
0000
0100
1000
0100
0000
0010
0100
0010
0000
0001
0100
0001
0000
,
0010
0100
1000
0000
0001
0100
0001
0000
0010
0100
1000
0000
0001
0100
0001
0000
,
0010
0100
0010
0000
0100
1000
0100
0000
1000
0001
1000
0000
0001
0010
0001
0000
,
0100
0010
1000
0000
0001
0010
0001
0000
0100
0010
1000
0000
0001
1000
0000
1000
,
0001
0000
0010
0000
0100
0000
2000
0000
0000
0000
0001
0000
3001
0000
1000
0010
,
0100
0000
0001
0010
0100
0000
0100
0010
0001
0000
1000
0100
0010
0000
0010
0100
,
2000
0000
0001
0000
3001
0100
1000
0100
,
0001
1000
0010
0000
0010
1000
0001
0000
1000
0001
0100
0000
0100
0001
1000
0000
,
0001
0010
0100
2000
0000
0000
3001
0010
,
0100
1000
0010
0000
0010
1000
0100
0000
0010
0001
0100
0000
0100
0001
0010
0000
,
0200
0000
1000
0000
1300
0100
0001
0100
,
1000
0001
0010
0000
0010
0001
1000
0000
0001
1000
0100
0000
1000
0001
0000
0001
,
1000
0000
0100
0000
0010
0000
0002
0000
0000
0000
1000
0000
1003
0000
0001
0010
,
0100
1000
0100
1000
0001
0100
0001
0000
0100
0001
0100
0001
1000
0100
1000
0000
,
1002
0000
0100
0000
1003
0010
0001
0010
,
1000
0001
1000
0001
0100
0010
0100
0000
0010
0100
0010
0100
0001
1000
0001
0000
,
1000
0010
0100
0002
0000
0000
1003
0100
,
0010
0001
1000
0001
0010
0001
1000
0000
0100
1000
0001
1000
0100
1000
0001
0000
,
1001
0001
0100
0100
0110
0110
1010
1010
,
0100
0000
0000
0001
0000
0000
0100
0000
0000
0001
0000
0000
1000
0000
0000
0100
0000
0000
1000
0000
0000
0100
0000
0000
0010
0000
0000
0001
0000
0000
1000
0000
0000
0010
0000
0000
1000
0000
0001
0000
1000
0000
0001
0000
1000
0000
0001
0000
,
1000
0000
1010
0000
0001
0001
1000
1100
,
0000
0000
0001
0000
0100
0010
0000
0010
0100
0000
0001
0000
1000
0001
1000
0000
,
0001
0000
0000
0000
0101
0000
0000
0000
1000
0000
1000
0000
0100
0010
0100
0010
,
0100
0000
0000
0000
0000
0000
1000
0000
0000
0000
0000
0000
1000
0000
0000
0001
0000
0000
0000
0000
0000
0001
0000
0000
0100
0000
0010
0000
0100
0000
0010
0000
0100
0000
0010
0000
0100
0000
0000
0000
0000
0000
0001
0000
0100
0000
0001
0000
,
1000
0000
1000
0000
0001
0000
0001
0000
0010
0100
0010
0000
0001
1000
0000
1000
,
0001
0000
0001
0000
1000
0000
1000
0000
0010
0100
0010
0000
1000
0001
0000
0001
,
1000
0000
1000
0000
0001
0000
0001
0000
0010
0100
0010
0000
0001
1000
0000
1000
,
0001
0000
0001
0000
1000
0000
1000
0000
0010
0100
0010
0000
1000
0001
1000
0001
,
1000
0000
0100
0000
0010
0000
0100
0000
1000
0010
1000
0000
0001
0010
0000
0010
,
0001
0000
0010
0000
0100
0000
0010
0000
0001
0100
0001
0000
1000
0100
0000
0100
,
1000
0000
0010
0000
0100
0000
0010
0000
1000
0001
1000
0000
0001
0010
0001
0010
,
0100
1000
0100
1000
0010
0100
0010
0100
0001
0010
0001
0010
0100
1000
0001
0100
,
0020
0000
0000
0000
0000
0000
2030
0000
0000
0000
3001
0000
0010
0000
1000
0010
,
0002
2003
3200
0302
,
0203
0000
0000
0000
1300
0001
0010
0001
,
2000
0000
0000
3002
0000
0013
0100
1000
,
1002
0000
0000
0203
0000
0000
0301
0010
,
0200
0000
0000
2300
0000
0000
3100
0010
,
0001
1000
0001
1000
0001
0010
0100
1000
,
0010
0100
0010
0100
0010
0100
0001
0010
0100
1000
0001
0010
0100
1000
0001
1000
,
0010
1000
0001
1000
0010
1000
0001
0000
0010
0100
1000
0100
0010
0100
1000
0100
,
0010
0001
0100
0010
1000
0100
0010
0100
1000
0001
0010
0001
0100
0010
1000
0000
,
0001
0010
0100
1000
0001
0010
0100
1000
0001
0100
0010
1000
0001
0100
0010
1000
,
0100
0001
0100
1000
0001
0010
0001
1000
0100
0001
0100
1000
0001
0010
0001
0000
,
1000
0010
0100
0010
1000
0100
0010
0001
1000
0010
0100
0010
1000
0100
0010
0001
,
1000
0010
0001
0010
1000
0100
0010
0001
1000
0100
0001
0100
1000
0010
1000
0100
,
0001
0100
1000
0001
0010
1000
0010
0001
1000
0100
0001
0100
1000
0001
0010
1000
,
0010
0001
1000
0100
0010
0001
1000
0000
0010
1000
0001
0100
0010
1000
0000
1000
,
0001
1000
0100
1000
0001
1000
0100
0010
0001
0010
0100
0010
0001
0010
0100
1000
,
0001
0100
0010
0100
0001
0010
0100
1000
0001
0010
1000
0010
0001
1000
0010
0000
,
1000
0010
0001
0010
1000
0001
0100
1000
0100
0001
1000
0100
0010
0001
1000
0000
,
0010
0100
0001
0100
0010
0100
0001
0010
1000
0010
0001
0100
1000
0100
0001
0000
,
1000
0100
0010
0100
1000
0100
0010
0001
0100
0001
0010
0001
0100
0001
0010
0100
,
1000
0010
0001
0010
1000
0001
0100
1000
0100
0001
0010
0100
1000
0010
0001
0010
,
1000
0100
0001
0100
1000
0001
0010
1000
0010
0001
1000
0100
0001
0100
1000
0001
,
0100
0000
0000
1000
0000
0000
0001
0000
0000
0010
0000
0000
1000
0000
0000
0001
0000
0000
0100
0000
0000
0010
0000
0000
1000
0000
0000
0100
0000
0000
0001
0000
0000
0100
0000
0000
1000
0000
0001
0000
1000
0000
0001
0000
1000
0000
0001
0000
,
2000
0000
0000
0000
0000
3100
0010
0001
,
0200
0000
0301
1000
0200
0000
1300
0000
,
1002
0000
0000
0000
0000
0000
0000
0000
0103
0000
0010
1000
0001
0000
0001
0000
,
0200
0000
0000
0320
0000
1030
0100
0010
,
0002
0000
1003
0010
0001
0010
1000
0100
,
0020
0000
0000
0031
0100
1000
0100
0001
,
2000
0000
0000
3001
0010
1000
0010
0001
,
2000
0000
0000
3100
0010
0001
1000
0010
,
2002
0000
0000
0000
,
0000
0000
0000
0000
,
3003
0000
0000
0000
;

//---------------dance-single - ----------------
#NOTES:
     dance-single:
     :
     Beginner:
     2:
     0.102134,0.191771,0.025233,0.000000,0.000000,85.000000,82.000000,3.000000,0.000000,0.000000,0.000000,0.102134,0.191771,0.025233,0.000000,0.000000,85.000000,82.000000,3.000000,0.000000,0.000000,0.000000:
// measure 0
0000
0000
0000
0000
,  // measure 1
0000
0000
0000
0000
,  // measure 2
0000
0000
0000
0000
,  // measure 3
0000
0000
0000
0000
,  // measure 4
0000
0000
0000
0000
,  // measure 5
0000
0000
0000
0000
,  // measure 6
0000
0000
0000
0000
,  // measure 7
0000
0000
0000
0000
,  // measure 8
0001
0000
0000
0000
,  // measure 9
0010
0000
0000
0000
,  // measure 10
0001
0000
0000
0000
,  // measure 11
1000
0000
0000
0000
,  // measure 12
0100
0000
0000
0000
,  // measure 13
1000
0000
0000
0000
,  // measure 14
0001
0000
0000
0000
,  // measure 15
1000
0000
0000
0000
,  // measure 16
0100
0000
0100
0000
,  // measure 17
0100
0000
0000
0000
,  // measure 18
0010
0000
0010
0000
,  // measure 19
0010
0000
0000
0000
,  // measure 20
0001
0000
0001
0000
,  // measure 21
0001
0000
0000
0000
,  // measure 22
1000
0000
1000
0000
,  // measure 23
1000
0000
0000
0000
,  // measure 24
0001
0000
0001
0000
,  // measure 25
0001
0000
0001
0000
,  // measure 26
1000
0000
1000
0000
,  // measure 27
1000
0000
1000
0000
,  // measure 28
0100
0000
0100
0000
,  // measure 29
0100
0000
0100
0000
,  // measure 30
0010
0000
0010
0000
,  // measure 31
0010
0000
0010
0000
,  // measure 32
1001
0000
0000
0000
,  // measure 33
0000
0000
0000
0000
,  // measure 34
0001
0000
0000
0000
,  // measure 35
0001
0000
0000
0000
,  // measure 36
1000
0000
0000
0000
,  // measure 37
1000
0000
0000
0000
,  // measure 38
1000
0000
0000
0000
,  // measure 39
0001
0000
0000
0000
,  // measure 40
0001
0000
0000
0000
,  // measure 41
0001
0000
0000
0000
,  // measure 42
1000
0000
0000
0000
,  // measure 43
1000
0000
0000
0000
,  // measure 44
1001
0000
0000
0000
,  // measure 45
0000
0000
0000
0000
,  // measure 46
0010
0000
0000
0000
,  // measure 47
0000
0000
0000
0000
,  // measure 48
0100
0000
0000
0000
,  // measure 49
0000
0000
0000
0000
,  // measure 50
1000
0000
0000
0000
,  // measure 51
0000
0000
0000
0000
,  // measure 52
0001
0000
0001
0000
,  // measure 53
0001
0000
0000
0000
,  // measure 54
1000
0000
1000
0000
,  // measure 55
1000
0000
0000
0000
,  // measure 56
0001
0000
0001
0000
,  // measure 57
0001
0000
0000
1000
,  // measure 58
0000
0000
1000
0000
,  // measure 59
1000
0000
0000
0000
,  // measure 60
0010
0000
0100
0000
,  // measure 61
0010
0000
0000
0000
,  // measure 62
0100
0000
0001
0000
,  // measure 63
0100
0000
0000
0000
,  // measure 64
0001
0000
1000
0000
,  // measure 65
0001
0000
0000
0000
,  // measure 66
0010
0000
0001
0000
,  // measure 67
0010
0000
0001
0000
,  // measure 68
0100
0000
0000
0000
,  // measure 69
0000
0000
0000
0000
,  // measure 70
0100
0000
0000
0000
,  // measure 71
0000
0000
0000
0000
,  // measure 72
0010
0000
0000
0000
,  // measure 73
0000
0000
0000
0000
,  // measure 74
0010
0000
0000
0000
,  // measure 75
1000
0000
0000
0000
,  // measure 76
1001
0000
0000
0000
;
