#TITLE:LASER CRUSTER;
#SUBTITLE:;
#ARTIST:L.E.D.;
#TITLETRANSLIT:;
#SUBTITLETRANSLIT:;
#ARTISTTRANSLIT:;
#GENRE:;
#CREDIT:DigiMindAxel;
#BANNER:LASER CRUSTER.png;
#BACKGROUND:LASER CRUSTER-bg.png;
#LYRICSPATH:;
#CDTITLE:beatmania IIDX.png;
#MUSIC:LASER CRUSTER.ogg;
#OFFSET:-0.426000;
#SAMPLESTART:13.020003;
#SAMPLELENGTH:12.000000;
#SELECTABLE:YES;
#BPMS:0.000000=152.000000
;
#STOPS:
;
#BGCHANGES:-4.000=LASER CRUSTER.avi=1.000=1=0=0=StretchNoLoop==CrossFade==,
99999=-nosongbg-=1.000=0=0=0 // don't automatically add -songbackground-
;
#KEYSOUNDS:;
#ATTACKS:;

//---------------dance-single - ----------------
#NOTES:
     dance-single:
     :
     Easy:
     5:
     0.257926,0.337251,0.204394,0.085164,0.000000,212.000000,188.000000,24.000000,10.000000,0.000000,0.000000,0.257926,0.337251,0.204394,0.085164,0.000000,212.000000,188.000000,24.000000,10.000000,0.000000,0.000000:
0000
0000
0000
0000
,
0000
0000
0000
0000
,
0000
0000
0000
0000
,
0000
0000
0000
0000
,
2002
0000
0000
0000
,
0000
0000
0000
3003
,
0001
1000
0001
1000
,
2002
0000
0000
3003
,
1000
0010
1000
0010
,
0100
0100
0010
0010
,
1000
0100
1000
0100
,
0010
0010
0100
0110
,
0001
0010
0001
0010
,
0100
0100
0010
0110
,
0001
0100
0001
0100
,
0010
0100
0010
0100
,
0002
0000
0000
0013
,
0100
0010
0100
1000
,
0002
0000
0000
0103
,
0010
0100
0010
1000
,
0001
0010
0001
0010
,
0100
0010
0100
0010
,
0001
0100
0001
0100
,
0010
0100
0010
0100
,
0110
0000
0000
0000
,
0000
0000
0000
0000
,
1001
0000
0000
0000
,
1001
0000
0000
0000
,
1000
0001
1000
0001
,
0010
0100
0010
0001
,
0100
0100
0001
0001
,
1000
1000
0010
0110
,
1000
0100
1000
0100
,
0010
0001
0010
0100
,
1000
0010
1000
0010
,
0100
0001
0100
0001
,
1000
0000
0100
0000
,
1000
0000
0001
1000
,
0010
0000
0110
0000
0000
0000
0000
0110
,
0000
0000
1001
0000
,
0001
0000
1000
0000
,
0010
0000
1000
0000
,
0001
0000
0000
0000
0010
0000
0000
0100
,
0000
0000
0000
0110
0000
0000
1001
0000
,
1001
0000
0000
0000
,
0000
0000
0000
0000
,
0000
0000
0000
0000
,
0000
0000
0000
0001
,
1001
0000
0000
0000
,
0000
0000
0000
0000
,
1000
0001
1000
0001
,
2002
0000
0000
3003
,
0100
0001
0100
0001
,
0010
0100
0010
0100
,
1000
0010
1000
0010
,
1000
1001
0000
1001
,
0010
0001
0010
0001
,
0100
0010
0100
0010
,
1000
0001
1000
1001
,
0000
0000
0000
1001
0000
0000
1001
0000
,
0010
0001
0100
0001
,
0010
0001
0100
0010
,
1000
0100
0010
0100
,
1000
0100
0010
0001
,
1000
0010
1000
0010
,
0100
0001
0100
0001
,
0010
0100
0010
0100
,
1000
0000
0000
0110
0000
0000
1001
0000
,
2002
0000
0000
0000
,
0000
0000
0000
0000
,
0000
0000
0000
0000
,
0000
0000
0000
0000
,
3003
0000
0000
0000
;

//---------------dance-single - ----------------
#NOTES:
     dance-single:
     :
     Hard:
     14:
     0.670365,0.858457,0.076648,0.068131,0.621700,551.000000,542.000000,9.000000,8.000000,0.000000,0.000000,0.670365,0.858457,0.076648,0.068131,0.621700,551.000000,542.000000,9.000000,8.000000,0.000000,0.000000:
0000
0000
0000
0000
,
0000
0000
0000
0000
,
0000
0000
0000
0000
,
0000
0000
0000
0000
,
0002
0000
0000
0000
,
2003
0000
0000
0000
,
3001
0010
0100
1000
0001
0010
0100
1000
,
0001
0000
0000
0100
0001
0000
1000
0000
0000
0100
1000
0000
0001
0000
0010
0000
,
0100
1000
0100
0000
0010
0000
0001
0100
0001
0000
0100
0000
0010
0000
0000
0000
,
0100
0001
0100
0000
0010
0000
1000
0100
1000
0000
0100
0000
0010
0000
0000
0000
,
0001
1000
0001
0000
0010
0000
0100
1000
0100
0000
0010
0000
0100
0000
0000
0000
,
0010
0001
0010
0000
0100
0000
1000
0001
1000
0000
0010
0000
0100
0000
0000
0000
,
0001
0100
0001
0000
1000
0000
0100
0001
0100
0000
1000
0000
0010
0000
0000
0000
,
1000
0100
1000
0000
0001
0000
0100
1000
0100
0000
0001
0000
0010
0000
0000
0000
,
0001
0100
0001
0000
1000
0000
0100
0001
0100
0000
1000
0000
0010
0000
0000
0000
,
1000
0100
1000
0000
0001
0000
0100
1000
0100
0000
0001
0000
0010
0000
0000
0000
,
0001
0010
0001
0010
0001
0000
1000
0010
1000
0010
1000
0000
0001
1000
0001
1000
,
0001
0000
0100
0010
0100
0010
0100
0000
0001
0100
0010
0000
0100
0010
1000
0000
,
0001
0100
0001
0100
0001
0000
1000
0100
1000
0100
1000
0000
0001
1000
0001
1000
,
0001
0000
0010
0100
0010
0100
0010
0000
0001
0000
1000
0001
1000
0001
1000
0000
,
0001
0100
0001
0000
1000
0000
0100
0010
0100
0000
1000
0000
0010
0000
0000
0000
,
0100
0010
0100
0000
0001
0000
1000
0100
1000
0000
0001
0000
0010
0000
0000
0000
,
0100
0010
0100
0000
1000
0000
0001
0100
0001
0000
0010
0000
0100
0010
0100
0010
,
0100
0000
0000
1000
0010
0000
1000
0000
0000
0001
0010
0000
0001
0000
1000
0000
,
1001
2000
0000
0000
0000
0000
0000
0000
,
0000
0000
0000
3000
,
1001
0002
0000
0000
0000
0000
0000
0000
,
1003
0000
0000
0100
1000
0000
0001
0000
0000
0100
0001
0000
1000
0000
0001
1000
,
0001
0100
1000
0100
0001
0000
1001
0000
,
1000
0100
0001
0100
1000
0000
1001
0000
,
0001
0100
1000
0100
0001
0000
1001
0000
,
1000
0010
0001
0010
1000
0000
1001
0000
,
0001
0100
0010
1000
0100
0001
0100
1000
,
0001
0010
0001
1000
0001
0010
0001
0000
,
1000
0010
0100
0001
0010
1000
0010
0001
,
1000
0100
1000
0001
1000
0100
1000
0000
,
0001
0100
0001
0000
1000
0000
0100
0010
0000
0100
0010
0000
0001
1000
0001
0000
,
1000
0100
1000
0000
0001
0000
0100
0010
0000
0100
0010
0000
1000
0001
1000
0000
,
0010
0100
0010
0100
0010
0000
1000
0001
0000
1000
0001
0000
0010
0001
0010
0000
,
0100
1000
0100
0000
0010
0000
0001
1000
0000
0001
1000
0000
0010
0100
0010
0000
,
1000
0010
1000
0000
0001
0000
0010
0100
0000
0010
0100
0000
1000
0001
1000
0000
,
0001
0010
0001
0000
0100
0000
0010
1000
0000
0010
1000
0000
0100
0010
0100
0000
,
1000
0010
1000
0000
0001
0000
0010
0100
0000
0010
0100
0000
1000
0001
1000
0000
,
0001
0000
0100
0000
0010
0000
0110
0000
0000
0000
0000
0100
0010
0100
0010
0000
,
1001
0000
0000
0000
,
0000
0000
0000
0000
,
0000
0000
0000
0000
,
0000
0000
0000
0000
0000
0000
0000
0000
0000
0000
0000
0000
1000
0001
1000
0001
,
1000
0000
0000
0000
,
0000
0000
0000
0000
,
0001
0010
0100
1000
0001
0010
0100
1000
,
0001
0000
0100
0001
0000
0000
1000
0000
0000
0100
1000
0000
0010
0000
0100
0000
,
0001
0100
0001
0000
1000
0000
0100
0010
0100
0000
1000
0000
0010
0000
0000
0000
,
0100
0010
0100
0000
0001
0000
1000
0100
1000
0000
0010
0000
0100
0000
0000
0000
,
0001
0010
0001
0000
1000
0000
0100
0010
0100
0000
1000
0000
0010
0000
0000
0000
,
0100
0010
0100
0000
1001
0000
0010
0001
0010
0000
0001
1000
0001
1000
0001
0000
,
1000
0010
1000
0000
0001
0000
0010
1000
0010
0000
0001
0010
0100
0000
1000
0000
,
0001
0010
0001
0000
1000
0000
0010
0001
0010
0000
1000
0100
0010
0000
0001
0000
,
1000
0010
1000
0000
0001
0000
0010
1000
0010
0000
0001
0100
0010
0000
1000
0000
,
0001
0010
0001
0000
1000
0000
0010
0001
0010
0000
1000
0001
1000
0001
1000
0000
,
0001
0100
0001
0100
0001
0000
1000
0100
1000
0100
1000
0000
0001
1000
0001
1000
,
0001
0000
0100
0010
0100
0010
0100
0000
0001
1000
0001
1000
0010
0100
0010
0000
,
1000
0100
1000
0100
1000
0000
0001
0100
0001
0100
0001
0000
1000
0001
1000
0001
,
1000
0000
0100
0010
0100
0000
1000
0001
1000
0001
1000
0001
0100
0001
0100
0000
,
0010
0100
0010
0000
1000
0000
0100
0001
0100
0000
1000
0100
0010
0000
0001
0000
,
0100
0010
0100
0000
0001
0000
0010
1000
0010
0000
0001
0100
0010
0000
1000
0000
,
0100
0010
0100
0000
1000
0000
0010
0001
0010
0000
1000
0100
0010
0001
0010
0001
,
0100
0000
0010
1000
0000
0000
0001
0000
0000
0100
0001
0000
1000
0100
0010
0001
,
0200
0000
0000
0000
,
0320
0000
0000
0000
,
2030
0000
0000
0000
,
3200
0000
0000
0000
,
0300
0000
0000
0000
;

//---------------dance-single - ----------------
#NOTES:
     dance-single:
     :
     Medium:
     10:
     0.379590,0.490547,0.136263,0.417305,0.034066,312.000000,296.000000,16.000000,49.000000,0.000000,0.000000,0.379590,0.490547,0.136263,0.417305,0.034066,312.000000,296.000000,16.000000,49.000000,0.000000,0.000000:
// measure 0
0000
0000
0000
0000
,  // measure 1
0000
0000
0000
0000
,  // measure 2
0000
0000
0000
0000
,  // measure 3
0000
0000
0000
0000
,  // measure 4
0220
0000
0000
0000
,  // measure 5
0000
0000
0000
0330
,  // measure 6
1000
0001
1000
0001
1000
0001
1000
0001
,  // measure 7
1000
0000
0000
0010
1000
0000
0000
0000
0000
0001
0010
0000
0000
0000
0100
0000
,  // measure 8
2000
0000
3001
0100
0001
1000
0100
0000
,  // measure 9
0020
0000
0031
0010
0001
1000
0010
0000
,  // measure 10
0200
0000
0310
1000
0001
0010
0001
0000
,  // measure 11
0020
0000
0130
1000
0010
0100
0010
0000
,  // measure 12
0200
0000
0301
0010
0100
1000
0001
0000
,  // measure 13
0020
0000
0031
0100
0010
1000
0100
0000
,  // measure 14
0020
0000
0031
1000
0100
0010
0001
0000
,  // measure 15
0200
0000
0310
0010
0000
0100
0010
0100
,  // measure 16
0001
0000
2000
0000
0000
3200
0000
0000
,  // measure 17
0302
0000
0000
0003
0000
0100
0010
0001
,  // measure 18
1000
0000
2001
0000
0000
3020
0000
0000
,  // measure 19
0032
0000
0000
0013
0100
0001
1000
0000
,  // measure 20
0002
0000
1003
0010
0001
0010
1000
0000
,  // measure 21
0002
0000
1003
0100
0001
0100
1000
0000
,  // measure 22
0002
0000
1003
0010
0001
0010
1000
0000
,  // measure 23
0001
0000
0000
0010
0001
0000
0000
0000
0000
0100
0010
0000
0000
0000
1000
0000
,  // measure 24
0001
1001
0000
0000
0000
0000
0000
0000
,  // measure 25
0000
0000
0000
0000
,  // measure 26
1000
1001
0000
0000
0000
0000
0000
0000
,  // measure 27
0220
0000
0000
0330
,  // measure 28
0001
1000
0010
0000
0010
0000
0010
0000
,  // measure 29
0010
1000
0100
0010
0001
0000
0200
0000
,  // measure 30
0310
1000
0001
0000
0001
0000
0002
0000
,  // measure 31
0013
0100
1000
0000
0010
0000
1001
0000
,  // measure 32
0001
0010
0100
0000
0100
0000
0100
0000
,  // measure 33
1000
0001
0010
0000
0010
0000
0020
0000
,  // measure 34
0031
1000
0100
0000
0100
0000
1001
0000
,  // measure 35
0001
1000
0001
0000
0010
0001
1000
0000
,  // measure 36
0100
1000
0100
0000
0100
1000
0010
0000
,  // measure 37
0010
1000
0100
1000
0020
0000
0130
0000
,  // measure 38
0001
0000
1001
0000
0010
0001
1000
0001
,  // measure 39
0010
0200
1300
1001
,  // measure 40
0010
1000
0001
0000
0001
0010
0001
0000
,  // measure 41
1000
0001
0100
0000
0100
0010
0100
0000
,  // measure 42
0001
1000
0100
0000
0100
1000
0100
0000
,  // measure 43
0010
0001
0100
0000
0010
0000
0110
0000
,  // measure 44
0002
0000
0000
0000
,  // measure 45
2003
0000
0000
0000
,  // measure 46
3002
0000
0000
0000
,  // measure 47
2003
0000
0000
3001
,  // measure 48
2002
0000
0000
0000
,  // measure 49
0000
0000
0000
3003
,  // measure 50
1000
0001
1000
0001
1000
0001
1000
0001
,  // measure 51
1000
0000
0000
0100
1000
0000
0000
0000
0000
0010
0100
0000
0000
0000
0001
0000
,  // measure 52
2000
0000
3010
1000
0001
0000
0001
0000
,  // measure 53
0200
0000
0301
0100
0010
0000
0010
0000
,  // measure 54
2000
0000
3010
1000
0100
0000
0100
0000
,  // measure 55
0020
0000
0031
1000
0010
0000
1010
0000
,  // measure 56
1002
0000
0013
0001
0100
0001
0010
0000
,  // measure 57
2001
0000
3010
1000
0100
1000
0010
0000
,  // measure 58
1000
0001
0000
0100
0010
0000
1000
0001
,  // measure 59
0000
0000
0010
0100
0000
1000
0010
0100
,  // measure 60
0010
0000
2000
0000
0000
3200
0000
0000
,  // measure 61
0302
0000
0000
0003
0000
0100
0010
0001
,  // measure 62
1000
0000
2001
0000
0000
3020
0000
0000
,  // measure 63
0032
0000
0000
0013
0100
0001
1000
0000
,  // measure 64
0002
0000
1003
0010
0100
0010
1000
0000
,  // measure 65
0200
0000
0310
0001
1000
0001
0010
0000
,  // measure 66
0200
0000
1300
0010
0100
0010
1000
0000
,  // measure 67
0001
0000
0000
0010
0001
0000
0000
0000
0000
0100
0010
0000
0000
0000
0000
0000
,  // measure 68
2002
0000
0000
0000
,  // measure 69
0000
0000
0000
0000
,  // measure 70
0000
0000
0000
0000
,  // measure 71
0000
0000
0000
0000
,  // measure 72
3003
0000
0000
0000
;

//---------------dance-single - ----------------
#NOTES:
     dance-single:
     :
     Challenge:
     17:
     0.866243,1.042412,0.127747,0.178845,1.145461,712.000000,697.000000,15.000000,21.000000,0.000000,0.000000,0.866243,1.042412,0.127747,0.178845,1.145461,712.000000,697.000000,15.000000,21.000000,0.000000,0.000000:
0000
0000
0000
0000
,
0000
0000
0000
0000
,
0000
0000
0000
0000
,
0000
0000
0000
0000
,
2000
0000
0000
0000
,
3002
0000
0000
0000
,
0103
0010
0100
0010
0100
0010
0100
0010
0100
0010
0100
0010
0100
0010
0100
0010
,
1000
0000
0000
0001
0010
0000
0100
0000
0000
1000
0010
0000
0000
0000
0100
0001
,
1000
0100
0001
0000
0100
0000
1000
0010
0001
0000
0010
0000
1000
0000
0100
0000
,
1000
0010
0001
0000
0010
0000
1000
0100
0001
0000
0100
0000
1000
0000
0010
0000
,
1000
0100
0001
0000
0100
0000
1000
0010
0001
0000
0010
0000
1000
0000
0100
0000
,
1000
0010
0100
0000
1001
0000
0001
0010
0100
0000
1000
0001
1000
0001
1000
0000
,
0001
0100
1000
0000
0100
0000
0001
0010
1000
0000
0010
0001
0010
0100
1000
0000
,
0001
0100
1000
0000
0100
0000
0001
0010
1000
0000
0010
0001
0010
0100
1000
0000
,
0001
0100
1000
0000
0100
0000
0001
0010
1000
0000
0010
0001
0010
0100
1000
0000
,
0001
0100
1000
0000
0100
0000
0001
0010
0100
0000
1000
0001
1000
0001
1000
0000
,
0001
0010
0100
0010
0001
1000
0010
1000
0001
0010
0100
0010
0001
0100
0010
1000
,
0100
0000
0010
0100
1000
0001
0100
0001
1000
0100
0001
0100
1000
0100
0010
0000
,
0001
0100
0010
0100
0001
1000
0100
1000
0001
0100
0010
0100
0001
0010
0100
1000
,
0001
0000
0010
0001
1000
0100
0001
0100
1000
0001
0010
0001
1000
0100
0010
0000
,
0001
0010
1000
0000
0010
0000
0001
0100
1000
0100
0001
0010
0100
1000
0001
0000
,
1000
0100
0001
0000
0100
0000
1000
0010
0001
0010
1000
0100
0010
0001
0100
0010
,
1000
0100
0001
0000
0100
0000
1000
0010
0001
0010
1000
0100
0010
0100
1000
0000
,
0001
0100
1000
0000
0100
0000
0001
0010
1000
0010
0001
0010
0100
1000
0100
0010
,
1001
1001
0000
0000
0000
0000
0000
0000
,
0000
0000
0000
0000
,
1100
1100
0000
0000
0000
0000
0000
0011
,
1001
0000
0000
0100
0010
0000
0001
0000
0000
0100
0010
0000
0000
0000
1000
0010
,
1000
0100
0001
0100
1000
1000
0001
0001
,
0010
0001
0100
0010
1000
0100
0010
0002
,
2003
0000
0000
0000
3001
0000
1000
0100
1000
0100
1000
0000
0002
0000
0203
0000
,
0310
0000
0100
0000
1001
0000
0100
0010
0100
0000
0001
1000
0010
1000
0100
0010
,
0001
0100
1000
0100
0001
0001
1000
1000
,
0001
0100
1000
0100
0001
0010
0100
2000
,
3002
0000
0000
0000
1003
0100
1000
0100
1000
0000
0001
0010
0100
0000
1000
0000
,
0010
0000
0100
0000
0010
1000
0001
0000
0010
0000
0100
0010
0100
0010
0100
0000
,
1000
0010
1000
0001
0010
0100
0010
0001
0000
0001
0100
0010
0001
0010
0100
0001
,
1000
0100
1000
0001
0100
0010
0100
0001
1000
0100
0001
0000
1000
0010
0001
0000
,
1000
0010
0100
0010
1000
0100
1000
0001
1000
0100
1000
0001
1000
0100
1000
0001
,
1000
0100
1000
0001
2000
0000
0000
0000
3001
0000
0100
0010
0100
0010
0100
0000
,
0001
0100
0001
1000
0100
0010
0100
1000
0000
1000
0010
0100
1000
0100
0010
1000
,
0001
0010
0001
0100
0010
0100
0001
0010
0001
1000
0001
0010
0001
1000
0001
0000
,
0100
0000
0010
0000
1010
0000
0100
0010
0000
0001
0100
0000
0010
1000
0001
1000
,
0010
0000
1000
0000
1001
0000
0010
0000
0100
0000
1000
0010
0100
0001
0010
0000
,
2200
0000
0000
0300
,
0020
0000
0000
3000
,
0200
0000
0000
0030
,
0002
0000
0000
0000
0000
0000
0000
0000
0000
0000
0303
0000
0010
1000
0001
0000
,
2002
0000
0000
3000
,
0020
0000
0000
0000
0000
0000
0000
0033
,
0100
0010
0100
0010
0100
0010
0100
0010
0100
0010
0100
0010
0100
0010
0100
0000
,
1001
0000
0000
0100
1000
0000
0010
0000
0000
0100
0001
0000
0000
0000
1000
0100
,
1000
0010
0001
0000
0010
0000
1000
0100
0001
0100
1000
0100
0010
0001
0010
0000
,
0001
0100
1000
0000
0100
0000
0001
0010
1000
0010
0001
0100
0010
1000
0100
0010
,
0001
0100
1000
0000
0100
0000
0001
0010
1000
0010
0001
0100
0010
1000
0100
0000
,
1000
0010
0001
0000
0011
0000
1000
0100
0001
0100
1000
0010
0100
0001
0010
0000
,
0001
0100
1000
0100
0001
0010
1000
0010
0001
1000
0100
0010
0001
0100
0001
0000
,
1000
0010
0001
0010
1000
0100
0001
0100
1000
0001
0010
0100
0010
0001
0100
0000
,
0001
0010
1000
0010
0001
0100
1000
0100
0001
0010
0100
0010
0001
0100
0010
0000
,
1000
0100
0001
0100
1000
0010
0001
0010
1000
0100
0010
0001
0100
0001
1000
0000
,
0001
0100
0010
0001
0010
0100
0001
1000
0100
1000
0010
0100
0001
0010
0100
0001
,
0100
0010
0001
0100
0010
0001
0010
0100
0001
0010
1000
0010
0001
0100
0010
0000
,
1000
0100
0010
1000
0010
0100
1000
0001
0010
0001
0100
0010
1000
0010
0100
1000
,
0100
0010
1000
0100
0010
1000
0010
0100
1000
0010
0001
0010
1000
0100
0010
0000
,
0001
0010
1000
0010
0001
0100
1000
0100
0001
0010
0100
0010
0001
0100
0010
0000
,
1000
0100
0001
0100
1000
0010
0001
0010
1000
0100
0010
0100
1000
0010
0100
0000
,
0001
0100
1000
0100
0001
0010
1000
0010
0001
1000
0100
0010
0100
1000
0010
0100
,
0001
0100
1000
0001
0010
1000
0001
0010
0100
1000
0100
0010
0001
0100
1000
0100
,
1002
0000
0000
0000
,
0203
0000
0000
0000
,
2300
0000
0000
0000
,
3020
0000
0000
0000
,
0030
0000
0000
0000
;

//---------------dance-single - ----------------
#NOTES:
     dance-single:
     :
     Beginner:
     2:
     0.100981,0.174055,0.059615,0.000000,0.000000,83.000000,76.000000,7.000000,0.000000,0.000000,0.000000,0.100981,0.174055,0.059615,0.000000,0.000000,83.000000,76.000000,7.000000,0.000000,0.000000,0.000000:
0000
0000
0000
0000
,
0000
0000
0000
0000
,
0000
0000
0000
0000
,
0000
0000
0000
0000
,
0000
1000
0000
0000
0000
0000
0000
0000
,
0000
0000
0000
0000
,
0000
0001
0000
0000
0000
0000
0000
0000
,
0000
0000
0000
0000
,
0000
1001
0000
0000
0000
0000
0000
0000
,
0000
1000
0000
0000
0000
0000
0000
0000
,
0000
0100
0000
0000
0000
0000
0000
0000
,
0000
0010
0000
0000
0000
0000
0000
0000
,
0000
0001
0000
0000
0000
0000
0000
0000
,
0000
1000
0000
0000
0000
0000
0000
0000
,
0000
0010
0000
0000
0000
0000
0000
0000
,
0000
0100
0000
0000
0000
0000
0000
0000
,
0000
0001
0000
0000
0000
0010
0000
0000
,
0000
0001
0000
0000
0000
0000
0000
0000
,
0000
1000
0000
0000
0000
0100
0000
0000
,
0000
1000
0000
0000
0000
0000
0000
0000
,
0000
0010
0000
0000
0000
0100
0000
0000
,
0000
0010
0000
0000
0000
0000
0000
0000
,
0000
0100
0000
0000
0000
0010
0000
0000
,
0000
0100
0000
0000
0000
0000
0000
0000
,
0000
1001
0000
0000
0000
0000
0000
0000
,
0000
0000
0000
0000
,
0000
1001
0000
0000
0000
0000
0000
0000
,
0000
0001
0000
0000
0000
0000
0000
0000
,
0000
1000
0000
0000
0000
0000
0000
0000
,
0000
0100
0000
0000
0000
0000
0000
0000
,
0000
0010
0000
0000
0000
0000
0000
0000
,
0000
0001
0000
0000
0000
0000
0000
0000
,
0000
0100
0000
0000
0000
0000
0000
0000
,
0000
0010
0000
0000
0000
0000
0000
0000
,
0000
0100
0000
0000
0000
0000
0000
0000
,
0000
0001
0000
0000
0000
0000
0000
0000
,
0000
1000
0000
0000
0000
0000
0000
0000
,
0000
1000
0000
0000
0000
0000
0000
0000
,
0000
0001
0000
0000
0000
0000
0000
0000
,
0000
0001
0000
0000
0000
0000
0000
0000
,
0000
0010
0000
0000
0000
0000
0000
0000
,
0000
0100
0000
0000
0000
0000
0000
0000
,
0000
0010
0000
0000
0000
0000
0000
0000
,
0000
0100
0000
0000
0000
0000
0000
0000
,
0000
1001
0000
0000
0000
0000
0000
0000
,
0000
0000
0000
0000
,
0000
0000
0000
0000
,
0000
0000
0000
0000
,
0000
1001
0000
0000
0000
0000
0000
0000
,
0000
0000
0000
0000
,
0000
1000
0000
0000
0000
0000
0000
0000
,
0000
1001
0000
0000
0000
0000
0000
0000
,
0000
0010
0000
0000
0000
0100
0000
0000
,
0000
0010
0000
0000
0000
0100
0000
0000
,
0000
0010
0000
0000
0000
0100
0000
0000
,
0000
0010
0000
0000
0000
0000
0000
0000
,
0000
1000
0000
0000
0000
0001
0000
0000
,
0000
1000
0000
0000
0000
0001
0000
0000
,
0000
1000
0000
0000
0000
0001
0000
0000
,
0000
1000
0000
0000
0000
0000
0000
0000
,
0000
0100
0000
0000
0000
1000
0000
0000
,
0000
0100
0000
0000
0000
1000
0000
0000
,
0000
0010
0000
0000
0000
0100
0000
0000
,
0000
0010
0000
0000
0000
0100
0000
0000
,
0000
0001
0000
0000
0000
0010
0000
0000
,
0000
0001
0000
0000
0000
0010
0000
0000
,
0000
0001
0000
0000
0000
1000
0000
0000
,
0000
0001
0000
0000
0000
1000
0000
0000
,
0000
1001
0000
0000
0000
0000
0000
0000
;
