#VERSION:0.83;
#TITLE:きゅうり味のビールを飲めばいいよ!;
#SUBTITLE:;
#ARTIST:神波千尋 (Studioどらごんめいる);
#TITLETRANSLIT:KYUURI AJI NO BEER WO NOMEBA II YO!;
#SUBTITLETRANSLIT:;
#ARTISTTRANSLIT:CHIHIRO KANNAMI (Studio DRAGONMAIL);
#GENRE:;
#ORIGIN:;
#CREDIT:DigiMindAxel;
#BANNER:KYUURI AJI NO BEER WO NOMEBA II YO!.png;
#BACKGROUND:KYUURI AJI NO BEER WO NOMEBA II YO!-bg.png;
#PREVIEWVID:;
#JACKET:KYUURI AJI NO BEER WO NOMEBA II YO!-jacket.png;
#CDIMAGE:;
#DISCIMAGE:;
#LYRICSPATH:KYUURI AJI NO BEER WO NOMEBA II YO!.lrc;
#CDTITLE:DigiMindAxel original simfile.png;
#MUSIC:KYUURI AJI NO BEER WO NOMEBA II YO!.ogg;
#OFFSET:-0.190000;
#SAMPLESTART:17.540024;
#SAMPLELENGTH:12.000000;
#SELECTABLE:YES;
#BPMS:0.000=180.000;
#STOPS:;
#DELAYS:;
#WARPS:;
#TIMESIGNATURES:0.000=4=4;
#TICKCOUNTS:0.000=4;
#COMBOS:0.000=1;
#SPEEDS:0.000=1.000=0.000=0;
#SCROLLS:0.000=1.000;
#FAKES:;
#LABELS:0.000=Song Start;
#BGCHANGES:-1.000=KYUURI AJI NO BEER WO NOMEBA II YO!.avi=1.000=1=0=0=StretchNoLoop==CrossFade==,
99999=-nosongbg-=1.000=0=0=0 // don't automatically add -songbackground-
;
#KEYSOUNDS:;
#ATTACKS:
;

//---------------dance-single - ----------------
#NOTEDATA:;
#CHARTNAME:;
#STEPSTYPE:dance-single;
#DESCRIPTION:;
#CHARTSTYLE:;
#DIFFICULTY:Easy;
#METER:8;
#RADARVALUES:0.280506,0.537236,0.134836,0.016854,0.000000,233.000000,217.000000,16.000000,2.000000,0.000000,0.000000,0.000000,0.000000,0.000000,0.280506,0.537236,0.134836,0.016854,0.000000,233.000000,217.000000,16.000000,2.000000,0.000000,0.000000,0.000000,0.000000,0.000000;
#CREDIT:;
#NOTES:
0000
0000
0000
0000
,
0000
0000
0000
0000
,
0000
0000
0000
0000
,
0000
0000
0000
0000
,
1001
0000
0000
0000
,
0000
0000
0000
0000
,
0000
0000
0000
0000
,
0010
0100
0010
0000
,
0000
0000
1000
0001
,
1000
0000
0000
0000
,
0001
1000
0001
0000
,
0000
0000
0100
0010
,
0100
0010
1000
0001
,
0010
0001
0001
1000
,
1000
1000
0010
0010
,
0010
0100
0100
0100
,
0001
0001
0001
1000
,
1000
1000
0010
0010
,
0010
0100
0100
0100
,
1001
0010
0010
1000
,
1000
1000
0001
0001
,
0001
0100
0100
0100
,
0010
0010
0010
1000
,
1000
1000
0100
0100
,
0100
0010
0010
0010
,
1001
0000
0000
0001
,
0000
0000
1000
0100
,
1000
0010
0100
0000
,
0001
0000
0000
1000
,
0000
0000
0010
0100
,
0001
0010
0001
0000
,
1000
0000
0000
0010
,
0000
0000
1000
0100
,
1000
0010
0100
0000
,
0001
0000
0000
0100
,
0000
0000
0010
0100
,
0010
1000
0001
0000
,
1000
0100
1000
0100
,
1000
0100
0010
0001
,
0010
0001
0010
0001
,
0100
0001
0100
0001
,
0100
0001
1000
0010
,
1000
0010
1000
0010
,
1000
0100
0010
0001
,
0100
0010
1000
0100
,
1000
0010
0100
0010
,
1000
0001
1000
0010
,
0100
0010
1000
0001
,
1000
0001
1000
0000
,
0001
0000
0000
0001
,
0000
0000
0001
0000
,
0000
0000
0000
0000
,
1000
0000
0000
1000
,
0000
0000
1000
0000
,
0000
0000
0000
0000
,
0010
0000
0000
0010
,
0000
0000
0010
0000
,
0000
0000
0000
0000
,
0100
0000
0000
0100
,
0000
0000
0100
1001
,
1001
1001
1001
0010
,
0100
0000
0000
0100
,
0000
0000
0100
0000
,
0000
0000
0000
0000
,
0010
0000
0000
0010
,
0000
0000
0010
0000
,
0000
0000
0000
0000
,
1000
0000
0000
1000
,
0000
0000
1000
0000
,
0000
0000
0000
0000
,
0110
0000
0000
0110
,
0000
0000
2002
0000
,
0000
0000
0000
3003
,
0010
0100
0010
1000
,
0100
1000
0001
0010
,
0001
0100
0010
1000
,
0100
1000
0010
0100
,
0010
1000
0001
1000
,
0001
0010
0001
0100
,
0010
0100
0010
1000
,
0100
1000
0001
1000
,
0001
0100
0010
1000
,
0010
1000
0010
0100
,
0001
0100
0110
0110
,
1001
1001
0110
0110
,
0010
0000
0000
0000
;

//---------------dance-single - ----------------
#NOTEDATA:;
#CHARTNAME:;
#STEPSTYPE:dance-single;
#DESCRIPTION:;
#CHARTSTYLE:;
#DIFFICULTY:Hard;
#METER:13;
#RADARVALUES:0.636858,0.608867,0.412934,0.008427,0.000000,529.000000,480.000000,49.000000,1.000000,0.000000,0.000000,0.000000,0.000000,0.000000,0.636858,0.608867,0.412934,0.008427,0.000000,529.000000,480.000000,49.000000,1.000000,0.000000,0.000000,0.000000,0.000000,0.000000;
#CREDIT:;
#NOTES:
0000
0000
0000
0000
,
0000
0000
0000
0000
,
0000
0000
0000
0000
,
0000
0000
0000
0000
,
1100
1000
1000
0001
,
0001
0001
1000
1000
,
1000
0000
0001
0000
0001
0100
0010
0000
,
0101
0001
0001
0010
,
0010
0010
0100
0100
,
0100
0000
1000
0000
1000
0000
1000
0001
,
0100
0100
0100
0010
,
0010
0010
1001
1001
,
1001
0000
0001
0010
0100
1000
0001
0001
,
1000
0100
0010
0001
0100
0000
0001
0010
,
0100
1000
0010
0000
0100
0000
1001
0000
,
0001
0100
0010
0000
1000
0010
0100
0000
,
0001
0010
0100
1000
0010
0000
1000
0100
,
0010
0001
0100
0000
0010
0000
1001
0000
,
1000
0010
0100
0000
0001
0100
0010
0000
,
1001
0000
1000
0100
0001
0000
0001
0000
,
0001
0100
1000
0000
0110
0000
0110
0000
,
1000
0100
0010
0001
1000
0100
0010
0000
,
1001
0000
0001
0100
1000
0000
1000
0000
,
1000
0100
0001
0000
1001
0000
1001
0000
,
1001
0000
1000
0010
0100
0001
1000
0100
,
0010
0000
0001
1000
0010
0000
0010
0000
,
0010
1000
0001
0000
0100
0000
0100
0001
,
0010
0100
1000
0000
0100
0010
0001
0000
,
0100
0000
0100
0001
1000
0000
1000
0000
,
1000
0001
0100
0000
0100
0000
0100
0001
,
0010
0100
1000
0000
1000
0100
0010
0001
,
1001
0000
0001
1000
0100
0000
0100
0000
,
0100
1000
0001
0000
0001
0000
0001
1000
,
0100
0010
0001
0000
0100
0001
1000
0000
,
1001
0000
1000
0010
1000
0000
1001
0000
,
0001
0100
0001
0000
1001
0000
1000
0100
,
0010
0001
0100
1000
0100
0001
0010
0100
,
1000
0000
0001
0100
1000
0000
1000
0000
,
1000
0100
0001
0000
0010
0100
1000
0000
,
0011
0000
1001
0000
1000
0100
0010
0001
,
1000
0000
0001
0010
1000
0000
1000
0000
,
1000
0010
0001
0000
1100
0000
1001
0000
,
0001
0100
0001
0010
0100
1000
0001
0000
,
1001
0000
1000
0100
0001
0100
1000
0000
,
0001
0100
1000
0100
0001
0000
1100
0000
,
1001
0000
1000
0100
0010
0001
1000
0000
,
0001
0010
1000
0010
0001
0000
1000
0010
,
0001
0010
1000
0000
0011
0000
0011
0000
,
1001
0000
0001
0100
0010
0010
1000
1000
,
0001
0010
0100
1000
0010
0000
1000
0100
,
0010
0001
0100
0000
0101
0000
1001
0000
,
1000
0100
0001
0100
1000
0001
1001
0000
,
1000
0100
0010
0001
0100
0000
0001
0010
,
0100
1000
0010
0000
1010
0000
1001
0000
,
0001
0010
1000
0010
0001
1000
1001
0000
,
1000
0010
0100
0001
0010
0000
0001
0100
,
0010
1000
0100
0000
1100
0000
1001
0000
,
0001
0100
1000
0100
0001
1000
1001
0000
,
0001
0100
0010
1000
0100
0000
1000
0010
,
0100
0001
0010
0000
0011
0000
1001
0000
,
1001
0000
0001
0010
0100
1000
0100
0001
,
0100
0000
1000
0010
0100
0000
0001
0000
,
1000
0010
0100
0000
0001
0000
1000
0100
,
0010
0001
1000
0000
0001
0010
0100
0000
,
1000
0000
0001
0100
0010
0000
1000
0000
,
0001
0100
0010
0000
1000
0000
0001
0010
,
0100
1000
0001
0000
1000
0100
0010
0001
,
1001
0000
1000
0100
0001
0000
0001
0000
,
0001
0100
1000
0000
1000
0000
1000
0001
,
0010
0100
2000
0000
0001
3001
0000
0000
,
1001
0000
0001
0010
1000
0000
1001
0000
,
1000
0010
0001
0000
1001
0000
1001
0000
,
1001
0000
0001
0100
0010
0010
1000
1000
,
0001
0010
0100
1000
0001
0000
0010
0100
,
1000
0010
0100
0001
1000
0100
0010
0001
,
1000
0000
0100
0010
0001
0100
0010
1000
,
0001
0010
0100
1000
0001
0000
0010
0100
,
1000
0010
0100
0001
1000
0000
1000
0100
,
0010
0001
1000
0000
0001
0100
0010
1000
,
0100
0001
0100
1000
0001
0000
0010
0100
,
1000
0010
0001
0010
1000
0000
1000
0000
,
1000
0001
0010
0100
1000
0000
0001
0010
,
0100
1000
0010
0001
0010
0000
1000
0100
,
0001
0100
1000
0000
1010
0000
1010
0000
,
1001
0000
0001
0010
0100
1000
1000
0010
,
0010
0000
0000
0000
;

//---------------dance-single - ----------------
#NOTEDATA:;
#CHARTNAME:;
#STEPSTYPE:dance-single;
#DESCRIPTION:;
#CHARTSTYLE:;
#DIFFICULTY:Beginner;
#METER:3;
#RADARVALUES:0.142059,0.286526,0.042136,0.000000,0.000000,118.000000,113.000000,5.000000,0.000000,0.000000,0.000000,0.000000,0.000000,0.000000,0.142059,0.286526,0.042136,0.000000,0.000000,118.000000,113.000000,5.000000,0.000000,0.000000,0.000000,0.000000,0.000000,0.000000;
#CREDIT:;
#NOTES:
0000
0000
0000
0000
,
0000
0000
0000
0000
,
0000
0000
0000
0000
,
0000
0000
0000
0000
,
0000
0000
0000
0000
,
0000
0000
0000
0000
,
0000
0000
0000
0000
,
0000
0000
0000
0000
,
0000
0000
0000
0000
,
0000
0000
0000
0000
,
1001
0000
0000
0000
,
0000
0000
0010
0000
,
0000
0000
0000
0000
,
1000
0001
1000
0000
,
0000
0000
0001
0010
,
0001
0000
0000
0000
,
1000
0100
1000
0000
,
0000
0000
0001
1000
,
0001
0000
0000
0000
,
1000
0001
1000
0000
,
0000
0000
0010
0100
,
0010
0000
0000
0000
,
1000
0100
1000
0000
,
0000
0000
1001
0010
,
0100
0010
0100
0010
,
1000
0000
0000
0001
,
0000
0000
1000
0000
,
0000
0001
0000
0000
,
0100
0000
0000
0010
,
0000
0000
0100
0000
,
0000
0010
0000
0000
,
1000
0000
0000
0001
,
0000
0000
1000
0000
,
0000
0001
0000
0000
,
0010
0000
0000
0001
,
0000
0000
0010
0000
,
0000
0001
0000
0000
,
1001
0000
0000
0100
,
0000
0000
0010
0000
,
0000
1000
0000
0000
,
0100
0000
0000
1000
,
0000
0000
0010
0000
,
0000
0100
0000
0000
,
0001
0000
0000
0010
,
0000
0000
0001
0000
,
0000
0100
0000
0000
,
0010
0000
0000
1000
,
0000
0000
0100
0000
,
0000
0000
0000
0000
,
1001
0000
0000
0010
,
0000
0000
0100
0000
,
0000
0010
0000
0000
,
1000
0001
1000
0000
,
0000
0000
0001
1000
,
0001
0000
0000
0000
,
1000
0001
1000
0000
,
0000
0000
0001
1000
,
0001
0000
0000
0000
,
1000
0001
1000
0000
,
0000
0000
0001
1000
,
0001
1000
0001
1000
,
0010
0000
0000
0010
,
0000
0000
0010
0000
,
0000
0010
0000
0000
,
0100
0000
0000
0100
,
0000
0000
0100
0000
,
0000
0100
0000
0000
,
0001
0000
0000
0001
,
0000
0000
0001
0000
,
0000
0001
0000
0000
,
1000
0000
0000
1000
,
0000
0000
1000
0000
,
0000
0000
0000
0000
,
0010
0000
0000
1000
,
0000
0000
0010
0000
,
0000
0000
0000
0000
,
0100
0000
0000
0001
,
0000
0000
0010
0000
,
0000
0000
0000
0000
,
0001
0000
0000
1000
,
0000
0000
0100
0000
,
0000
0000
0000
0000
,
1000
0000
0000
0010
,
0000
0000
0100
0000
,
0000
0000
0000
0000
,
1001
0000
0000
0000
;

//---------------dance-single - ----------------
#NOTEDATA:;
#CHARTNAME:;
#STEPSTYPE:dance-single;
#DESCRIPTION:;
#CHARTSTYLE:;
#DIFFICULTY:Medium;
#METER:11;
#RADARVALUES:0.455070,0.573051,0.396080,0.151690,0.000000,378.000000,331.000000,47.000000,18.000000,0.000000,0.000000,0.000000,0.000000,0.000000,0.455070,0.573051,0.396080,0.151690,0.000000,378.000000,331.000000,47.000000,18.000000,0.000000,0.000000,0.000000,0.000000,0.000000;
#CREDIT:;
#NOTES:
0000
0000
0000
0000
,
0000
0000
0000
0000
,
0000
0000
0000
0000
,
0000
0000
0000
0000
,
1001
0000
0000
0000
,
0000
0000
0010
0010
,
0010
0010
0010
0000
,
1001
0000
0000
0000
,
0000
0000
0100
0100
,
0100
0100
0100
0000
,
1001
0000
0000
0000
,
0000
0000
0110
0110
,
1001
0000
1000
0001
1000
0001
1000
0000
,
0001
0010
0100
1000
,
0100
0010
0001
1000
,
0001
0010
0100
1000
,
0100
0010
0001
1000
,
0010
0100
0001
1000
,
1000
0001
0001
0100
,
1001
0010
0100
1000
,
0010
0100
0010
0000
1000
0000
1001
0000
,
0100
0010
0001
1000
,
0001
0100
0001
0000
1001
0000
1000
0100
,
1000
1001
1000
1010
,
0001
0101
1000
1001
,
0001
0100
0000
0001
,
0100
0000
0001
0010
,
0100
1000
0001
0000
,
1000
0010
0000
1000
,
0010
0000
1000
0100
,
0010
0000
0001
0000
0010
0100
1000
0000
,
1001
0000
0010
0100
0000
0000
0001
0000
,
0010
0100
0000
0000
1000
0000
0001
0100
,
0001
0100
0001
0000
0100
0010
0000
0000
,
1001
0000
0100
0010
0000
0000
1001
0000
,
0100
0010
0000
0000
1001
0000
1000
0010
,
1000
0010
1000
0000
0001
0010
0001
0000
,
1001
0000
0100
0010
0100
0000
1000
0000
,
0010
0100
0010
0000
0002
0000
1000
0000
,
1003
1001
0100
0010
,
0001
0000
0010
0100
0010
0000
0001
0000
,
1000
0010
1000
0000
0002
0000
1000
0000
,
1003
0000
0010
0000
1000
0001
1000
0001
,
1000
0000
0001
0010
0001
0000
0010
0000
,
0100
0010
0100
0000
2000
0000
0001
0000
,
3001
0100
0001
1000
,
0100
0010
0100
0000
1000
0000
0001
0000
,
0100
0001
0100
0000
0101
0000
0101
0000
,
1001
0000
1001
0000
0001
1000
0001
1000
,
0001
1000
1000
0100
,
0001
0100
1000
1100
,
0001
0010
0001
1000
,
0001
1000
1001
0010
,
0100
0101
0010
0100
,
1100
0010
0100
0011
,
1000
0010
1100
0010
,
0100
0101
0010
0100
,
1100
0010
0100
0011
,
0010
0100
1100
0010
,
0100
1001
1100
0011
,
1001
2002
0000
3003
,
0020
0000
0000
0130
0000
0000
2000
0000
,
0000
3001
0000
0000
0001
0000
0010
0000
,
0100
0000
2000
0000
0000
3010
0000
0000
,
0200
0000
0000
0301
0000
0000
2000
0000
,
0000
3100
0000
0000
0010
0000
0001
0000
,
1000
0000
0200
0000
0000
1300
0000
0000
,
1001
0000
0010
0100
0001
0000
1001
0000
,
0100
0010
1000
0000
0011
0000
0100
0000
,
1000
0100
0010
0001
,
1001
0000
0010
0100
0001
0000
1001
0000
,
0100
0010
1000
0000
0001
0000
0100
0000
,
0010
0000
1000
0010
0100
0001
1000
0000
,
0100
0000
0010
0100
0010
0000
0100
0000
,
1000
0001
1000
0000
0002
0000
0100
0000
,
0103
0101
2000
0000
,
3001
0000
0010
0100
0010
0000
0001
0000
,
1000
0001
1000
0000
0020
0000
1000
0000
,
1030
1010
0002
0000
,
1003
0000
0100
0010
0100
0000
1000
0000
,
0001
0100
0010
0000
2000
0000
0100
0000
,
3100
1100
0002
0000
,
1003
0000
0010
0100
0010
0000
0001
0000
,
1000
0010
0100
0000
0002
0000
0010
0000
,
0013
0000
0011
0000
1000
0100
0010
0001
,
1000
0000
0000
0000
;

//---------------dance-single - ----------------
#NOTEDATA:;
#CHARTNAME:;
#STEPSTYPE:dance-single;
#DESCRIPTION:;
#CHARTSTYLE:;
#DIFFICULTY:Challenge;
#METER:15;
#RADARVALUES:0.817441,0.967024,0.446643,0.235962,0.375012,679.000000,626.000000,53.000000,28.000000,0.000000,0.000000,0.000000,0.000000,0.000000,0.817441,0.967024,0.446643,0.235962,0.375012,679.000000,626.000000,53.000000,28.000000,0.000000,0.000000,0.000000,0.000000,0.000000;
#CREDIT:;
#NOTES:
// measure 0
0000
0000
0000
0000
,  // measure 1
0000
0000
0000
0000
,  // measure 2
0000
0000
0000
0000
,  // measure 3
0000
0000
0000
0000
,  // measure 4
0101
0000
0001
1000
0100
0000
1000
0000
,  // measure 5
1000
0001
0010
0000
1100
0000
0110
0000
,  // measure 6
0010
0000
0001
0000
1000
0000
0000
0000
0100
0000
1000
0000
0010
0100
0001
0000
,  // measure 7
1001
0000
1000
0001
0100
0000
0001
0000
,  // measure 8
0001
1000
0010
0000
0101
0000
0110
0000
,  // measure 9
0010
1000
0001
0000
0011
0000
0100
1000
,  // measure 10
1001
0000
0001
1000
0100
0000
1000
0000
,  // measure 11
1000
0001
0010
0000
1001
0000
1001
0000
,  // measure 12
1001
0000
0000
0000
0100
0000
1000
0000
0010
0000
0100
0000
0001
1000
0001
1000
,  // measure 13
0001
0000
0100
0000
0001
0010
0100
0000
1000
0000
0000
0000
0001
0000
0100
0000
,  // measure 14
0001
0010
0100
0000
1000
0000
0000
0000
1100
0000
0000
0000
0101
0000
0000
0000
,  // measure 15
0010
1000
0001
0010
1000
0010
0001
1000
,  // measure 16
0001
0000
0010
0000
0001
0100
0010
0000
1000
0000
0000
0000
0001
0000
0010
0000
,  // measure 17
0001
0100
0010
0000
1000
0000
0000
0000
1010
0000
0000
0000
0011
0000
0000
0000
,  // measure 18
0100
0000
1000
0000
0001
0000
0010
0000
1000
0000
0010
0000
0001
0100
0010
0000
,  // measure 19
1001
0000
0100
0000
0010
0100
1000
0000
0010
0000
0000
0000
1000
0000
0100
0000
,  // measure 20
0010
0100
1000
0000
0010
0000
0000
0000
0101
0000
0000
0000
0110
0000
0000
0000
,  // measure 21
0010
1000
0001
0100
1000
0100
0001
0000
,  // measure 22
0010
0000
0100
0000
1000
0010
0100
0000
0001
0000
0000
0000
0010
0000
0100
0000
,  // measure 23
1000
0010
0100
0000
0001
0000
0000
0000
0101
0000
0100
0000
0110
0000
0000
0000
,  // measure 24
1010
0000
0010
0000
1001
0000
0100
0000
0010
0000
0001
0000
0100
0010
0100
0010
,  // measure 25
2000
0000
0001
3001
0000
0000
2000
0000
,  // measure 26
0001
3001
0000
0000
0002
0000
0103
0010
,  // measure 27
0100
0001
2000
0000
0001
3001
0000
0000
,  // measure 28
2000
0000
0001
3001
0000
0000
2000
0000
,  // measure 29
0001
3001
0000
0000
0002
0000
0103
0010
,  // measure 30
1000
0000
0100
0000
0010
0000
0000
0000
0001
0100
0010
1000
0010
0100
0001
1000
,  // measure 31
0002
0000
0010
0013
0000
0000
0002
0000
,  // measure 32
0010
0013
0000
0000
0200
0000
0310
0001
,  // measure 33
0100
0010
2000
0000
0100
3100
0000
0000
,  // measure 34
2001
0000
0100
3100
0000
0000
2001
0000
,  // measure 35
0100
3100
0000
0000
0102
0000
0013
0100
,  // measure 36
1000
0000
0001
0000
0100
0000
1000
0000
0100
0000
0001
0000
0010
0100
0010
0100
,  // measure 37
1000
0001
1000
0001
1000
0001
0010
0100
,  // measure 38
0010
0100
0010
0100
1000
0001
1000
0001
,  // measure 39
1000
0100
1000
0100
1000
0010
0100
0000
,  // measure 40
0001
1000
0001
1000
0001
1000
0100
0010
,  // measure 41
0100
0010
0100
0010
0001
0100
0001
0100
,  // measure 42
0001
0000
0100
0000
0001
0000
0010
0000
0100
1000
0010
0100
0010
1000
0010
0100
,  // measure 43
0010
1000
0010
1000
0010
1000
0100
0010
,  // measure 44
0100
0010
0100
0010
0001
1000
0001
1000
,  // measure 45
0001
1000
0100
0010
0100
0010
0001
0000
,  // measure 46
0100
0010
0100
0010
0100
0010
1000
0010
,  // measure 47
1000
0010
1000
0010
1001
1000
1100
0000
,  // measure 48
0011
0000
0001
0000
1001
0000
0100
0000
0010
0001
0100
0010
0100
0001
0010
0001
,  // measure 49
0100
0000
0010
0000
1000
0010
1000
0000
1001
0000
0000
0000
0100
0000
0010
0000
,  // measure 50
1000
0010
1000
0000
1001
0000
0000
0000
0100
0001
0100
0000
0001
1000
0001
0000
,  // measure 51
0010
0000
0100
0000
1000
0010
1000
0000
0001
1000
0001
0000
1001
0000
0000
0000
,  // measure 52
0010
0000
0100
0000
1000
0010
1000
0000
1001
0000
0000
0000
0010
0000
0100
0000
,  // measure 53
1000
0010
1000
0000
1001
0000
0000
0000
0010
0001
0010
0000
0100
0010
0100
0000
,  // measure 54
1000
0000
0010
0000
0100
0001
0100
0000
0001
0000
1000
0000
0100
0010
0001
0000
,  // measure 55
0100
0000
0010
0000
1000
0100
1000
0000
1001
0000
0000
0000
0010
0000
0100
0000
,  // measure 56
0001
0010
0001
0000
1001
0000
0000
0000
0100
0001
0100
0000
0001
1000
0001
0000
,  // measure 57
0010
0000
0100
0000
1000
0001
1000
0000
0001
0010
0001
0000
1001
0000
0000
0000
,  // measure 58
0100
0000
0010
0000
0001
0100
0001
0000
1001
0000
0000
0000
0100
0000
0010
0000
,  // measure 59
0001
0100
0001
0000
1001
0000
0000
0000
1100
0000
0100
0000
0110
0000
0000
0000
,  // measure 60
0011
0000
0001
0000
1001
0000
0100
0000
0010
0001
0100
0001
0010
0100
1000
0001
,  // measure 61
2000
0000
3001
0010
0100
0000
2000
0000
,  // measure 62
3001
0010
0100
0000
0020
0000
0031
0001
,  // measure 63
0100
0010
2000
0000
3001
0010
0100
0000
,  // measure 64
2000
0000
3001
0010
0100
0000
2000
0000
,  // measure 65
3001
0010
0100
0000
0020
0000
0031
0001
,  // measure 66
0100
0000
0010
0000
2000
0000
0000
0000
3001
0010
0100
0010
0001
1000
0010
1000
,  // measure 67
0002
0000
1003
0010
0100
0000
0002
0000
,  // measure 68
1003
0010
0100
0000
0020
0000
1030
1000
,  // measure 69
0100
0010
0002
0000
1003
0010
0100
0000
,  // measure 70
2001
0000
3001
0010
0100
0000
2001
0000
,  // measure 71
3001
0010
0100
0000
1001
0001
0101
0000
,  // measure 72
1010
0000
1000
0000
1001
0000
0010
0000
0100
1000
0010
0100
0001
0100
0010
0100
,  // measure 73
0001
0000
1000
0000
0010
0100
0010
0000
1000
0010
1000
0000
0100
0000
0010
0000
,  // measure 74
0001
1000
0001
0000
1000
0100
1000
0000
0010
0100
0010
0000
1000
0000
0100
0000
,  // measure 75
0010
0000
0001
0000
0100
0000
0001
0000
0100
0010
0100
0000
0001
0000
0010
0000
,  // measure 76
0100
0000
1000
0000
0001
0100
0001
0000
1000
0001
1000
0000
0100
0000
0010
0000
,  // measure 77
0001
1000
0001
0000
1000
0100
1000
0000
0010
0100
0010
0000
1000
0000
0001
0000
,  // measure 78
0100
0000
1000
0000
0100
0000
0001
0000
1000
0001
0010
0001
1000
0010
1000
0001
,  // measure 79
0010
0000
0100
0000
1000
0010
1000
0000
0001
1000
0001
0000
0010
0000
0100
0000
,  // measure 80
1000
0010
1000
0000
0001
1000
0001
0000
0010
0001
0010
0000
0100
0000
1000
0000
,  // measure 81
0100
0000
0001
0000
0100
0000
1000
0000
0010
0100
0010
0000
1000
0000
0100
0000
,  // measure 82
0010
0000
0100
0000
1000
0001
1000
0000
0001
0010
0001
0000
0100
0000
0010
0000
,  // measure 83
1000
0001
1000
0000
0001
0010
0001
0000
1001
0000
1000
0000
1001
0000
0100
0000
,  // measure 84
0110
0000
0010
0000
1001
0000
0010
0000
0100
1000
0010
0100
0001
0010
0100
1000
,  // measure 85
0010
0000
0000
0000
;
