#TITLE:IS THIS LOVE? (This is LOVE mix);
#SUBTITLE:;
#ARTIST:Asuka M answered by DJ Yoshitaka with D&C;
#TITLETRANSLIT:;
#SUBTITLETRANSLIT:;
#ARTISTTRANSLIT:;
#GENRE:;
#CREDIT:DigiMindAxel;
#BANNER:IS THIS LOVE (This is LOVE mix).png;
#BACKGROUND:IS THIS LOVE (This is LOVE mix)-bg.png;
#LYRICSPATH:;
#CDTITLE:Konami original REMIX.png;
#MUSIC:IS THIS LOVE (This is LOVE mix).ogg;
#OFFSET:-0.923000;
#SAMPLESTART:51.976654;
#SAMPLELENGTH:12.000000;
#SELECTABLE:YES;
#BPMS:0.000000=115.000000
;
#STOPS:
;
#BGCHANGES:;
#KEYSOUNDS:;
#ATTACKS:;

//---------------dance-single - ----------------
#NOTES:
     dance-single:
     :
     Easy:
     4:
     0.180946,0.227992,0.050665,0.135107,0.000000,150.000000,144.000000,6.000000,16.000000,0.000000,0.000000,0.180946,0.227992,0.050665,0.135107,0.000000,150.000000,144.000000,6.000000,16.000000,0.000000,0.000000:
// measure 0
0000
0000
0000
0000
,  // measure 1
0000
0000
0000
0000
,  // measure 2
0000
0000
0000
0000
,  // measure 3
0000
0000
0000
0000
,  // measure 4
2002
0000
3003
0001
,  // measure 5
0200
0000
0000
0310
,  // measure 6
2000
0000
0000
3001
,  // measure 7
0020
0000
0000
0030
,  // measure 8
0001
0001
0001
0000
,  // measure 9
1000
1000
1000
0000
,  // measure 10
0001
0001
0001
0000
,  // measure 11
1000
1000
1000
0000
,  // measure 12
0100
0010
0001
0010
,  // measure 13
0100
1000
0100
0010
,  // measure 14
0001
0001
0001
0000
,  // measure 15
1000
1000
1000
0000
,  // measure 16
0010
0200
0000
0300
,  // measure 17
0001
1000
0100
0000
,  // measure 18
1000
0100
0010
0001
,  // measure 19
1000
0000
0000
0000
,  // measure 20
0010
0010
0010
0010
,  // measure 21
0100
0100
0100
0100
,  // measure 22
0010
0100
0001
1000
,  // measure 23
0100
0100
0100
0100
,  // measure 24
0000
0000
0000
0000
,  // measure 25
1001
1000
0100
0010
,  // measure 26
0001
0000
0100
0010
,  // measure 27
0100
0000
0001
0000
,  // measure 28
2000
0000
3002
0000
,  // measure 29
0013
0000
0001
0010
,  // measure 30
0100
1000
0010
0100
,  // measure 31
0020
0000
0000
0000
,  // measure 32
0130
0000
0100
0010
,  // measure 33
2000
0000
3010
0100
,  // measure 34
0001
1000
0100
1000
,  // measure 35
0002
0000
0103
0000
,  // measure 36
0010
0100
0010
1000
,  // measure 37
0002
0000
0013
0001
,  // measure 38
0100
0010
0100
0001
,  // measure 39
2000
0000
0000
0000
,  // measure 40
3001
0001
1000
1000
,  // measure 41
1001
0010
0010
0010
,  // measure 42
0100
0000
0000
0000
,  // measure 43
0010
0000
0100
0000
0100
0000
0000
0020
,  // measure 44
0000
0000
0000
0000
,  // measure 45
0130
0100
0100
0100
,  // measure 46
1001
0000
0001
0010
,  // measure 47
0100
1000
0010
1000
,  // measure 48
0002
0000
0000
0000
,  // measure 49
1003
1000
0010
0010
,  // measure 50
1001
0000
1000
0100
,  // measure 51
0010
0001
0100
0001
,  // measure 52
0020
0000
0000
0000
,  // measure 53
0031
0001
0100
0100
,  // measure 54
1001
0000
0000
0000
;

//---------------dance-single - ----------------
#NOTES:
     dance-single:
     :
     Medium:
     9:
     0.354655,0.455985,0.295546,0.303990,0.012666,294.000000,259.000000,35.000000,36.000000,0.000000,0.000000,0.354655,0.455985,0.295546,0.303990,0.012666,294.000000,259.000000,35.000000,36.000000,0.000000,0.000000:
// measure 0
0000
0000
0000
0000
,  // measure 1
0000
0000
0000
0000
,  // measure 2
0000
0000
0000
0000
,  // measure 3
0000
0000
0000
0000
,  // measure 4
1001
0002
0000
0000
0000
1003
0100
0020
,  // measure 5
0000
0000
0000
0000
0000
0031
0100
0020
,  // measure 6
0000
0000
0000
0000
0000
0000
0030
1000
,  // measure 7
0002
0000
0000
0000
0000
0000
1003
1000
,  // measure 8
1001
0000
0000
0000
0010
0010
0100
1000
,  // measure 9
0010
0000
0000
0000
0100
0100
0001
0010
,  // measure 10
0100
0000
0000
0000
0010
0010
0001
0100
,  // measure 11
0010
0000
0000
0000
0100
0100
0010
1000
,  // measure 12
0100
0010
0001
0010
0001
0100
0010
1000
,  // measure 13
0000
0010
0100
0010
1000
0100
0010
0001
,  // measure 14
0000
0100
0001
0100
0001
0010
0100
1000
,  // measure 15
0000
0010
0100
0010
1000
0100
0010
0001
,  // measure 16
1001
0000
0200
0000
0000
1000
0000
1300
,  // measure 17
0002
0100
0000
0103
,  // measure 18
0001
0010
0100
1000
0020
0000
0230
0000
,  // measure 19
0302
1000
0100
1003
,  // measure 20
0001
0100
0010
0100
0010
1010
1010
0000
,  // measure 21
0010
0001
0100
0010
1000
0010
0110
0001
,  // measure 22
1000
1000
1001
0000
0001
0001
1001
0000
,  // measure 23
0100
0110
0000
0101
0000
0110
0100
0001
,  // measure 24
2000
0000
0000
0000
0000
0100
3100
0000
,  // measure 25
1001
0000
0001
1000
0100
0010
0001
0010
,  // measure 26
0200
2300
3002
0203
,  // measure 27
0320
0000
0000
0230
0000
0000
0000
0000
,  // measure 28
0301
0001
0010
0010
0100
0100
1000
0010
,  // measure 29
2001
0000
0000
3001
0100
0010
1000
0100
,  // measure 30
0020
0032
0203
0320
,  // measure 31
2030
0000
0000
0000
,  // measure 32
3001
0001
0010
0010
0100
0100
1000
0010
,  // measure 33
1002
0000
0000
0013
0100
1000
0001
0100
,  // measure 34
0020
0230
0302
2003
,  // measure 35
3200
0000
0000
2300
0000
0000
0000
0000
,  // measure 36
3001
0001
0100
0100
0001
0001
0010
0100
,  // measure 37
2001
0000
0000
3010
0100
0001
1000
0100
,  // measure 38
0020
0032
0203
0320
,  // measure 39
2030
0000
0000
0000
,  // measure 40
3001
0001
1000
1000
0100
0100
0010
0000
,  // measure 41
1001
0000
0000
0000
0000
0000
0101
0000
0000
0000
0000
0100
0000
0000
0000
0000
0000
0000
0101
0000
0000
0000
0000
0100
,  // measure 42
0000
1000
1000
1000
0001
0001
0001
0010
,  // measure 43
0100
0000
0000
0000
0000
0000
1010
0000
0000
0000
0000
0010
0000
0000
0000
0000
0000
0000
1010
0000
0000
0020
0000
0000
,  // measure 44
0000
0000
0000
0000
,  // measure 45
0130
0101
0000
0110
0000
0101
0010
0100
,  // measure 46
1001
0000
0001
1000
0100
0001
0100
1000
,  // measure 47
0001
0011
0110
1100
,  // measure 48
1001
0000
0001
1000
0010
1000
0001
0000
,  // measure 49
1000
1000
0100
0100
0010
0010
0001
0100
,  // measure 50
1001
0000
1000
0001
0010
1000
0010
0001
,  // measure 51
1000
1010
0110
0101
,  // measure 52
1001
0000
1000
0001
0010
0001
0101
0000
,  // measure 53
0010
0010
1000
1000
0100
0100
0010
0000
,  // measure 54
0101
0000
0000
0000
;

//---------------dance-single - ----------------
#NOTES:
     dance-single:
     :
     Hard:
     12:
     0.513888,0.638379,0.287102,0.439096,0.405320,426.000000,392.000000,34.000000,52.000000,0.000000,0.000000,0.513888,0.638379,0.287102,0.439096,0.405320,426.000000,392.000000,34.000000,52.000000,0.000000,0.000000:
// measure 0
0000
0000
0000
0000
,  // measure 1
0000
0000
0000
0000
,  // measure 2
0000
0000
0000
0000
,  // measure 3
0000
0000
0000
0000
,  // measure 4
0110
1002
0000
0000
0000
0013
0100
2000
,  // measure 5
0000
0000
0000
0000
0000
3010
0100
0002
,  // measure 6
0000
0000
0000
0100
0000
0000
0100
0000
0000
0000
0000
0000
1000
0000
0000
0000
0000
1000
0000
0000
0000
1003
0000
0000
,  // measure 7
0200
0000
0000
0000
0000
0000
0320
0000
0000
0000
0000
0000
0032
0000
0000
2003
0000
0000
3001
0000
0100
0001
0000
0000
,  // measure 8
1001
0000
0000
0010
0000
0000
0100
0000
0000
1000
0000
0000
0010
0000
0100
0010
0000
0000
1000
0000
0000
0000
0000
0001
,  // measure 9
1000
0000
0000
0100
0000
0000
0010
0000
0000
0001
0000
0000
0100
0000
0010
0100
0000
0000
0001
0000
0000
0000
0000
1000
,  // measure 10
0001
0000
0000
0010
0000
0000
1000
0000
0000
0010
0000
0000
0001
0000
0100
0010
0000
0000
0100
0000
0000
0000
0000
0001
,  // measure 11
1000
0000
0000
0100
0000
0000
0001
0000
0000
0100
0000
0000
1000
0000
0010
0100
0000
0000
0010
0000
0000
1000
0000
0001
,  // measure 12
1000
0000
0000
0100
0000
0000
0010
0000
0000
0100
0000
1000
0001
0000
0000
0001
0000
0100
0010
0000
0000
0010
0000
0000
,  // measure 13
1000
0000
0000
0010
0000
0000
0100
0000
0000
0010
0000
1000
0001
0000
0000
0001
0000
0010
0100
0000
0000
0100
0000
0000
,  // measure 14
1000
0000
0000
0010
0000
0000
0001
0000
0000
0010
0000
0000
1000
0000
1000
0100
0000
0000
0010
0000
0010
0001
0000
0000
,  // measure 15
1000
0000
0000
0100
0000
0000
0001
0000
0000
0100
0000
0000
1000
0000
1000
0010
0000
0000
0100
0000
0100
0001
0000
0000
,  // measure 16
2002
0000
3003
1000
0001
0001
0100
0100
,  // measure 17
0001
0000
0000
0010
0000
0000
0100
0000
0000
1000
0000
0010
0000
0000
0000
0000
0000
0000
0000
0000
0000
1000
0000
0000
,  // measure 18
0001
0000
0000
0010
0000
0000
0010
0000
0000
0100
0000
0000
0200
0000
0000
0000
0000
0000
2300
0000
0000
0000
0000
3001
,  // measure 19
0000
0000
0000
2000
0000
0000
0000
0000
0000
3020
0000
0000
0000
0000
0000
0230
0000
0000
0000
0000
0000
0301
0000
0001
,  // measure 20
0010
0000
0000
0100
0000
0100
1000
0000
0000
0010
0000
0000
0100
0000
0100
0010
0000
0010
1000
0000
0000
0000
0000
0100
,  // measure 21
0010
0000
0000
0001
0000
0001
0010
0000
0000
0100
0000
0000
1000
0000
1000
0010
0000
0010
0100
0000
0000
0001
0000
0001
,  // measure 22
1000
0000
0000
1100
0000
0000
1001
0000
0000
0000
0000
1000
0001
0000
0000
0101
0000
0000
1001
0000
0000
0000
0000
1000
,  // measure 23
0100
0000
0000
1001
0000
0001
0100
0000
0000
1001
0000
1000
0100
0000
0000
1001
0000
0001
0100
0000
0100
0000
0000
0000
,  // measure 24
0020
0000
0000
0000
0000
0000
0000
0000
0000
0000
0130
0010
1000
0000
1000
0000
,  // measure 25
2002
0000
0000
0000
0000
0000
3003
0000
0000
1000
0000
1000
0100
0000
0000
0010
0000
0010
0001
0000
0000
0010
0000
0010
,  // measure 26
0200
0000
2300
0100
3002
0100
2003
0100
,  // measure 27
3002
0000
0000
2000
0000
0000
0000
3003
,  // measure 28
1000
0000
0100
0000
0000
0100
0001
0000
0000
0001
0000
0100
0000
0000
0100
1000
0000
0000
0010
0000
0100
0000
0000
0000
,  // measure 29
2002
0000
0000
0000
0000
0000
3003
0000
0000
0001
0000
0001
0100
0000
0000
0010
0000
0010
1000
0000
0000
0100
0000
0100
,  // measure 30
0020
0000
0032
0100
2003
0100
3002
0100
,  // measure 31
2003
0000
0010
0000
0010
0010
0010
3000
,  // measure 32
0001
0000
1000
0010
0000
1000
0010
0000
0000
0100
0000
0001
0000
0000
0010
0100
0000
0000
1000
0000
0010
0000
0000
0000
,  // measure 33
2002
0000
0000
0000
0000
0000
3003
0000
0000
1000
0000
1000
0010
0000
0000
0100
0000
0100
0001
0000
0000
0010
0000
0010
,  // measure 34
0200
0000
2300
0010
3002
0010
2003
0010
,  // measure 35
3002
0000
0000
2000
0000
0000
0000
3003
,  // measure 36
1000
0000
0100
0000
0000
0100
0001
0000
0000
0001
0000
0100
0000
0000
0100
1000
0000
0000
0010
0000
0100
0000
0000
0000
,  // measure 37
2002
0000
0000
0000
0000
0000
3003
0000
0000
0001
0000
0001
0010
0000
0000
0100
0000
0100
1000
0000
0000
0010
0000
0010
,  // measure 38
0200
0000
0302
0010
2003
0010
3002
0010
,  // measure 39
2003
0000
0001
0000
0001
0001
0001
3000
,  // measure 40
0001
0000
1000
0100
0000
1000
0100
0000
0000
0010
0000
0001
0000
0000
0100
0010
0000
0000
1000
0000
0100
0000
0000
0000
,  // measure 41
1001
0000
0000
0000
0000
0000
0101
0000
0000
0000
0000
1100
0000
0000
0000
0000
0000
0000
0101
0000
0000
0000
0000
1100
,  // measure 42
0000
0000
0000
0001
0000
0100
0010
0000
0100
0010
0000
0000
1000
0000
0100
0010
0000
0100
0010
0000
0001
0100
0000
0001
,  // measure 43
1000
0000
0000
0000
0000
0000
1100
0000
0000
0000
0000
0101
0000
0000
0000
0000
0000
0000
1100
0000
0000
0102
0000
0000
,  // measure 44
0000
0000
0000
1000
0000
0000
0000
0000
0000
1000
0000
0000
0000
0000
0000
1000
0000
0000
0000
0000
0000
1003
0000
0001
,  // measure 45
0100
0000
0000
1001
0000
1000
0100
0000
0000
1001
0000
0001
0100
0000
0000
1001
0000
0000
0101
0000
0000
0110
0000
0000
,  // measure 46
2020
0000
0000
0000
0000
0000
3030
0000
0000
0010
0000
0010
0100
0000
0000
0001
0000
0001
0010
0000
0000
0100
0000
0100
,  // measure 47
1000
0001
0100
1000
0100
0001
0010
0100
,  // measure 48
1002
0000
1000
0000
0100
0100
0100
0003
,  // measure 49
1000
0000
0100
0000
0000
0100
0001
0000
0000
0001
0000
0010
0000
0000
0010
1000
0000
0000
1000
0000
0100
0000
0000
0000
,  // measure 50
2002
0000
0000
0000
0000
0000
3003
0000
0000
1000
0000
1000
0100
0000
0000
0010
0000
0010
0001
0000
0000
0100
0000
0100
,  // measure 51
0010
1000
0100
0001
0100
1000
0010
0100
,  // measure 52
2001
0000
0100
0000
0001
0001
0001
3000
,  // measure 53
0001
0000
1000
0010
0000
1000
0010
0000
0000
1000
0000
0100
0000
0000
0100
0001
0000
0000
0001
0000
0010
0000
0000
0000
,  // measure 54
1010
0000
0000
0000
;

//---------------dance-single - ----------------
#NOTES:
     dance-single:
     :
     Beginner:
     1:
     0.072379,0.113996,0.075997,0.000000,0.000000,60.000000,51.000000,9.000000,0.000000,0.000000,0.000000,0.072379,0.113996,0.075997,0.000000,0.000000,60.000000,51.000000,9.000000,0.000000,0.000000,0.000000:
0000
0000
0000
0000
,
0000
0000
0000
0000
,
0000
0000
0000
0000
,
0000
0000
0000
0000
,
1001
0000
0000
0000
,
0001
0000
0000
0000
,
0010
0000
0000
0000
,
0100
0000
0000
0000
,
0110
0000
0000
0000
,
0010
0000
0000
0000
,
0010
0000
0000
0000
,
0010
0000
0000
0000
,
0100
0000
0000
0000
,
0100
0000
0000
0000
,
0100
0000
0000
0000
,
0100
0000
0000
0000
,
1001
0000
0000
0000
,
0001
0000
0000
0000
,
0010
0000
0000
0000
,
0001
0000
0000
0000
,
1000
0000
0000
0000
,
0100
0000
0000
0000
,
1000
0000
0000
0000
,
0001
0000
0000
0000
,
0000
0000
0000
0000
,
1001
0000
0000
0000
,
0000
0000
0000
0000
,
0100
0000
0000
0000
,
0010
0000
0010
0000
,
0010
0000
0000
0000
,
0100
0000
0000
0000
,
1000
0000
0000
0000
,
0000
0000
0000
0000
,
1001
0000
0000
0000
,
0010
0000
0000
0000
,
0100
0000
0000
0000
,
1000
0000
1000
0000
,
1001
0000
0000
0000
,
0100
0000
0000
0000
,
0010
0000
0000
0000
,
0001
0000
0001
0000
,
0001
0000
0000
0000
,
0000
0000
0000
0000
,
0100
0000
0000
0000
,
0000
0000
0000
0000
,
0010
0000
0010
0000
,
0110
0000
0000
0000
,
1000
0000
0000
0000
,
0010
0000
0000
0000
,
0100
0000
0000
0000
,
1001
0000
0000
0000
,
0001
0000
0000
0000
,
0010
0000
0000
0000
,
0100
0000
0100
0000
,
0110
0000
0000
0000
;
