#VERSION:0.83;
#TITLE:IEVA'S POLKA (IEVAN POLKKA) BASSHUNTER REMIX;
#SUBTITLE:;
#ARTIST:Loituma;
#TITLETRANSLIT:;
#SUBTITLETRANSLIT:;
#ARTISTTRANSLIT:;
#GENRE:;
#ORIGIN:;
#CREDIT:DigiMindAxel;
#BANNER:IEVA'S POLKA (IEVAN POLKKA) BASSHUNTER REMIX.png;
#BACKGROUND:IEVA'S POLKA (IEVAN POLKKA) BASSHUNTER REMIX-bg.png;
#PREVIEWVID:;
#JACKET:IEVA'S POLKA (IEVAN POLKKA) BASSHUNTER REMIX-jacket.png;
#CDIMAGE:;
#DISCIMAGE:;
#LYRICSPATH:;
#CDTITLE:DigiMindAxel original simfile.png;
#MUSIC:IEVA'S POLKA (IEVAN POLKKA) BASSHUNTER REMIX.ogg;
#OFFSET:-0.926000;
#SAMPLESTART:42.053852;
#SAMPLELENGTH:12.000000;
#SELECTABLE:YES;
#BPMS:0.000=140.000;
#STOPS:;
#DELAYS:;
#WARPS:;
#TIMESIGNATURES:0.000=4=4;
#TICKCOUNTS:0.000=4;
#COMBOS:0.000=1;
#SPEEDS:0.000=1.000=0.000=0;
#SCROLLS:0.000=1.000;
#FAKES:;
#LABELS:0.000=Song Start;
#BGCHANGES:;
#KEYSOUNDS:;
#ATTACKS:
;

//---------------dance-single - ----------------
#NOTEDATA:;
#CHARTNAME:;
#STEPSTYPE:dance-single;
#DESCRIPTION:;
#CHARTSTYLE:;
#DIFFICULTY:Easy;
#METER:5;
#RADARVALUES:0.243864,0.286071,0.037517,0.084414,0.000000,182.000000,178.000000,4.000000,9.000000,0.000000,0.000000,0.000000,0.000000,0.000000,0.243864,0.286071,0.037517,0.084414,0.000000,182.000000,178.000000,4.000000,9.000000,0.000000,0.000000,0.000000,0.000000,0.000000;
#CREDIT:;
#NOTES:
0000
0000
0000
0000
,
0000
0000
0000
0000
,
0000
0000
0000
0000
,
0000
0000
0000
0000
,
0000
0000
0000
0000
,
0000
0000
0000
0000
,
0001
0001
1000
1000
,
0001
0001
1000
1000
,
0010
0010
0100
0100
,
0010
0010
0100
0100
,
0001
0001
1000
1000
,
0001
0001
1000
1000
,
0100
0100
0010
0010
,
0100
0100
0020
0030
,
2002
0000
0000
0000
,
0000
0000
0000
3003
,
0001
0000
1000
0000
,
0100
0000
1000
0000
,
0001
0000
0100
0000
,
0010
0010
0010
0000
,
1000
0000
0100
0000
,
1000
0000
0001
0000
,
0100
0000
0001
0000
,
1000
0000
0000
1001
,
0001
0001
1000
1000
,
0001
1000
0100
0010
,
0001
0001
1000
1000
,
0001
0100
0010
1000
,
0001
0001
1000
1000
,
0100
0010
0001
0010
,
0100
0100
1000
1000
,
0010
0100
0001
0000
,
1000
1000
0001
0001
,
1000
0100
0010
0001
,
1000
1000
0001
0001
,
1000
0010
0100
0001
,
1000
1000
0010
0010
,
0100
0100
0001
0001
,
0010
0100
1000
0010
,
0100
0001
1000
0000
,
1002
0000
0000
0000
,
2003
0000
0000
3000
,
0001
0001
0100
0100
,
0001
0010
0100
1000
,
0010
0010
0100
0100
,
0001
0010
0100
1000
,
0001
0001
0100
0100
,
0001
1000
0100
0010
,
0001
0001
0100
0100
,
0010
0100
0001
0000
,
1000
1000
0100
0100
,
1000
0010
0100
0001
,
1000
1000
0010
0010
,
1000
0100
0010
0001
,
1000
1000
0001
0001
,
0010
0100
1000
0010
,
0100
0100
0010
0010
,
1000
0100
0010
0000
,
0002
0000
0000
0000
,
2003
0000
0000
3000
,
2002
0000
0000
0000
,
3003
0000
0000
0000
;

//---------------dance-single - ----------------
#NOTEDATA:;
#CHARTNAME:;
#STEPSTYPE:dance-single;
#DESCRIPTION:;
#CHARTSTYLE:;
#DIFFICULTY:Medium;
#METER:10;
#RADARVALUES:0.412692,0.457713,0.046897,0.046897,0.000000,308.000000,303.000000,5.000000,5.000000,0.000000,0.000000,0.000000,0.000000,0.000000,0.412692,0.457713,0.046897,0.046897,0.000000,308.000000,303.000000,5.000000,5.000000,0.000000,0.000000,0.000000,0.000000,0.000000;
#CREDIT:;
#NOTES:
0000
0000
0000
0000
,
0000
0000
0000
0000
,
0000
0000
0000
0000
,
0000
0000
0000
0000
,
0000
0000
0000
0000
,
0000
0000
0000
0000
,
1000
0001
0000
0100
0000
1000
0000
0100
,
0000
0001
0000
1000
0000
0010
0000
0001
,
0000
0010
0000
1000
0000
0001
0000
0100
,
0000
1000
0000
0100
0000
0001
0000
1000
,
0001
1000
0000
0100
0000
0001
0000
0100
,
0000
1000
0000
0010
0000
0001
0000
0010
,
0000
1000
0000
0100
0000
0001
0000
0100
,
0000
1000
0001
0100
0000
0100
0001
1000
,
0100
0100
0100
0100
,
0100
0000
0100
1000
0100
0010
0001
1000
,
0001
0000
0001
0000
1000
0100
1000
0000
,
0001
0100
0010
1000
,
0001
0000
0001
0000
1000
0100
1000
0000
,
0001
0010
0100
1000
0001
0000
0001
0000
,
0100
0010
0100
0000
0100
0000
0100
0000
,
0010
0100
0010
0000
1000
0010
1000
0000
,
0001
1000
0001
0000
0001
0000
0001
0000
,
0010
0001
0010
0001
0000
1000
1001
0000
,
0001
1000
0001
0000
1000
0100
1000
0000
,
0001
0100
0010
1000
,
0001
1000
0001
0000
1000
0100
1000
0000
,
0001
0100
0010
1000
,
0010
1000
0010
0100
0010
1000
0010
0000
,
1000
0001
0010
0001
1000
0000
0010
0000
,
0100
0001
0100
0010
0100
0001
0100
0000
,
0001
1000
0100
1000
0001
0000
0100
0000
,
0001
1000
0001
0000
1000
0100
1000
0000
,
0001
0100
0010
1000
,
0001
1000
0001
0000
1000
0100
1000
0000
,
0001
0100
0010
1000
,
0100
1000
0100
1000
0001
0100
0001
0000
,
0010
0100
0010
0100
1000
0010
1000
0000
,
0010
1000
0010
1000
0001
0010
0001
0000
,
0100
0010
0100
0010
0000
1000
1001
0000
,
0220
0000
0000
0330
,
1000
0100
0010
0001
0000
0100
0110
0000
,
0001
1000
0001
0000
1000
0100
1000
0000
,
0001
0100
0001
0100
0010
1000
0100
0000
,
1000
0001
1000
0000
0001
0010
0001
0000
,
0010
0100
0010
0100
1000
0010
1000
0000
,
0100
0010
0100
0000
0010
0001
0010
0000
,
0001
0100
0001
0100
0010
1000
0100
0000
,
1000
0001
1000
0000
0100
1000
0100
0000
,
0010
0001
0010
0001
0010
0100
0010
0000
,
0001
0100
0001
0000
1000
0001
1000
0000
,
0100
1000
0100
1000
0010
0100
0010
0000
,
0100
0001
0100
0000
0001
1000
0001
0000
,
0010
0001
0010
0001
0100
0010
1000
0000
,
0001
0100
0001
1000
0100
1000
0001
0000
,
0010
0001
0010
0100
1000
0001
1000
0000
,
0010
1000
0010
0100
0001
1000
0001
0000
,
0100
0001
0100
0010
1000
0100
0010
0000
,
0000
0001
0000
0001
0000
0001
0000
0001
,
0200
0000
0010
0310
,
2002
0000
0000
0000
,
3003
0000
0000
0000
;

//---------------dance-single - ----------------
#NOTEDATA:;
#CHARTNAME:;
#STEPSTYPE:dance-single;
#DESCRIPTION:;
#CHARTSTYLE:;
#DIFFICULTY:Hard;
#METER:13;
#RADARVALUES:0.627078,0.715177,0.356416,0.234484,0.365795,468.000000,430.000000,38.000000,25.000000,0.000000,0.000000,0.000000,0.000000,0.000000,0.627078,0.715177,0.356416,0.234484,0.365795,468.000000,430.000000,38.000000,25.000000,0.000000,0.000000,0.000000,0.000000,0.000000;
#CREDIT:;
#NOTES:
0000
0000
0000
0000
,
0000
0000
0000
0000
,
0000
0000
0000
0000
,
0000
0000
0000
0000
,
0000
0000
0000
0000
,
0000
0000
0000
0000
,
0001
0010
0001
1000
0001
0010
0001
1000
,
0100
0001
1000
0100
0010
1000
0100
0010
,
0001
0100
0001
1000
0001
0100
0001
1000
,
0010
0001
1000
0010
0100
1000
0010
0100
,
0001
0000
1000
0100
0000
0000
1100
0000
0000
0000
0010
0001
0000
0000
0011
0000
,
0000
0000
0100
1000
0000
0000
1010
0000
0000
0000
0100
0001
0000
0000
1001
0000
,
0000
0000
0100
0010
0000
0000
1010
0000
0000
0000
0100
0001
0000
0000
1001
0000
,
0000
0000
0100
1000
0010
0000
0020
0000
0000
0000
0130
0001
1000
0000
1000
0000
,
1100
1100
0101
0101
,
1100
0000
0000
0000
1100
0000
0001
1000
0001
0000
0010
0000
0100
0000
1000
0000
,
1010
1010
0011
0011
,
1010
1010
0011
0011
,
1001
0000
1000
0000
1000
0000
0000
0001
0100
0000
0001
0100
0000
0000
0001
0000
,
1000
0010
0001
0010
1000
1000
1000
0001
,
1000
0000
0100
0000
0001
0000
0100
0000
1000
0000
0010
0100
0000
0000
0001
0000
,
1000
0000
0010
0000
0001
0000
0010
0000
1000
0000
0100
0010
0000
0000
0000
0001
,
1000
0100
0001
0100
1000
0010
0100
0001
,
1000
0010
0001
0010
1000
1010
1001
0000
,
0101
0000
0001
0000
0001
0000
0000
1000
0100
0000
1000
0001
0100
0000
0001
0000
,
1000
0000
0100
0000
0001
0000
0100
0000
1000
0000
0010
0000
1010
0000
0000
0100
,
0001
0000
0001
0000
0001
0000
0000
0100
0001
0000
1000
0010
0000
0000
1000
0000
,
0001
0000
0010
0000
1000
0000
0010
0000
0001
0000
1000
0000
1001
0000
0010
0001
,
0010
0100
1000
0001
1000
0100
1000
0001
,
0010
1000
0010
0001
0100
0001
0010
0000
,
0100
1000
0001
0100
0001
1000
0100
1000
,
0001
0010
1000
0010
0001
1000
1010
0000
,
1001
0000
0001
0000
1001
0000
0000
0010
0100
0000
0010
0001
0100
0000
0001
0000
,
1000
0100
0001
0100
1000
0010
0001
0010
,
1000
0000
1000
0000
1001
0000
0000
0010
0001
0000
1000
0100
0000
0000
1000
0000
,
0001
0000
0010
0000
1000
0000
0010
0000
0001
0000
1000
0000
1001
0000
0010
1000
,
0100
0001
0100
1000
0010
0100
0010
1000
,
0001
0100
1000
0100
0010
1000
0001
0000
,
0010
1000
0010
0001
0100
0010
0100
0001
,
1000
0010
0001
0010
0000
0101
1001
0000
,
0220
0000
0000
0000
,
0000
0000
0000
0000
0330
1001
1001
0010
,
0100
0000
1000
0000
0001
0000
0100
0001
1000
0000
0100
1000
0000
0100
0010
0000
,
0001
0000
0100
0000
0001
0000
0010
0100
1000
0000
0001
0100
0000
0010
1000
0000
,
0100
0000
0010
0000
0100
0000
1000
0001
0100
0000
0001
1000
0000
0100
0010
0000
,
0002
0000
0203
0000
2300
0000
3020
0000
0032
0000
0103
0010
0000
1000
0001
0000
,
0010
0100
0010
0100
0010
0000
0001
0000
0100
0000
0001
1000
0000
0100
0010
0000
,
0001
0100
0001
0100
0001
0000
0010
0000
0100
0000
1000
0010
0000
0000
0100
0000
,
0002
0000
0203
0000
2300
0000
3020
0000
0031
1000
0001
1000
0000
0001
0010
0000
,
0100
0010
0100
0010
0100
0000
1000
0000
0010
0000
0100
0001
1000
0001
1000
0001
,
1000
0000
0100
0000
0010
0000
0001
0100
0001
0000
1000
0100
0000
1000
0001
0000
,
0010
0000
1000
0000
0010
0000
0001
0100
0001
0000
1000
0010
0000
1000
0001
0000
,
0100
0010
0100
0010
0100
0000
0001
0010
0100
0000
1000
0100
0000
1000
0001
0000
,
2000
0000
3200
0000
0302
0000
0023
0000
2030
0000
3010
0100
0000
0001
1000
0000
,
0010
1000
0010
1000
0010
0000
1000
0000
0001
0000
0010
0100
0000
0010
0001
0000
,
0100
0010
0100
0010
0100
0000
0001
0000
1000
0000
0100
0010
0000
0000
0001
0100
,
0002
0000
0203
0000
2300
0000
3020
0000
0032
0000
0013
0100
0000
1000
0001
0000
,
0100
0010
0100
0010
0100
0000
0001
1000
0001
0000
1000
0100
0000
0000
0000
0000
,
0000
0100
0000
0100
0000
0100
0000
0100
,
1001
0000
0020
0130
,
2002
0000
0000
0000
,
3003
0000
0000
0000
;

//---------------dance-single - ----------------
#NOTEDATA:;
#CHARTNAME:;
#STEPSTYPE:dance-single;
#DESCRIPTION:;
#CHARTSTYLE:;
#DIFFICULTY:Challenge;
#METER:15;
#RADARVALUES:0.842803,0.886819,0.750349,0.684694,0.862902,629.000000,549.000000,80.000000,73.000000,0.000000,0.000000,0.000000,0.000000,0.000000,0.842803,0.886819,0.750349,0.684694,0.862902,629.000000,549.000000,80.000000,73.000000,0.000000,0.000000,0.000000,0.000000,0.000000;
#CREDIT:;
#NOTES:
// measure 0
0000
0000
0000
0000
,  // measure 1
0000
0000
0000
0000
,  // measure 2
0000
0000
0000
0000
,  // measure 3
0000
0000
0000
0000
,  // measure 4
0000
0000
0000
0000
,  // measure 5
0000
0000
0000
0000
,  // measure 6
1001
0000
0100
0001
0100
0000
0101
0000
0000
0000
1000
0100
1000
0000
1100
0000
,  // measure 7
0000
0000
0001
0100
0001
0000
0101
0000
0000
0000
0010
0100
0010
0000
0110
0000
,  // measure 8
0000
0000
1000
0100
1000
0000
1100
0000
0000
0000
0001
0100
0001
0000
0101
0000
,  // measure 9
0000
0000
0010
0100
0010
0000
0110
0000
0000
0000
1000
0001
1000
0000
1001
0000
,  // measure 10
0001
0000
0100
1000
0100
0000
0001
0000
1000
0000
0010
0001
0010
0000
1000
0000
,  // measure 11
0001
0000
0100
1000
0100
0000
0001
0000
1000
0000
0100
0001
0100
0000
1000
0000
,  // measure 12
0010
0000
0100
0001
0010
0000
0100
0000
1000
0000
0010
1000
0001
0000
0010
0000
,  // measure 13
0100
0000
1000
0001
0100
0000
0100
0000
0000
0000
0010
0100
0001
0000
1001
0000
,  // measure 14
2002
3003
2002
3003
0220
0330
0220
0330
,  // measure 15
2002
0000
0000
0000
0000
0000
3003
0000
0000
0000
0000
0000
1001
0000
0000
0000
0000
0000
1000
0000
0100
0000
0010
0000
0001
0000
0000
0000
0000
0000
0001
0000
0000
0000
0000
0000
0100
0000
0000
0000
0000
0000
0100
0000
0000
0010
0000
0000
,  // measure 16
1000
1000
1010
0000
0101
0001
1001
0000
,  // measure 17
0110
0000
0100
0000
1100
0000
0000
0000
0110
0000
0010
0000
0011
0000
0000
0001
,  // measure 18
1000
0000
0100
0000
1100
0000
0000
0010
0001
0000
0100
0010
0000
1000
0100
0010
,  // measure 19
0001
0010
0001
0010
0001
0000
0100
0000
0110
0000
1000
0000
1001
0000
0001
1000
,  // measure 20
0100
0000
1100
0000
0010
0000
0011
0000
1001
0000
0010
0100
0000
0001
0010
0100
,  // measure 21
1000
0100
1000
0100
1000
0010
0100
0000
0001
0000
0010
0100
0000
0000
0000
1000
,  // measure 22
0001
0000
0011
0000
1000
0000
1100
0000
1001
0000
1000
0100
1000
0000
0001
0100
,  // measure 23
0001
0100
0001
0010
0100
0010
0100
1000
0100
0000
1100
0000
1001
0000
0000
0001
,  // measure 24
0100
0000
0101
0000
1001
0000
0000
1000
0100
0010
0100
1000
0100
0000
1000
0001
,  // measure 25
0100
0000
0101
0000
0001
0000
1001
0000
1000
0000
1010
0000
1001
0000
0000
1000
,  // measure 26
0010
0000
1010
0000
1001
0000
0000
0010
0001
0000
0100
0010
0000
1000
0100
0010
,  // measure 27
0100
1000
0100
0010
0100
0000
1100
0000
1000
0000
1010
0000
1001
0000
0001
1000
,  // measure 28
0010
0000
1010
0000
1000
0000
1001
0000
0001
0000
0010
0100
0000
1000
0001
0100
,  // measure 29
0010
0100
0001
0100
0010
1000
0100
0010
0001
0000
0100
0001
0000
0000
0000
1000
,  // measure 30
0001
0000
0011
0000
0010
0000
0110
0000
0100
0000
1100
0000
1000
0001
1000
0010
,  // measure 31
0100
0010
1000
0010
0100
0001
0010
0000
0100
0000
1000
0010
0000
0000
0000
1000
,  // measure 32
0001
0000
0011
0000
0110
0000
0000
1000
0100
0001
0100
1000
0001
0000
0010
0100
,  // measure 33
1000
0000
1001
0000
0101
0000
1001
0000
1010
0000
1001
0000
0101
0000
0010
1000
,  // measure 34
0100
0000
1100
0000
0011
0000
0000
0100
0010
0000
1000
0010
0000
1000
0001
0010
,  // measure 35
1000
0010
0001
0010
0100
0000
1100
0000
0011
0000
1100
0000
1001
0000
0001
1000
,  // measure 36
0010
0000
1010
0000
1001
0000
0101
0000
1001
0000
1000
0100
0000
0010
0001
0100
,  // measure 37
1000
0100
0001
0010
0100
1000
0100
0010
0001
0000
1000
0010
0000
0000
0000
1000
,  // measure 38
0001
0000
0011
0000
1001
0000
1100
0000
1001
0000
0011
0000
0100
1000
0010
0001
,  // measure 39
0010
1000
0100
0010
0001
1000
0100
0000
0000
0000
1100
0000
1001
0000
0000
0000
,  // measure 40
0220
0000
0000
0330
,  // measure 41
1000
0000
0000
0100
0000
0000
0010
0000
0000
0001
0000
0000
0010
0000
0000
0100
0000
0000
0000
0000
1000
0000
0010
0000
1000
0000
0000
0000
0000
0000
1010
0000
0000
0000
0000
0000
1001
0000
0000
0000
0000
0000
0001
0000
0000
0010
0000
0000
,  // measure 42
0100
1000
0001
0100
0002
0000
0013
0100
2000
0000
3001
0200
0000
0310
1000
0100
,  // measure 43
0010
0001
0100
0001
0010
0000
0100
1000
0002
0000
0013
0200
0000
1300
0001
0010
,  // measure 44
0100
1000
0001
0100
0002
0000
0013
0100
2000
0000
3001
0200
0000
0310
1000
0100
,  // measure 45
0020
0000
0032
0000
0203
0000
2300
0000
3200
0000
0301
0020
0000
0031
1000
0100
,  // measure 46
0010
0001
0100
0010
0200
0000
0302
0000
0023
0000
0130
2000
0000
3001
0100
0001
,  // measure 47
1000
0100
0010
0100
2000
0000
3020
0000
0230
0000
0301
2000
0000
3100
0010
0001
,  // measure 48
2000
0000
3020
0000
0032
0000
0023
0000
1030
0010
0100
0002
0000
0013
0100
1000
,  // measure 49
0001
0100
0010
0100
0002
0000
0023
0000
0230
0000
1300
0001
0100
0010
0100
0010
,  // measure 50
1000
0100
0010
0001
0200
0000
0301
0100
2000
0000
3100
0002
0000
0013
0100
1000
,  // measure 51
0001
0010
0001
0100
0020
0000
1030
0100
0020
0000
0031
0200
0000
0310
1000
0100
,  // measure 52
0010
0001
1000
0001
0020
0000
0031
0100
2000
0000
3100
0002
0000
0013
0100
1000
,  // measure 53
0002
0000
0203
0000
2300
0000
3200
0000
0302
0000
0013
0200
0000
1300
0001
0010
,  // measure 54
0100
1000
0001
1000
0200
0000
2300
0000
3020
0000
0130
0002
0000
0013
0100
1000
,  // measure 55
0001
0100
0010
0100
0002
0000
0023
0000
0230
0000
1300
0010
0000
0100
0001
0010
,  // measure 56
0002
0000
0203
0000
2300
0000
3200
0000
0301
0010
0100
2000
0000
3001
0100
0010
,  // measure 57
1000
0100
0001
0100
1000
0010
0100
1000
0100
0001
0010
0200
0000
0310
0001
0000
,  // measure 58
0000
0010
0100
0010
0100
0010
0100
0010
,  // measure 59
1002
0000
0000
0000
0100
0000
0103
0100
,  // measure 60
2002
0000
0000
0000
,  // measure 61
3003
0000
0000
0000
;

//---------------dance-single - ----------------
#NOTEDATA:;
#CHARTNAME:;
#STEPSTYPE:dance-single;
#DESCRIPTION:;
#CHARTSTYLE:;
#DIFFICULTY:Beginner;
#METER:2;
#RADARVALUES:0.101833,0.140691,0.046897,0.000000,0.000000,76.000000,71.000000,5.000000,0.000000,0.000000,0.000000,0.000000,0.000000,0.000000,0.101833,0.140691,0.046897,0.000000,0.000000,76.000000,71.000000,5.000000,0.000000,0.000000,0.000000,0.000000,0.000000,0.000000;
#CREDIT:;
#NOTES:
0000
0000
0000
0000
,
0000
0000
0000
0000
,
0000
0000
0000
0000
,
0000
0000
0000
0000
,
0000
0000
0000
0000
,
0000
0000
0000
0000
,
1001
0000
0000
0000
,
0001
0000
0000
0000
,
0100
0000
0000
0000
,
0001
0000
0000
0000
,
1000
0000
0000
0000
,
0100
0000
0000
0000
,
1000
0000
0000
0000
,
0001
0000
0000
0000
,
0100
0000
0000
0000
,
0000
0000
0000
0000
,
0110
0000
0000
0000
,
0010
0000
0000
0000
,
0100
0000
0000
0000
,
0010
0000
0000
0000
,
0100
0000
0100
0000
,
0100
0000
0000
0000
,
0010
0000
0010
0000
,
0010
0000
0000
0000
,
1001
0000
1000
0000
,
1000
0000
0000
0000
,
0001
0000
0001
0000
,
0001
0000
0000
0000
,
1000
0000
1000
0000
,
1000
0000
0000
0000
,
0001
0000
0001
0000
,
0001
0000
0000
0000
,
1000
0000
0100
0000
,
1000
0000
0000
0000
,
0001
0000
0010
0000
,
0001
0000
0000
0000
,
1000
0000
0001
0000
,
1000
0000
0000
0000
,
0001
0000
1000
0000
,
0001
0000
0000
0000
,
1001
0000
0000
0000
,
0000
0000
0000
0000
,
1000
0000
0100
0000
,
1000
0000
0000
0000
,
0001
0000
0100
0000
,
0001
0000
0000
0000
,
1000
0000
0010
0000
,
1000
0000
0000
0000
,
0001
0000
0010
0000
,
0001
0000
0000
0000
,
1000
0000
0001
0000
,
1000
0000
0000
0000
,
0001
0000
1000
0000
,
0001
0000
0000
0000
,
0100
0000
0010
0000
,
0100
0000
0000
0000
,
0010
0000
0100
0000
,
0010
0000
0000
0000
,
0010
0000
0000
0000
,
0010
0000
0000
0000
,
1001
0000
0000
0000
;
