#VERSION:0.83;
#TITLE:アイドル;
#SUBTITLE:;
#ARTIST:YOASOBI;
#TITLETRANSLIT:IDOL;
#SUBTITLETRANSLIT:;
#ARTISTTRANSLIT:;
#GENRE:;
#ORIGIN:;
#CREDIT:DigiMindAxel;
#BANNER:IDOL.png;
#BACKGROUND:IDOL-bg.png;
#PREVIEWVID:;
#JACKET:IDOL-jacket.png;
#CDIMAGE:;
#DISCIMAGE:;
#LYRICSPATH:IDOL.lrc;
#CDTITLE:DigiMindAxel original simfile.png;
#MUSIC:IDOL.ogg;
#OFFSET:-0.399000;
#SAMPLESTART:54.919971;
#SAMPLELENGTH:12.000000;
#SELECTABLE:YES;
#BPMS:0.000=166.000;
#STOPS:;
#DELAYS:;
#WARPS:;
#TIMESIGNATURES:0.000=4=4;
#TICKCOUNTS:0.000=4;
#COMBOS:0.000=1;
#SPEEDS:0.000=1.000=0.000=0;
#SCROLLS:0.000=1.000;
#FAKES:;
#LABELS:0.000=Song Start;
#BGCHANGES:-2.000=IDOL.avi=1.000=1=0=0=StretchNoLoop==CrossFade==,
99999=-nosongbg-=1.000=0=0=0 // don't automatically add -songbackground-
;
#KEYSOUNDS:;
#ATTACKS:
;

//---------------dance-single - ----------------
#NOTEDATA:;
#CHARTNAME:;
#STEPSTYPE:dance-single;
#DESCRIPTION:;
#CHARTSTYLE:;
#DIFFICULTY:Easy;
#METER:4;
#RADARVALUES:0.273259,0.375403,0.255783,0.100089,0.000000,172.000000,149.000000,23.000000,9.000000,0.000000,0.000000,0.000000,0.000000,0.000000,0.273259,0.375403,0.255783,0.100089,0.000000,172.000000,149.000000,23.000000,9.000000,0.000000,0.000000,0.000000,0.000000,0.000000;
#CREDIT:;
#NOTES:
0000
0000
0000
0000
,
0000
0000
0000
0000
,
0000
0000
0000
0000
,
0000
0000
0000
0000
,
1001
0000
0000
0000
,
0000
0000
0001
0000
0000
0001
0000
0000
,
1001
0000
0000
0000
,
0000
0000
1000
0000
0000
1000
0000
0000
,
1001
0000
0000
0000
0001
0000
0000
1000
,
0000
0001
0000
1001
0000
0000
0000
0000
,
1000
0100
0010
0001
,
1000
0100
0010
0001
,
1000
0010
1000
0000
,
0001
0100
0001
0000
,
1000
0100
1000
0100
,
0010
0001
0100
0000
,
0001
0100
0001
0000
,
1000
0010
1000
0000
,
0001
0010
0001
0010
,
0100
1000
0010
0000
,
1001
0000
0000
1000
,
1001
0000
0000
0000
,
0001
1000
0001
0010
,
0001
1000
0100
0000
,
1001
0000
0000
0001
,
1001
0000
0000
1000
,
0100
1000
0001
1000
,
0100
0010
0001
0000
,
0100
0000
0000
0110
,
0000
0000
0000
0110
,
0000
0000
0000
0110
,
0000
0000
0000
0110
,
0000
1001
0000
1001
,
0000
1001
0000
1001
,
0000
1001
0000
1001
,
0000
1001
0000
1001
,
0001
0000
0000
0000
0001
0000
0000
1000
,
0000
0100
0000
0010
0000
0000
0000
0000
,
1000
0010
1000
0001
,
0010
0100
1000
0000
,
0010
0100
0010
1000
,
0100
0010
1001
1001
,
0001
0100
0001
1000
,
0100
0010
0001
0000
,
0100
0010
1000
0001
,
0010
0100
1000
0000
,
0001
0000
0001
1000
,
0100
0000
1000
0001
,
0100
0001
1000
0001
,
0100
0010
1000
0100
,
0010
0000
0001
0010
,
0001
0000
0001
1000
,
0001
0000
0010
0000
0100
0000
0000
1000
,
0000
0000
1001
0000
,
0002
0000
0000
0000
,
0203
0000
0000
0000
,
0320
0000
0000
0000
,
0030
0000
0000
0000
,
2000
0000
3200
0000
,
0320
0000
0032
0000
,
2003
0000
3200
0000
,
0310
0000
0000
0010
0000
0000
0000
0000
;

//---------------dance-single - ----------------
#NOTEDATA:;
#CHARTNAME:;
#STEPSTYPE:dance-single;
#DESCRIPTION:;
#CHARTSTYLE:;
#DIFFICULTY:Medium;
#METER:10;
#RADARVALUES:0.484558,0.546041,0.778470,0.455961,0.005560,305.000000,235.000000,70.000000,41.000000,0.000000,0.000000,0.000000,0.000000,0.000000,0.484558,0.546041,0.778470,0.455961,0.005560,305.000000,235.000000,70.000000,41.000000,0.000000,0.000000,0.000000,0.000000,0.000000;
#CREDIT:;
#NOTES:
0000
0000
0000
0000
,
0000
0000
0000
0000
,
0000
0000
0000
0000
,
0000
0000
0000
0000
,
0101
2000
3000
0000
,
0000
0000
1100
0000
0000
1100
0000
0000
,
0101
2000
3000
0000
,
0000
0000
0011
0000
0000
0011
0000
0000
,
1010
0000
0000
0000
1010
0000
0000
0110
,
0000
0110
0000
2000
0002
0000
3003
0000
,
2000
3002
0023
0230
,
2300
3002
0023
0230
,
1300
0000
0001
0010
0100
1000
0001
0000
,
1000
0100
0010
0000
0001
0000
0100
0000
,
0001
0000
1000
0010
0100
0001
1000
0000
,
0001
0000
0010
0100
1000
0000
0001
0000
,
1001
0000
1000
0100
0010
0001
1000
0000
,
0010
0000
0100
0001
1000
0000
0100
0000
,
1000
0000
0001
0100
0010
1000
0001
0000
,
0010
0000
0100
0010
0001
0000
0100
0000
,
1001
0000
0000
1001
0000
0000
0100
0000
,
1100
0000
0000
1100
0000
0000
0010
0000
,
0001
1000
0010
0000
1000
0001
0010
0000
,
0001
1000
0100
0000
1100
0000
0000
0000
,
1001
0000
0000
1001
0000
0000
0010
0000
,
0011
0000
0000
0011
0000
0000
0100
0000
,
1000
0001
0010
0000
0001
1000
0010
0000
,
1000
0000
0010
0100
0001
0000
1000
0000
,
0200
0000
1300
1001
,
0020
0000
0031
1001
,
0200
0000
1300
1001
,
0020
0000
0031
1001
,
0100
1100
0100
0101
,
0100
1100
0100
0101
,
0010
0011
0010
1010
,
0010
0011
0010
1010
,
1001
0000
0000
0000
0110
0000
0000
1001
,
0000
1001
0000
0001
1000
0000
0000
0000
,
1001
0000
1010
0000
0101
0000
0010
1000
,
0001
0010
0100
0000
1100
0000
0010
0000
,
0001
0000
0110
0000
0110
0000
1000
0002
,
0000
0013
0100
0000
1001
0000
1001
0000
,
0011
0000
0110
0000
1100
0000
0010
0001
,
0000
0100
0010
0100
0001
0000
1000
0000
,
1010
0000
0110
0000
0101
0000
0010
1000
,
0000
0001
0000
0010
0100
0000
1010
0000
,
1001
0011
0110
1100
,
1001
0000
0000
1000
0010
1000
0001
0000
,
1001
1010
0110
0101
,
1002
0000
0023
0000
0230
0000
1300
0010
,
0100
0000
0101
0110
,
1010
0000
0000
1000
0001
0010
0100
0000
,
1001
0000
1100
0000
0110
0000
0001
1000
,
0000
1000
0000
1000
0010
0000
0000
0000
,
2001
3002
0023
0230
,
2300
3002
0023
0230
,
2300
3002
0023
0230
,
0300
0000
0000
0000
,
1002
0000
0203
0000
0310
1000
0002
0000
,
2003
0000
3100
0010
0002
0000
2003
0000
,
3020
0000
0130
0001
2000
0000
3200
0000
,
0310
0000
0000
0010
0000
0000
0011
0000
0000
0000
0000
0000
0000
0000
0000
0000
;

//---------------dance-single - ----------------
#NOTEDATA:;
#CHARTNAME:;
#STEPSTYPE:dance-single;
#DESCRIPTION:;
#CHARTSTYLE:;
#DIFFICULTY:Hard;
#METER:11;
#RADARVALUES:0.557639,0.614296,0.578292,0.278025,0.055605,351.000000,299.000000,52.000000,25.000000,0.000000,0.000000,0.000000,0.000000,0.000000,0.557639,0.614296,0.578292,0.278025,0.055605,351.000000,299.000000,52.000000,25.000000,0.000000,0.000000,0.000000,0.000000,0.000000;
#CREDIT:;
#NOTES:
0000
0000
0000
0000
,
0000
0000
0000
0000
,
0000
0000
0000
0000
,
0000
0000
0000
0000
,
1001
0200
0310
0000
,
0010
0000
1001
0000
0000
0110
0000
0000
,
1001
0200
0310
0000
,
0010
0000
1001
0000
0000
1001
0000
0000
,
0110
0000
0010
0000
0110
0000
0010
1001
,
0000
1001
0000
1001
2002
0000
3003
0000
,
2000
3020
0032
0023
,
2030
3200
0302
0203
,
1300
0001
0010
0001
1000
0000
1000
0000
,
0001
1000
0100
1000
0001
0000
0001
0000
,
0010
0100
1000
0100
0010
0000
0010
0000
,
0001
0100
0010
0100
0001
0000
0001
0000
,
1000
0001
0100
0001
1000
0000
1000
0000
,
0001
1000
0100
1000
0001
0000
0001
0000
,
0100
0010
1000
0010
0100
0000
0100
0000
,
0001
0010
0100
0010
0001
0000
0001
0000
,
1001
0000
0000
1000
0000
0000
1000
0000
0000
0000
0010
0000
0100
0000
0001
0000
,
0010
0000
0000
0010
0000
0000
0010
0000
0000
0000
0001
0000
0010
0000
0100
0000
,
1000
0001
0100
0000
1000
0100
0001
0000
,
1000
0001
0010
0100
1000
0000
0010
0000
,
1001
0000
0000
0001
0000
0000
0001
0000
0000
0000
0100
0000
0010
0000
1000
0000
,
0100
0000
0000
0100
0000
0000
0100
0000
0000
0000
1000
0000
0010
0000
0100
0000
,
0001
1000
0100
0000
0001
0100
1000
0001
,
0000
0001
0100
0010
1000
0000
1000
0000
,
0010
0000
0000
0010
0100
0000
1001
0100
,
0000
0100
0000
0100
0010
0000
1001
0000
,
0100
0000
0000
0100
1000
0000
1001
0000
,
0100
0010
0001
1001
,
0001
1000
0100
0000
0100
1000
0001
0000
,
0001
0100
0010
0000
0010
0100
0001
0000
,
1001
0000
0000
0000
1000
0000
0000
0000
0010
0000
0000
0100
0000
0000
0001
0000
,
0000
0100
0010
0100
0001
0000
0101
0000
,
1001
0000
0000
0100
0010
0000
0000
1001
,
0000
1001
0000
1001
1001
0000
0000
0000
,
0011
0000
1100
0000
1001
0000
0001
0100
,
1000
0100
0010
1000
0001
0000
0100
0010
,
1000
0000
1010
0000
0101
0000
0001
0002
,
0000
1003
1000
0100
1001
0000
1001
0000
,
0110
0000
0101
0000
1010
0000
1000
0001
,
0000
0001
0100
0010
0100
0000
0001
1000
,
0100
0000
1100
0000
0011
0000
0001
1000
,
0000
0100
0000
0001
0100
0000
1000
0100
,
0010
0000
0000
0000
1001
0000
0000
0000
0110
0000
0000
0010
0000
0000
0010
0000
,
1001
0000
1000
1000
0010
0100
0001
1000
,
1001
0000
0000
0000
0101
0000
0000
0000
0110
0000
0000
0100
0000
0000
0100
0000
,
0001
0010
0001
0100
0010
1000
0100
0001
,
0100
0000
0000
0000
1010
0000
0000
0000
0110
0000
0000
0010
0000
0000
0010
0000
,
1001
0000
0100
1000
0010
0100
0001
1000
,
1001
0000
1000
0010
0100
0001
1000
0100
,
0000
0100
0000
0100
1001
0000
0000
0000
,
2001
3200
0302
0203
,
2300
3020
0032
0023
,
2030
3002
0023
0230
,
1300
1000
0001
0001
,
1001
0000
1000
0100
0001
0100
1000
0000
,
1001
0000
0001
0100
1000
0100
0001
0000
,
1001
0000
1000
0010
0001
0010
1000
0000
,
0010
0100
0000
0010
0100
0000
0001
0000
0000
0000
0000
0000
0000
0000
0000
0000
;

//---------------dance-single - ----------------
#NOTEDATA:;
#CHARTNAME:;
#STEPSTYPE:dance-single;
#DESCRIPTION:;
#CHARTSTYLE:;
#DIFFICULTY:Challenge;
#METER:14;
#RADARVALUES:0.778470,0.853189,0.700623,0.244662,0.483763,490.000000,427.000000,63.000000,22.000000,0.000000,0.000000,0.000000,0.000000,0.000000,0.778470,0.853189,0.700623,0.244662,0.483763,490.000000,427.000000,63.000000,22.000000,0.000000,0.000000,0.000000,0.000000,0.000000;
#CREDIT:;
#NOTES:
0000
0000
0000
0000
,
0000
0000
0000
0000
,
0000
0000
0000
0000
,
0000
0000
0000
0000
,
1001
0000
0200
0000
1300
1000
0001
0000
,
0100
0000
2002
0000
3003
0220
0000
0330
,
1001
0000
0020
0000
0031
0001
1000
0000
,
0010
0000
2002
0000
3003
0220
0000
0330
,
1001
0000
0100
0000
1001
0010
0100
1010
,
0000
0101
0000
1010
2002
0000
3003
0000
,
0200
0000
0000
1000
0000
0000
1000
0000
0000
0000
1000
0000
0000
0000
1300
0000
,
0020
0000
0000
0001
0000
0000
0001
0000
0000
0000
0001
0000
0000
0000
0031
0000
,
1000
0000
0010
0000
0100
0000
0001
1000
0001
1000
0001
0000
0100
0000
0000
0000
,
0001
0000
1000
0100
1000
0100
1000
0000
0001
0000
0010
0000
0100
0000
0000
0000
,
1000
0000
0010
0000
0100
0001
0100
0001
1000
0100
1000
0000
0001
0000
0000
0000
,
0010
0001
0010
0001
1000
0010
1000
0000
0001
0000
0010
0000
0100
0000
0000
0000
,
1001
0000
0010
0000
0100
0000
1000
0010
1000
0010
1000
0000
0001
0000
0010
0000
,
0001
0000
0100
0010
0100
0010
0100
0000
0001
0000
0010
0000
0100
0000
1000
0000
,
0001
0000
0100
0010
0100
0010
1000
0100
1000
0100
0010
0000
0001
0000
0100
0000
,
0001
0000
1000
0100
1000
0100
0010
0001
0010
0001
0100
0000
0010
0000
0000
0000
,
1001
0000
0000
1001
0000
0000
1010
0000
0001
0000
0010
0000
0100
0000
1000
0000
,
1001
0000
0000
1001
0000
0000
0101
0000
0000
0000
0100
0000
0010
0000
0100
0000
,
0001
0000
1000
0100
0010
0000
0100
1000
0001
0000
0010
0100
1000
0000
0001
0000
,
0100
0000
0100
0000
0010
0000
0010
0000
1000
0000
0010
0100
0010
0100
0010
0000
,
1001
0000
0000
1001
0000
0000
1001
0000
0100
0000
0010
0000
0001
0000
1000
0000
,
1001
0000
0000
1001
0000
0000
1001
0000
0000
0000
0010
0000
0100
0000
0010
0000
,
1000
0000
0001
0010
0100
0000
0010
0001
1000
0000
0100
0010
0001
0000
2000
0000
,
0000
0000
3001
0000
0100
0000
0010
0100
0010
0000
0000
0000
1000
0000
0100
0000
,
0010
0000
0001
0100
0000
1000
0100
0001
,
0000
0100
0010
0100
0001
0000
1000
0010
,
0100
0000
0001
0010
0100
0000
1000
0010
,
0100
0000
0001
0000
0010
0000
0100
0000
1000
0001
1000
0001
1000
0000
0000
0000
,
0001
0100
0001
0100
1000
0100
1000
0100
,
0001
0010
0001
0010
1000
0010
1000
0010
,
1001
0000
0000
0000
0011
0000
0000
0000
0110
0000
0000
1100
0000
0000
1001
0000
,
0000
0001
0010
0100
1000
0001
0100
0001
,
1001
0100
0100
1000
1001
0000
0000
0011
,
0000
1100
0000
0011
2002
0000
3003
0000
,
0101
0000
0000
0100
0010
0000
0000
0010
1000
0000
0000
1000
0001
0000
0010
0000
,
0100
0000
0010
0001
0010
0000
0100
1000
0001
0000
0010
0000
0100
0000
1000
0000
,
0001
0000
0000
0001
0100
0000
0000
0100
0010
0000
0000
0010
1000
0000
0002
0000
,
0000
0000
1003
0000
0100
0000
0010
0001
0010
0000
0100
0010
0100
0000
0000
0000
,
1001
0000
0000
1000
0100
0000
0000
0100
0010
0000
0000
0010
0001
0000
2000
0000
,
0000
0000
3001
0000
0100
0000
0010
0100
0010
0000
0100
0001
1000
0000
0100
0000
,
0010
0000
0000
0010
0001
0000
0000
0001
0100
0000
0000
0100
0010
0000
1000
0000
,
0100
0000
0010
0000
0001
0000
0100
0000
0001
0000
1000
0100
1000
0000
0001
0100
,
0010
0000
0000
0000
1001
0000
0000
0000
0011
0000
0000
0110
0000
0000
1100
0000
,
1001
0001
1000
1100
0010
0001
0100
0010
,
0101
0000
0000
0000
1001
0000
0000
0000
1100
0000
0000
0110
0000
0000
0011
0000
,
1001
1000
0001
0001
0100
0010
1000
0100
,
0010
0000
0100
0000
1001
0000
0000
0000
0101
0000
0000
0110
0000
0000
1010
0000
,
1001
0000
0010
0100
1000
0000
0100
0010
0001
0000
1000
0000
0010
0000
1000
0000
,
1001
0000
0110
1000
0001
0100
0001
0011
,
0000
1100
0000
0011
2002
0000
3003
0000
,
0001
0000
0000
0001
0100
0000
0000
0100
0010
0000
0000
0010
1000
0000
0000
1000
,
0001
0000
0000
0001
0010
0000
0000
0010
0100
0000
0000
0100
1000
0000
0000
1000
,
0001
0000
0000
0001
0100
0000
0000
0100
0010
0000
0000
0010
2000
0000
0000
0000
,
0001
0001
0001
3001
,
1001
0000
0000
0000
0001
0010
0100
1000
0001
0100
0001
0000
0000
0000
0001
0000
,
1000
0000
0001
0100
0010
1000
0100
0000
0000
0000
0100
0000
1000
0000
0001
0000
,
1001
0000
0000
0000
1000
0100
0010
0001
1000
0010
1000
0000
0000
0000
1000
0000
,
0001
0100
0010
1000
0100
0010
0001
0000
0000
0000
0000
0000
0000
0000
0000
0000
;

//---------------dance-single - ----------------
#NOTEDATA:;
#CHARTNAME:;
#STEPSTYPE:dance-single;
#DESCRIPTION:;
#CHARTSTYLE:;
#DIFFICULTY:Beginner;
#METER:2;
#RADARVALUES:0.092145,0.203514,0.111210,0.000000,0.000000,58.000000,48.000000,10.000000,0.000000,0.000000,0.000000,0.000000,0.000000,0.000000,0.092145,0.203514,0.111210,0.000000,0.000000,58.000000,48.000000,10.000000,0.000000,0.000000,0.000000,0.000000,0.000000,0.000000;
#CREDIT:;
#NOTES:
// measure 0
0000
0000
0000
0000
,  // measure 1
0000
0000
0000
0000
,  // measure 2
0000
0000
0000
0000
,  // measure 3
0000
0000
0000
0000
,  // measure 4
1001
0000
0000
0000
,  // measure 5
0000
0000
0000
0000
,  // measure 6
1001
0000
0000
0000
,  // measure 7
0000
0000
0000
0000
,  // measure 8
1001
0000
0001
0000
,  // measure 9
0001
0000
0000
0000
,  // measure 10
1001
0000
0000
0000
,  // measure 11
1000
0000
0000
0000
,  // measure 12
0010
0000
0000
0000
,  // measure 13
0010
0000
0000
0000
,  // measure 14
0010
0000
0000
0000
,  // measure 15
0000
0000
0000
0000
,  // measure 16
0100
0000
0000
0000
,  // measure 17
0100
0000
0000
0000
,  // measure 18
0100
0000
0000
0000
,  // measure 19
0000
0000
0000
0000
,  // measure 20
1001
0000
0000
0000
,  // measure 21
0001
0000
0000
0000
,  // measure 22
1000
0000
0000
0000
,  // measure 23
0100
0000
0000
0000
,  // measure 24
1001
0000
0000
0000
,  // measure 25
1000
0000
0000
0000
,  // measure 26
0001
0000
0000
0000
,  // measure 27
0010
0000
0000
0000
,  // measure 28
1001
0000
0000
0000
,  // measure 29
0000
0000
0000
0000
,  // measure 30
0000
0000
0000
0000
,  // measure 31
0000
0000
0000
0000
,  // measure 32
0001
0000
0000
0000
,  // measure 33
0001
0000
0000
0000
,  // measure 34
1000
0000
0000
0000
,  // measure 35
1000
0000
0000
0000
,  // measure 36
0001
0000
0000
0000
,  // measure 37
0000
0000
0000
0000
,  // measure 38
1000
0000
0000
0000
,  // measure 39
0100
0000
0000
0000
,  // measure 40
1000
0000
0000
0000
,  // measure 41
0000
0000
1001
0000
,  // measure 42
0001
0000
0000
0000
,  // measure 43
0010
0000
0000
0000
,  // measure 44
0001
0000
0000
0000
,  // measure 45
0000
0000
0000
0000
,  // measure 46
1001
0000
0000
0000
,  // measure 47
0001
0000
0000
0000
,  // measure 48
1000
0000
0000
0000
,  // measure 49
0001
0000
0000
0000
,  // measure 50
1001
0000
0000
0000
,  // measure 51
1000
0000
0000
0000
,  // measure 52
0001
0000
0000
0000
,  // measure 53
1000
0000
0000
0000
,  // measure 54
0100
0000
0000
0000
,  // measure 55
0000
0000
0000
0000
,  // measure 56
0010
0000
0000
0000
,  // measure 57
0000
0000
0000
0000
,  // measure 58
0001
0000
0000
0000
,  // measure 59
0001
0000
0000
0000
,  // measure 60
1000
0000
0000
0000
,  // measure 61
1000
0000
0000
0000
;
