#VERSION:0.83;
#TITLE:半宵とケイオス;
#SUBTITLE:;
#ARTIST:BEMANI Sound Team "PON";
#TITLETRANSLIT:HANSHO TO CHAOS;
#SUBTITLETRANSLIT:;
#ARTISTTRANSLIT:PON;
#GENRE:;
#ORIGIN:;
#CREDIT:DigiMindAxel;
#BANNER:HANSHO TO CHAOS.png;
#BACKGROUND:HANSHO TO CHAOS-bg.png;
#PREVIEWVID:;
#JACKET:HANSHO TO CHAOS-jacket.png;
#CDIMAGE:;
#DISCIMAGE:;
#LYRICSPATH:;
#CDTITLE:GITADORA.png;
#MUSIC:HANSHO TO CHAOS.ogg;
#OFFSET:-0.838000;
#SAMPLESTART:51.149818;
#SAMPLELENGTH:12.000000;
#SELECTABLE:YES;
#BPMS:0.000=124.000;
#STOPS:;
#DELAYS:;
#WARPS:;
#TIMESIGNATURES:0.000=4=4;
#TICKCOUNTS:0.000=4;
#COMBOS:0.000=1;
#SPEEDS:0.000=1.000=0.000=0;
#SCROLLS:0.000=1.000;
#FAKES:;
#LABELS:0.000=Song Start;
#BGCHANGES:;
#KEYSOUNDS:;
#ATTACKS:
;

//---------------dance-single - ----------------
#NOTEDATA:;
#CHARTNAME:;
#STEPSTYPE:dance-single;
#DESCRIPTION:;
#CHARTSTYLE:;
#DIFFICULTY:Easy;
#METER:4;
#RADARVALUES:0.204529,0.242066,0.124136,0.132412,0.000000,173.000000,158.000000,15.000000,16.000000,0.000000,0.000000,0.000000,0.000000,0.000000,0.204529,0.242066,0.124136,0.132412,0.000000,173.000000,158.000000,15.000000,16.000000,0.000000,0.000000,0.000000,0.000000,0.000000;
#CREDIT:;
#NOTES:
// measure 0
0000
0000
0000
0000
,  // measure 1
0000
0000
0000
0000
,  // measure 2
0000
0000
0000
0000
,  // measure 3
0000
0000
0000
0000
,  // measure 4
0001
0001
1000
1000
,  // measure 5
0001
0000
0001
0000
0010
0000
0000
0220
,  // measure 6
0000
0000
0000
0000
0000
0330
0000
2002
,  // measure 7
0000
0000
0000
3003
,  // measure 8
0001
0000
0001
0000
,  // measure 9
0010
0000
0010
0000
,  // measure 10
0100
0000
0100
0000
,  // measure 11
1000
0000
1000
0000
,  // measure 12
0001
0000
0001
0000
,  // measure 13
0100
0000
0100
0000
,  // measure 14
0010
0000
0010
0000
,  // measure 15
2002
0000
0000
3003
,  // measure 16
0001
1000
0001
1000
,  // measure 17
0100
0010
0100
0010
,  // measure 18
0001
0100
0001
0100
,  // measure 19
0001
1000
0001
1000
,  // measure 20
0100
0010
0100
0010
,  // measure 21
0001
0100
0001
0100
,  // measure 22
0010
0000
0000
0000
,  // measure 23
0000
0000
0000
0000
,  // measure 24
2000
0000
3200
0000
,  // measure 25
0320
0000
0032
0000
,  // measure 26
1003
0010
0100
0010
,  // measure 27
1000
0001
0010
0100
,  // measure 28
1000
0001
0100
0001
,  // measure 29
1000
0100
0010
0001
,  // measure 30
1000
0010
0100
0010
,  // measure 31
1000
0001
0010
0100
,  // measure 32
1000
0001
0100
0001
,  // measure 33
1000
0100
0010
0000
,  // measure 34
1001
0000
0110
0000
,  // measure 35
1001
0000
0000
1001
0000
0000
0000
0000
,  // measure 36
0001
0001
0010
0001
,  // measure 37
0100
0100
0010
0100
,  // measure 38
0001
0001
1000
0010
,  // measure 39
1000
1000
0100
0010
,  // measure 40
0001
0001
0100
0010
,  // measure 41
0100
0100
0001
1000
,  // measure 42
0100
0100
0010
0001
,  // measure 43
1000
0000
1001
0000
,  // measure 44
0010
0100
0010
0100
,  // measure 45
0001
0010
0100
1000
,  // measure 46
0001
0100
0001
0100
,  // measure 47
0010
1000
0100
0010
,  // measure 48
0001
0100
0001
1000
,  // measure 49
0100
0010
0001
1000
,  // measure 50
0010
0100
0010
1000
,  // measure 51
0010
0100
0001
1000
,  // measure 52
1001
0000
0110
0000
,  // measure 53
1001
0000
0000
0000
0110
0000
0000
0220
,  // measure 54
0000
0000
0000
0000
0000
0330
0000
2002
,  // measure 55
0000
0000
0000
3003
,  // measure 56
0001
2002
0000
0000
,  // measure 57
0000
0000
0000
0000
,  // measure 58
0000
0000
3003
0000
;

//---------------dance-single - ----------------
#NOTEDATA:;
#CHARTNAME:;
#STEPSTYPE:dance-single;
#DESCRIPTION:;
#CHARTSTYLE:;
#DIFFICULTY:Medium;
#METER:9;
#RADARVALUES:0.334577,0.435718,0.413787,0.198618,0.095171,283.000000,233.000000,50.000000,24.000000,0.000000,0.000000,0.000000,0.000000,0.000000,0.334577,0.435718,0.413787,0.198618,0.095171,283.000000,233.000000,50.000000,24.000000,0.000000,0.000000,0.000000,0.000000,0.000000;
#CREDIT:;
#NOTES:
// measure 0
0000
0000
0000
0000
,  // measure 1
0000
0000
0000
0000
,  // measure 2
0000
0000
0000
0000
,  // measure 3
0000
0000
0000
0000
,  // measure 4
1000
0000
0000
1000
0000
0000
0000
0000
0100
0000
0000
0100
0000
0000
0000
0000
,  // measure 5
0010
0000
0000
0010
0000
0000
0000
0000
0001
0000
0000
0001
0000
0000
2020
0000
,  // measure 6
0000
0000
0000
0000
0000
3030
0000
2002
,  // measure 7
0000
0000
0000
3003
,  // measure 8
0011
0000
0000
0001
0010
0000
0000
0010
,  // measure 9
0100
0000
0000
1000
0100
0010
0001
0000
,  // measure 10
0100
0000
0000
0100
0010
0000
0000
0010
,  // measure 11
1000
0000
0000
0001
0010
0100
1000
0000
,  // measure 12
0001
0000
0000
0001
0100
0000
0000
0100
,  // measure 13
0010
0000
0000
1000
0100
0010
0001
0000
,  // measure 14
1000
0000
0000
1000
0100
0000
0000
0100
,  // measure 15
0010
0000
0000
0010
0000
0000
1001
0000
0000
0000
0000
0000
0000
0000
0000
0000
,  // measure 16
0001
1000
0001
1000
0001
1000
0100
0000
,  // measure 17
0010
0001
0010
0001
0010
0001
0100
0000
,  // measure 18
0010
1000
0010
1000
0010
1000
0001
0000
,  // measure 19
0010
0100
0010
0100
0010
0100
1000
0000
,  // measure 20
0010
0100
0010
0100
0010
0100
0001
0000
,  // measure 21
1000
0000
0100
0000
1000
0000
0100
0000
1000
0000
0100
0000
0010
0000
0000
0001
,  // measure 22
0000
0000
0000
0000
0000
0000
0000
0001
0000
0000
0000
0000
0000
0000
0000
1000
,  // measure 23
0000
0000
0000
0000
0000
0000
0000
1000
0000
0000
0000
0000
0000
0000
0000
1001
,  // measure 24
0000
0000
0000
0000
0000
0000
0000
1001
0000
0000
0000
0000
0000
0000
0000
0110
,  // measure 25
0000
0000
0000
0000
0000
0000
0000
0110
0000
0000
0000
0000
0000
0000
0000
0000
,  // measure 26
1100
0011
1100
0011
,  // measure 27
0100
1000
0100
1000
0010
0100
0001
0000
,  // measure 28
0101
1010
0101
1010
,  // measure 29
0001
0010
0100
1000
0001
1000
0001
0000
,  // measure 30
0011
1100
0011
1100
,  // measure 31
0010
0001
1000
0010
0100
0001
0010
0000
,  // measure 32
0101
1010
0101
1010
,  // measure 33
1001
0000
0010
0100
0110
0000
0000
0000
,  // measure 34
1001
0000
0000
1000
0000
0000
0000
0000
1100
0000
0000
0100
0000
0000
0000
0000
,  // measure 35
0011
0000
0000
0010
0000
0000
2002
0000
0000
0000
0000
0000
3003
0000
0000
0000
,  // measure 36
0020
0001
0100
0031
,  // measure 37
0200
1000
0010
1300
,  // measure 38
0020
0001
0100
0031
,  // measure 39
0200
0000
0000
0000
0000
0000
0000
1000
0000
1000
0000
0000
1300
0000
0000
0000
,  // measure 40
0010
0100
0010
0100
0001
0000
0100
0010
,  // measure 41
1000
0100
0010
0001
0000
1000
0000
0000
,  // measure 42
0200
0000
0000
0000
2300
0000
0000
0000
3001
0000
0010
0000
0100
0000
0000
2020
,  // measure 43
0000
0000
0000
3030
2002
0000
0000
3003
,  // measure 44
0011
0000
1100
0000
0011
0000
0200
1000
,  // measure 45
1300
0000
0010
0100
0001
1000
0100
0000
,  // measure 46
1010
0000
0101
0000
1010
0000
0100
0001
,  // measure 47
0010
1000
0010
0001
0101
0000
0110
0000
,  // measure 48
1100
0000
0011
0000
1100
0000
0020
0001
,  // measure 49
0031
0000
0100
0010
0100
0001
1000
0000
,  // measure 50
1010
0101
1010
0101
,  // measure 51
0001
1000
0100
1000
0001
0010
0100
0000
,  // measure 52
1000
0000
0000
1000
0000
0000
0000
0000
0010
0000
0000
0010
0000
0000
0000
0000
,  // measure 53
0100
0000
0000
0100
0000
0000
0000
0000
0001
0000
0000
0001
0000
0000
2200
0000
,  // measure 54
0000
0000
0000
0000
0000
3300
0000
2002
,  // measure 55
0000
0000
0000
3003
,  // measure 56
0010
0220
0000
0000
,  // measure 57
0000
0000
0000
0000
,  // measure 58
0000
0000
0330
0000
;

//---------------dance-single - ----------------
#NOTEDATA:;
#CHARTNAME:;
#STEPSTYPE:dance-single;
#DESCRIPTION:;
#CHARTSTYLE:;
#DIFFICULTY:Hard;
#METER:11;
#RADARVALUES:0.501274,0.629371,0.438615,0.223445,0.359995,424.000000,371.000000,53.000000,27.000000,0.000000,0.000000,0.000000,0.000000,0.000000,0.501274,0.629371,0.438615,0.223445,0.359995,424.000000,371.000000,53.000000,27.000000,0.000000,0.000000,0.000000,0.000000,0.000000;
#CREDIT:;
#NOTES:
// measure 0
0000
0000
0000
0000
,  // measure 1
0000
0000
0000
0000
,  // measure 2
0000
0000
0000
0000
,  // measure 3
0000
0000
0000
0000
0000
0000
0000
1000
,  // measure 4
0002
0000
0000
0103
0000
0000
0001
0000
2000
0000
0000
3100
0000
0000
1000
0000
,  // measure 5
0002
0000
0000
0103
0000
0000
0001
0000
2000
0000
0000
3100
0000
0000
2002
0000
,  // measure 6
0000
0000
0000
3003
0100
0010
0001
2002
,  // measure 7
0000
0000
0000
3003
,  // measure 8
1000
0000
0000
1000
0000
0000
1000
0000
0010
0000
0000
0010
0000
0000
0010
0000
,  // measure 9
0100
0000
0000
0100
0000
0000
0100
0000
0001
0000
0010
0000
0100
0000
1000
0000
,  // measure 10
0001
0000
0000
0001
0000
0000
0001
0000
0100
0000
0000
0100
0000
0000
0100
0000
,  // measure 11
0010
0000
0000
0010
0000
0000
0010
0000
1000
0000
0100
0000
0010
0000
0001
0000
,  // measure 12
1000
0000
0000
1000
0000
0000
1000
0000
0001
0000
0000
0001
0000
0000
0001
0000
,  // measure 13
1000
0000
0000
1000
0000
0000
1000
0000
0010
0000
0100
0000
0001
0000
1000
0000
,  // measure 14
0100
0000
0000
0100
0000
0000
0100
0000
0010
0000
0000
0010
0000
0000
0010
0000
,  // measure 15
0101
0000
0000
0100
0000
0000
2002
0000
0000
0000
3003
0010
0100
0010
0100
0000
,  // measure 16
1000
0001
1000
0100
1000
0001
1000
0100
,  // measure 17
1001
0001
0100
0001
0010
0001
0100
0001
,  // measure 18
1001
1000
0100
0001
0100
1000
0100
0010
,  // measure 19
1001
0001
0010
1000
0010
0001
0100
0010
,  // measure 20
1001
1000
0010
0001
0010
0100
0001
0010
,  // measure 21
1001
0000
0010
0000
0100
0000
1000
0000
0010
0100
0010
0100
0010
0100
0000
1001
,  // measure 22
0000
0000
0100
0001
0100
0001
0000
1001
0000
0000
0100
1000
0100
1000
0000
1001
,  // measure 23
0000
0000
0010
0001
0010
0001
0000
1001
0000
0000
0010
1000
0010
1000
0000
1001
,  // measure 24
0000
0000
0000
0011
0000
0000
0000
1001
0000
0000
0000
1100
0000
0000
0000
0011
,  // measure 25
0000
0000
0100
0000
0100
0000
0000
1100
0000
0000
0010
0000
0010
0000
0000
0000
,  // measure 26
0001
0000
1000
0000
0100
0000
1000
0001
0000
0001
0000
0001
0100
0000
0000
0000
,  // measure 27
0001
0100
1000
0100
0001
0010
0100
0000
,  // measure 28
1000
0000
0001
0000
0010
0000
0001
1000
0000
1000
0000
1000
0010
0000
0000
0000
,  // measure 29
1000
0001
0100
1000
0100
0010
1100
0000
,  // measure 30
0001
0000
0100
0000
0010
0000
0100
0001
0000
0001
0000
0001
1000
0000
0000
0000
,  // measure 31
0100
1000
0010
0001
0010
0100
0001
0000
,  // measure 32
0010
0000
0100
0000
1000
0000
0001
0100
0000
0100
0000
0100
0010
0000
0100
0000
,  // measure 33
0001
0000
0000
0000
0010
0000
0100
0000
1000
0001
1000
0001
1000
0001
1000
0000
,  // measure 34
1100
0000
0000
1100
0000
0000
1000
0000
0110
0000
0000
0110
0000
0000
0100
0000
,  // measure 35
0011
0000
0000
0011
0000
0000
2002
0000
0000
0000
0000
0000
3003
0000
0000
0000
,  // measure 36
0001
0100
1000
0100
0001
0100
1000
0100
,  // measure 37
0001
0010
0100
1000
0001
0010
0100
1000
,  // measure 38
0001
0010
1000
0010
0001
0010
1000
0010
,  // measure 39
0001
0000
1000
0000
0001
0000
1000
0010
0000
0010
0000
0000
1010
0000
0000
0000
,  // measure 40
0100
0000
0001
0010
0001
0000
0100
0010
0000
0100
0000
0000
0001
0000
1000
0100
,  // measure 41
1000
0000
0001
0010
0001
0000
0101
0000
0000
0000
2020
0000
0000
0000
3030
0000
,  // measure 42
0220
0000
0330
0000
2002
0000
3003
0000
0001
0100
0010
1000
0100
0000
0000
1001
,  // measure 43
0000
0100
0010
0001
2002
0000
0000
3003
,  // measure 44
0001
0000
0100
0000
0001
0000
1000
0100
0000
0010
0000
0100
2000
0000
0010
0000
,  // measure 45
3010
0000
0200
0001
0301
1000
0100
0000
,  // measure 46
1000
0000
0001
0000
0100
0000
0001
1000
0000
0100
0000
1000
0001
0000
0000
0000
,  // measure 47
1000
0000
0010
0000
0001
0000
0010
0000
1000
0001
0000
0000
0101
0000
0101
0000
,  // measure 48
1000
0000
0100
0000
0010
0000
0100
1000
0000
0010
0000
1000
0200
0000
0010
0000
,  // measure 49
0310
0001
2000
0010
3010
0100
1001
0000
,  // measure 50
0011
0000
0000
0000
1100
0000
0000
1001
0000
0000
0000
0000
0110
0000
0110
0000
,  // measure 51
0001
0000
0100
0000
1000
0000
0100
0000
0001
0000
0010
0100
0010
0100
1000
0000
,  // measure 52
1010
0000
0000
1010
0000
0000
0010
0000
0110
0000
0000
0110
0000
0000
0100
0000
,  // measure 53
0101
0000
0000
0101
0000
0000
0001
0000
1001
0000
0000
1001
0000
0000
1100
0000
,  // measure 54
0000
1000
0001
0100
1000
0100
0001
0011
,  // measure 55
0000
0000
0001
0000
0100
0000
0010
1000
0000
0100
0000
0020
0000
0000
0001
0000
,  // measure 56
0031
2002
0000
0000
,  // measure 57
0000
0000
0000
0000
,  // measure 58
0000
0000
3003
0000
;

//---------------dance-single - ----------------
#NOTEDATA:;
#CHARTNAME:;
#STEPSTYPE:dance-single;
#DESCRIPTION:;
#CHARTSTYLE:;
#DIFFICULTY:Challenge;
#METER:14;
#RADARVALUES:0.719990,0.750403,0.529648,0.206894,0.897919,609.000000,545.000000,64.000000,25.000000,0.000000,0.000000,0.000000,0.000000,0.000000,0.719990,0.750403,0.529648,0.206894,0.897919,609.000000,545.000000,64.000000,25.000000,0.000000,0.000000,0.000000,0.000000,0.000000;
#CREDIT:;
#NOTES:
// measure 0
0000
0000
0000
0000
,  // measure 1
0000
0000
0000
0000
,  // measure 2
0000
0000
0000
0000
,  // measure 3
0000
0000
0000
0000
0000
0000
0000
0001
,  // measure 4
1100
0000
0000
1001
0000
0000
0001
0000
1100
0000
0000
1001
0000
0000
0001
0000
,  // measure 5
1100
0000
0000
1001
0000
0000
0001
0000
1100
0000
0000
0101
0000
0000
2002
0000
,  // measure 6
0000
0000
0000
0000
0000
0000
3003
0010
0100
0000
0110
0000
0101
0000
1001
0000
,  // measure 7
0000
0000
1000
0100
1000
0000
0001
0010
0001
0000
1000
0100
1000
0000
0001
0000
,  // measure 8
0200
0000
0000
0001
0000
0000
0301
0000
2000
0000
0000
0010
0000
0000
3010
0000
,  // measure 9
0200
0000
0000
0001
0000
0000
0301
1000
0010
0000
0100
0001
1000
0000
1000
0000
,  // measure 10
0200
0000
0000
1000
0000
0000
1300
0000
0020
0000
0000
0001
0000
0000
0031
0000
,  // measure 11
0200
0000
0000
0010
0000
0000
0310
1000
0100
1000
0100
0010
0001
0000
0001
0000
,  // measure 12
0200
0000
0000
0001
0000
0000
0301
0000
2000
0000
0000
0010
0000
0000
3010
0000
,  // measure 13
0200
0000
0000
0010
0000
0000
0310
1000
0100
0000
0010
0001
0100
0000
0100
0000
,  // measure 14
0002
0000
0000
0010
0000
0000
0013
0000
0200
0000
0000
1000
0000
0000
1300
0000
,  // measure 15
0010
0100
0010
0100
0000
0000
1001
0000
0100
0000
0010
0001
0100
0001
0100
0000
,  // measure 16
0001
1000
0001
0000
1000
0100
1000
0000
0001
1000
0001
0000
1000
0100
1000
0000
,  // measure 17
0010
0100
0010
0000
0100
0001
0100
0000
0010
0100
0010
0000
0100
0001
0100
0000
,  // measure 18
0001
1000
0001
0000
0010
0100
0010
0000
0001
1000
0001
0000
0010
0100
0010
0000
,  // measure 19
0001
0100
0001
0000
1000
0100
1000
0000
0001
0010
0001
0000
1000
0010
1000
0000
,  // measure 20
0001
0010
0100
0000
1000
0010
1000
0000
0001
0010
0100
0000
1000
0010
1000
0000
,  // measure 21
0010
0100
0001
0000
1000
0100
1000
0000
0010
0100
0001
0010
0100
1000
0000
1001
,  // measure 22
0000
0000
1000
0010
0100
0001
1000
1001
0000
0000
0001
0100
0010
1000
0001
1001
,  // measure 23
0000
0000
1000
0100
0010
0001
1000
1001
0000
0000
0001
0010
0100
1000
0001
1001
,  // measure 24
0000
0100
0010
0001
0000
0010
0100
1000
0000
0010
0100
0001
0000
0100
0010
2000
,  // measure 25
0000
0000
0100
0000
3100
0000
0010
0002
0000
0000
0100
0000
0103
0000
0000
0000
,  // measure 26
1001
0000
0100
0000
0011
0000
1000
0001
0000
0001
0100
0010
1000
0000
0001
1000
,  // measure 27
0001
0000
0010
0100
1000
0000
0100
0010
0001
0100
0010
0100
0001
1000
0000
0000
,  // measure 28
1001
0000
0010
0000
1100
0000
0001
0100
0000
0100
0001
1000
0100
0010
0000
0000
,  // measure 29
0001
0000
0100
0001
1000
0000
0100
1000
0001
0100
0001
1000
0100
0010
0000
0000
,  // measure 30
1001
0000
0010
0000
0101
0000
1000
0100
0000
0100
1000
0001
0100
0000
0001
1000
,  // measure 31
0001
0000
0010
0100
1000
0000
0100
0010
0001
1000
0010
1000
0001
0010
0000
0000
,  // measure 32
1001
0000
0100
0000
1010
0000
0001
0010
0000
0010
0001
1000
0010
0100
0001
0100
,  // measure 33
0001
0000
1000
0010
1000
0010
0100
0001
1000
0100
0010
0001
0010
0100
1000
0000
,  // measure 34
1001
0000
0000
0101
0000
0000
1000
0000
1001
0000
0000
0101
0000
0000
1000
0000
,  // measure 35
1001
0000
0000
0101
0000
0000
1001
0000
0000
0100
0010
0100
0001
0010
0100
1000
,  // measure 36
0001
0000
0100
0001
1000
0000
0100
1000
0001
1000
0100
1000
0001
0000
0100
0010
,  // measure 37
1000
0000
0010
1000
0001
0000
1000
0001
0010
0001
1000
0001
0010
0000
0100
1000
,  // measure 38
0010
0000
1000
0010
0100
0000
0001
0010
0100
0010
0001
0010
0100
0000
1000
0100
,  // measure 39
0010
0000
0100
1000
0001
0000
1000
0010
0100
0010
1000
0010
0110
0000
0000
0000
,  // measure 40
1000
0010
0100
0001
1000
0000
0200
1000
0000
1000
0000
0000
1300
0010
0100
0001
,  // measure 41
1000
0100
0010
0100
1000
0000
0002
0100
0000
0000
2003
0100
0000
0000
3000
0000
,  // measure 42
1001
0000
0100
0000
1001
0000
0100
0000
0001
0010
0100
1000
0001
0100
0000
1001
,  // measure 43
0000
0000
1100
0000
0110
0000
0011
0000
0001
1000
0001
1000
0100
0010
0100
0010
,  // measure 44
1001
0000
1000
0010
0100
0000
0001
0100
0000
0010
1000
0100
0010
0001
1000
0001
,  // measure 45
0010
0000
0100
1000
0001
0100
0001
1000
0100
1000
0001
0100
0010
0000
0000
0000
,  // measure 46
1001
0000
0001
1000
0010
0000
0100
0001
0000
1000
0010
0100
0001
0000
1000
0001
,  // measure 47
1000
0100
1000
0001
1000
0100
0010
0001
1000
0010
0000
0000
1001
0000
0110
0000
,  // measure 48
1001
0000
0001
1000
0100
0000
0010
0100
0000
1000
0001
0010
0100
1000
0001
1000
,  // measure 49
0100
0000
0010
0001
1000
0010
1000
0001
0010
0001
1000
0010
1010
0000
0000
0000
,  // measure 50
0202
0000
0303
0000
2020
0000
3030
1001
0000
1000
0001
0100
0101
0000
0110
0000
,  // measure 51
1001
0000
1000
0001
0010
0000
0100
0010
0001
0100
0001
0100
0010
1000
0100
0010
,  // measure 52
1001
0000
0000
1100
0000
0000
0010
0000
1001
0000
0000
1100
0000
0000
0010
0000
,  // measure 53
1001
0000
0000
1100
0000
0000
0010
0000
1001
0000
0000
1001
0000
0000
0120
0000
,  // measure 54
0000
0000
1030
0010
0001
0010
1000
0100
0010
0001
1000
0010
1000
0001
0011
0000
,  // measure 55
0000
0000
0000
0000
0000
0000
0001
0000
0000
0100
0000
0000
1000
0000
0000
0100
0000
0000
0001
0000
0000
1000
0000
0000
0010
0000
0000
0100
0000
0000
0001
0000
0000
0010
0000
0000
0100
0000
0000
0000
0100
0000
0000
0000
0100
0000
0000
0000
,  // measure 56
0110
2002
0000
0000
,  // measure 57
0000
0000
0000
0000
,  // measure 58
0000
0000
3003
0000
;

//---------------dance-single - ----------------
#NOTEDATA:;
#CHARTNAME:;
#STEPSTYPE:dance-single;
#DESCRIPTION:;
#CHARTSTYLE:;
#DIFFICULTY:Beginner;
#METER:2;
#RADARVALUES:0.095762,0.139653,0.016551,0.000000,0.000000,81.000000,79.000000,2.000000,0.000000,0.000000,0.000000,0.000000,0.000000,0.000000,0.095762,0.139653,0.016551,0.000000,0.000000,81.000000,79.000000,2.000000,0.000000,0.000000,0.000000,0.000000,0.000000,0.000000;
#CREDIT:;
#NOTES:
// measure 0
0000
0000
0000
0000
,  // measure 1
0000
0000
0000
0000
,  // measure 2
0000
0000
0000
0000
,  // measure 3
0000
0000
0000
0000
,  // measure 4
1000
0000
1000
0000
,  // measure 5
1000
0000
1000
0000
,  // measure 6
0000
0000
0000
0000
,  // measure 7
0000
0000
0000
0000
,  // measure 8
0001
0000
0100
0000
,  // measure 9
0010
0000
0000
0000
,  // measure 10
1000
0000
0010
0000
,  // measure 11
0100
0000
0000
0000
,  // measure 12
0001
0000
0010
0000
,  // measure 13
0100
0000
0000
0000
,  // measure 14
1000
0000
0100
0000
,  // measure 15
0010
0000
0000
0000
,  // measure 16
0001
0000
0001
0000
,  // measure 17
1000
0000
1000
0000
,  // measure 18
0001
0000
0001
0000
,  // measure 19
1000
0000
1000
0000
,  // measure 20
0001
0000
0001
0000
,  // measure 21
1000
0000
1000
0000
,  // measure 22
0000
0000
0000
0000
,  // measure 23
0000
0000
0000
0000
,  // measure 24
0000
0000
0000
0000
,  // measure 25
0000
0000
0000
0000
,  // measure 26
1000
0000
1000
0000
,  // measure 27
0010
0000
0010
0000
,  // measure 28
0100
0000
0100
0000
,  // measure 29
0001
0000
0001
0000
,  // measure 30
0010
0000
0100
0000
,  // measure 31
0010
0000
0100
0000
,  // measure 32
1000
0000
1000
0000
,  // measure 33
0010
0000
0100
0000
,  // measure 34
1001
0000
0000
0000
,  // measure 35
0000
0000
0000
0000
,  // measure 36
0001
0000
0001
0000
,  // measure 37
0001
0000
0001
0000
,  // measure 38
1000
0000
1000
0000
,  // measure 39
1000
0000
1000
0000
,  // measure 40
0100
0000
0100
0000
,  // measure 41
0010
0000
0010
0000
,  // measure 42
0001
0000
0001
0000
,  // measure 43
1000
0000
1000
0000
,  // measure 44
0010
0000
0100
0000
,  // measure 45
0010
0000
0000
0000
,  // measure 46
0100
0000
0001
0000
,  // measure 47
0100
0000
0000
0000
,  // measure 48
0010
0000
1000
0000
,  // measure 49
0010
0000
0000
0000
,  // measure 50
1000
0000
0001
0000
,  // measure 51
1000
0000
0100
0000
,  // measure 52
0010
0000
0010
0000
,  // measure 53
0100
0000
0100
0000
,  // measure 54
0000
0000
0000
0000
,  // measure 55
0000
0000
0000
0000
,  // measure 56
0000
1001
0000
0000
;
