#VERSION:0.83;
#TITLE:はいよろこんで;
#SUBTITLE:;
#ARTIST:こっちのけんと;
#TITLETRANSLIT:HAI YOROKONDE;
#SUBTITLETRANSLIT:;
#ARTISTTRANSLIT:KOCCHI NO KENTO;
#GENRE:;
#ORIGIN:;
#CREDIT:DigiMindAxel;
#BANNER:HAI YOROKONDE.png;
#BACKGROUND:HAI YOROKONDE-bg.png;
#PREVIEWVID:;
#JACKET:HAI YOROKONDE-jacket.png;
#CDIMAGE:;
#DISCIMAGE:;
#LYRICSPATH:HAI YOROKONDE.lrc;
#CDTITLE:DigiMindAxel original simfile.png;
#MUSIC:HAI YOROKONDE.ogg;
#OFFSET:-0.017000;
#SAMPLESTART:47.279064;
#SAMPLELENGTH:12.000000;
#SELECTABLE:YES;
#BPMS:0.000=147.000;
#STOPS:;
#DELAYS:;
#WARPS:;
#TIMESIGNATURES:0.000=4=4;
#TICKCOUNTS:0.000=4;
#COMBOS:0.000=1;
#SPEEDS:0.000=1.000=0.000=0;
#SCROLLS:0.000=1.000;
#FAKES:;
#LABELS:0.000=Song Start;
#BGCHANGES:-2.000=HAI YOROKONDE.avi=1.000=1=0=0=StretchNoLoop==CrossFade==,
99999=-nosongbg-=1.000=0=0=0 // don't automatically add -songbackground-
;
#KEYSOUNDS:;
#ATTACKS:
;

//---------------dance-single - ----------------
#NOTEDATA:;
#CHARTNAME:;
#STEPSTYPE:dance-single;
#DESCRIPTION:;
#CHARTSTYLE:;
#DIFFICULTY:Easy;
#METER:4;
#RADARVALUES:0.192292,0.297719,0.011217,0.011217,0.000000,120.000000,119.000000,1.000000,1.000000,0.000000,0.000000,0.000000,0.000000,0.000000,0.192292,0.297719,0.011217,0.011217,0.000000,120.000000,119.000000,1.000000,1.000000,0.000000,0.000000,0.000000,0.000000,0.000000;
#CREDIT:;
#NOTES:
// measure 0
0000
0000
0000
0000
,  // measure 1
0000
0000
0000
0000
,  // measure 2
0000
0000
0000
0000
,  // measure 3
0000
0000
0000
0000
,  // measure 4
0000
0000
0000
0000
,  // measure 5
1000
0000
0000
1000
0000
0000
1000
0000
,  // measure 6
0000
0000
0000
0000
,  // measure 7
0001
0000
0000
0001
0000
0000
0001
0000
,  // measure 8
0000
0000
0000
0000
,  // measure 9
1000
0000
0000
1000
0000
0000
1000
0000
,  // measure 10
0000
0000
0000
0000
,  // measure 11
0001
0000
0000
0001
0000
0000
0001
0000
,  // measure 12
0000
0000
0000
0000
,  // measure 13
0100
0000
0100
0000
,  // measure 14
0010
0100
0010
0100
,  // measure 15
0010
0000
0010
0000
,  // measure 16
1000
0001
1000
0001
,  // measure 17
1000
0000
1000
0000
,  // measure 18
0100
1000
0100
1000
,  // measure 19
0100
0000
0100
0000
,  // measure 20
0010
0001
0010
0001
,  // measure 21
0010
0000
0000
0000
,  // measure 22
0100
0000
0000
0000
,  // measure 23
1000
0000
0000
0000
,  // measure 24
0001
0001
0001
0000
,  // measure 25
1000
0000
0000
0000
,  // measure 26
0010
0000
0000
0000
,  // measure 27
0100
0001
0100
0001
,  // measure 28
1000
0000
0000
0000
,  // measure 29
0001
0001
0001
1000
,  // measure 30
1000
1000
0000
0000
,  // measure 31
0001
0001
0001
1000
,  // measure 32
1000
1000
0000
0000
,  // measure 33
0001
0001
0001
1000
,  // measure 34
1000
1000
0000
0000
,  // measure 35
0001
0001
0001
1000
,  // measure 36
1000
1000
0000
0000
,  // measure 37
0100
0010
0001
0100
,  // measure 38
0010
0000
0000
0000
,  // measure 39
0100
0010
1000
0100
,  // measure 40
0010
0000
0000
0000
,  // measure 41
0001
0010
0100
1000
,  // measure 42
0001
0000
0000
0000
,  // measure 43
1000
0010
0100
0001
,  // measure 44
1000
1000
1000
1000
,  // measure 45
1001
0000
0001
0000
,  // measure 46
0010
0000
0100
1000
,  // measure 47
0100
0000
0010
0000
,  // measure 48
0001
0000
0100
0010
,  // measure 49
0100
0000
0001
0000
,  // measure 50
1000
0000
0100
1000
,  // measure 51
0100
0010
0001
0100
,  // measure 52
0010
0010
0100
0020
,  // measure 53
0000
0030
0000
0000
0000
0000
0000
0000
0000
0000
0000
0000
;

//---------------dance-single - ----------------
#NOTEDATA:;
#CHARTNAME:;
#STEPSTYPE:dance-single;
#DESCRIPTION:;
#CHARTSTYLE:;
#DIFFICULTY:Medium;
#METER:11;
#RADARVALUES:0.477526,0.478968,0.392597,0.000000,0.005609,298.000000,263.000000,35.000000,0.000000,0.000000,0.000000,0.000000,0.000000,0.000000,0.477526,0.478968,0.392597,0.000000,0.005609,298.000000,263.000000,35.000000,0.000000,0.000000,0.000000,0.000000,0.000000,0.000000;
#CREDIT:;
#NOTES:
// measure 0
0000
0000
0000
0000
,  // measure 1
0000
0000
0000
0000
,  // measure 2
0000
0000
0000
0000
,  // measure 3
0000
0000
0000
0000
,  // measure 4
0000
0000
0000
0000
,  // measure 5
0001
0000
0000
0001
0000
0000
0101
0000
,  // measure 6
0000
0000
0000
0000
0000
1001
0000
0000
,  // measure 7
1000
0000
0000
1000
0000
0000
1100
0000
,  // measure 8
0000
0000
0010
0001
,  // measure 9
1000
0000
0000
1000
0000
0000
1001
0000
,  // measure 10
0000
0000
0000
0000
0000
1001
0000
0000
,  // measure 11
0001
0000
0000
0001
0000
0000
0101
0000
,  // measure 12
0000
0000
0010
0010
,  // measure 13
1000
0001
1000
0100
0010
0001
0010
0000
,  // measure 14
0001
0010
0100
1000
0001
0100
0010
0000
,  // measure 15
1000
0001
0100
0001
1000
0100
0010
0000
,  // measure 16
0100
1000
0001
1000
0100
0010
0001
1000
,  // measure 17
0001
0100
1010
1010
,  // measure 18
0001
0100
1010
1010
,  // measure 19
0100
1000
0001
1000
0100
0010
0100
0000
,  // measure 20
1000
0001
0010
0001
1000
0010
1000
0000
,  // measure 21
0001
0010
0100
1000
0001
0001
0000
1000
,  // measure 22
0001
0010
0100
1000
0001
0001
0000
1000
,  // measure 23
0001
0010
0100
1000
0001
0001
0100
0000
,  // measure 24
1001
1001
1001
0000
,  // measure 25
1000
0010
0100
0001
1000
1000
0000
0001
,  // measure 26
1000
0010
0100
0001
1000
1000
0000
0001
,  // measure 27
1000
0010
0100
0001
1000
1000
0001
0010
,  // measure 28
0100
0100
0010
0100
,  // measure 29
1000
0001
0100
0001
1000
0000
1000
0001
,  // measure 30
0100
0001
1000
0000
0110
0000
1001
0000
,  // measure 31
0001
1000
0100
1000
0001
0000
0001
1000
,  // measure 32
0100
1000
0001
0000
0101
0000
1010
0000
,  // measure 33
1000
0001
0100
0001
1000
0000
1000
0001
,  // measure 34
0100
0001
1000
0000
0110
0000
1001
0000
,  // measure 35
0001
1000
0010
1000
0001
0000
0001
1000
,  // measure 36
0010
1000
0001
0000
0101
0000
1010
0000
,  // measure 37
0100
0100
0001
0010
0100
0010
0001
1000
,  // measure 38
0010
0010
0110
0110
,  // measure 39
0100
0100
0001
1000
0100
0010
0100
1000
,  // measure 40
0001
0001
0110
0110
,  // measure 41
1000
0010
0001
0010
1000
0100
0010
0001
,  // measure 42
1000
1000
0110
0110
,  // measure 43
0001
0100
1000
0100
0001
0010
0100
1000
,  // measure 44
0010
0010
0100
0010
,  // measure 45
1001
0000
1000
0001
0010
0000
0011
0000
,  // measure 46
0100
1000
0001
1000
0100
0000
1100
0000
,  // measure 47
0001
1000
0010
1000
0010
0000
1010
0000
,  // measure 48
0100
0001
0010
0001
1000
0000
1001
0000
,  // measure 49
0011
0000
0100
1000
0001
0000
1001
0000
,  // measure 50
0100
0001
0010
0001
0100
0000
0101
0000
,  // measure 51
0010
0010
1000
0100
0010
0001
0010
0100
,  // measure 52
0010
0010
0100
0010
,  // measure 53
0000
0010
0000
0000
0000
0000
0000
0000
0000
0001
0000
0000
0000
0000
0000
0000
0000
0000
0000
0000
0000
0000
0000
0000
;

//---------------dance-single - ----------------
#NOTEDATA:;
#CHARTNAME:;
#STEPSTYPE:dance-single;
#DESCRIPTION:;
#CHARTSTYLE:;
#DIFFICULTY:Hard;
#METER:14;
#RADARVALUES:0.661806,0.718452,0.426248,0.246775,0.375771,413.000000,375.000000,38.000000,22.000000,0.000000,0.000000,0.000000,0.000000,0.000000,0.661806,0.718452,0.426248,0.246775,0.375771,413.000000,375.000000,38.000000,22.000000,0.000000,0.000000,0.000000,0.000000,0.000000;
#CREDIT:;
#NOTES:
// measure 0
0000
0000
0000
0000
,  // measure 1
0000
0000
0000
0000
,  // measure 2
0000
0000
0000
0000
,  // measure 3
0000
0000
0000
0000
,  // measure 4
0000
0000
0000
0000
,  // measure 5
2000
0000
3001
0010
0100
0000
1100
0000
,  // measure 6
0000
0000
0000
0000
0000
1001
0000
0001
,  // measure 7
0010
0001
0100
0010
1000
0100
1001
0000
,  // measure 8
0000
0000
0010
0100
,  // measure 9
2000
0000
3001
0100
0010
0000
1010
0000
,  // measure 10
0000
0000
0000
0000
0000
1001
0000
1000
,  // measure 11
0100
1000
0010
0100
0001
0010
1001
0000
,  // measure 12
0000
0000
0100
0100
,  // measure 13
1001
0000
0010
0001
0010
0000
0100
0000
1000
0000
1000
0000
1000
0000
0002
0000
,  // measure 14
0003
0000
0100
0010
0100
0010
0100
0000
0001
0000
0001
0000
0001
0000
2000
0000
,  // measure 15
3000
0010
0010
1000
0100
0001
0100
1000
,  // measure 16
0001
0100
1000
0010
0001
1000
0100
0010
,  // measure 17
0002
0000
1003
0100
0020
0000
0031
1000
,  // measure 18
0100
1000
0010
0100
0001
1000
0100
1000
,  // measure 19
0000
0001
0100
1000
0100
0001
1000
0001
,  // measure 20
0000
1000
0010
0001
0010
1000
0001
0000
,  // measure 21
1000
0100
1000
0000
0001
0000
0100
0001
0100
0000
0002
0000
0000
0000
1003
0000
,  // measure 22
0100
0001
0100
1000
0010
2000
0000
3001
,  // measure 23
1000
0010
0001
0010
1000
0001
0010
0100
,  // measure 24
1001
1001
1001
0000
,  // measure 25
1001
0000
0100
0001
0100
0000
0010
0100
0010
0000
2000
0000
0000
0000
3001
0000
,  // measure 26
0100
0000
1000
0000
0100
0000
0001
1000
0001
0000
0020
0000
0000
0000
0031
0000
,  // measure 27
1000
0000
0100
0000
0010
0100
0010
0000
0100
0000
1000
0001
1000
0000
0010
0000
,  // measure 28
0100
0100
0100
0010
0010
0010
0100
0100
,  // measure 29
1001
0001
1001
0001
0110
0000
1001
0001
,  // measure 30
1001
0000
0001
0000
0110
0000
0000
0000
0100
0010
0100
0001
1000
0000
0000
0000
,  // measure 31
1001
1000
1001
1000
0110
0000
1001
1000
,  // measure 32
1001
0000
1000
0000
0110
0000
0000
0000
0010
0100
0010
1000
0001
0000
0000
0000
,  // measure 33
1001
0001
1001
0001
0110
0000
1001
0001
,  // measure 34
1001
0000
0001
0000
0110
0000
0000
0000
0010
0100
0010
0001
1000
0000
0000
0000
,  // measure 35
1001
1000
1001
1000
0110
0000
1001
1000
,  // measure 36
1001
0000
1000
0000
0110
0000
0000
0000
0100
0010
0100
1000
0001
0000
0000
0000
,  // measure 37
1000
0100
1000
0000
0001
0010
0001
0000
1000
0010
0000
0100
0001
0010
0100
1000
,  // measure 38
0001
0000
0001
0000
0001
0000
1000
0100
1000
0000
1000
0100
1000
0000
0001
0000
,  // measure 39
1000
0010
1000
0000
0001
0100
0001
0000
1000
0100
0000
0010
0001
0010
0100
1000
,  // measure 40
0002
0000
0000
0000
1003
0000
0001
0010
0001
0000
0001
0010
0001
0000
0000
0000
,  // measure 41
2000
0000
3100
0010
0001
0000
0100
0010
1000
0100
0000
0010
0001
0010
0100
1000
,  // measure 42
0002
0000
2003
0000
3001
0001
1001
0000
,  // measure 43
0001
0010
0001
0000
1000
0100
1000
0000
0001
0000
0010
0001
1000
0001
1000
0000
,  // measure 44
0100
0100
0100
0010
0010
0010
0100
0100
,  // measure 45
1002
0000
0000
0000
1003
0100
0010
0001
0200
0000
0000
0000
0301
0010
0100
1000
,  // measure 46
0020
0000
0000
0000
1030
0100
0010
0001
1000
0000
0010
0000
0100
0000
0010
0000
,  // measure 47
2000
0000
0000
0000
3002
0000
0000
0000
0103
0010
0100
0001
1000
0100
0010
0000
,  // measure 48
0001
0000
0001
0000
0100
0000
0100
0000
0010
1000
0001
0010
0100
1000
0001
0000
,  // measure 49
0200
0000
0000
0000
0301
0010
0100
1000
0020
0000
0000
0000
1030
0100
0010
0001
,  // measure 50
0200
0000
0000
0000
0301
0010
0100
1000
0001
0000
0100
0000
0110
0000
0000
0000
,  // measure 51
1000
0010
1000
0000
0001
0100
0001
0000
1000
0000
0100
1000
0100
1000
0001
0000
,  // measure 52
0100
0100
0100
0010
0010
0010
0100
0100
,  // measure 53
0000
0100
0000
0000
0000
0000
0000
0000
0000
0001
0000
0000
0000
0000
0000
0000
0000
0000
0000
0000
0000
0000
0000
0000
;

//---------------dance-single - ----------------
#NOTEDATA:;
#CHARTNAME:;
#STEPSTYPE:dance-single;
#DESCRIPTION:;
#CHARTSTYLE:;
#DIFFICULTY:Beginner;
#METER:1;
#RADARVALUES:0.081724,0.116657,0.000000,0.000000,0.000000,51.000000,51.000000,0.000000,0.000000,0.000000,0.000000,0.000000,0.000000,0.000000,0.081724,0.116657,0.000000,0.000000,0.000000,51.000000,51.000000,0.000000,0.000000,0.000000,0.000000,0.000000,0.000000,0.000000;
#CREDIT:;
#NOTES:
// measure 0
0000
0000
0000
0000
,  // measure 1
0000
0000
0000
0000
,  // measure 2
0000
0000
0000
0000
,  // measure 3
0000
0000
0000
0000
,  // measure 4
0000
0000
0000
0000
,  // measure 5
0001
0000
0000
0000
,  // measure 6
0000
0000
0000
0000
,  // measure 7
1000
0000
0000
0000
,  // measure 8
0000
0000
0000
0000
,  // measure 9
0001
0000
0000
0000
,  // measure 10
0000
0000
0000
0000
,  // measure 11
1000
0000
0000
0000
,  // measure 12
0000
0000
0000
0000
,  // measure 13
0100
0000
0000
0000
,  // measure 14
0100
0000
0000
0000
,  // measure 15
0010
0000
0000
0000
,  // measure 16
0010
0000
0000
0000
,  // measure 17
0001
0000
0000
0000
,  // measure 18
0100
0000
0000
0000
,  // measure 19
0010
0000
0000
0000
,  // measure 20
1000
0000
0000
0000
,  // measure 21
0001
0000
0000
0000
,  // measure 22
0001
0000
0000
0000
,  // measure 23
1000
0000
0000
0000
,  // measure 24
0100
0000
0000
0000
,  // measure 25
1000
0000
0000
0000
,  // measure 26
1000
0000
0000
0000
,  // measure 27
0001
0000
0010
0000
,  // measure 28
0001
0000
0000
0000
,  // measure 29
1000
0000
1000
0000
,  // measure 30
1000
0000
0000
0000
,  // measure 31
0001
0000
0001
0000
,  // measure 32
0001
0000
0000
0000
,  // measure 33
0100
0000
0100
0000
,  // measure 34
0100
0000
0000
0000
,  // measure 35
0010
0000
0010
0000
,  // measure 36
0010
0000
0000
0000
,  // measure 37
1000
0000
0001
0000
,  // measure 38
1000
0000
0000
0000
,  // measure 39
0001
0000
1000
0000
,  // measure 40
0001
0000
0000
0000
,  // measure 41
1000
0000
0001
0000
,  // measure 42
1000
0000
0000
0000
,  // measure 43
0001
0000
1000
0000
,  // measure 44
0010
0000
0000
0000
,  // measure 45
0100
0000
0000
0000
,  // measure 46
0000
0000
0000
0000
,  // measure 47
0001
0000
0000
0000
,  // measure 48
0000
0000
0000
0000
,  // measure 49
1000
0000
0000
0000
,  // measure 50
0100
0000
0000
0000
,  // measure 51
0010
0000
0000
0000
,  // measure 52
0010
0000
0000
0000
;
