#VERSION:0.83;
#TITLE:Goldenrod Game Corner (PIANO HOUSE Mix);
#SUBTITLE:;
#ARTIST:Remixed by EBISU;
#TITLETRANSLIT:;
#SUBTITLETRANSLIT:;
#ARTISTTRANSLIT:;
#GENRE:;
#ORIGIN:;
#CREDIT:DigiMindAxel;
#BANNER:Goldenrod Game Corner (PIANO HOUSE Mix).png;
#BACKGROUND:Goldenrod Game Corner (PIANO HOUSE Mix)-bg.png;
#PREVIEWVID:;
#JACKET:Goldenrod Game Corner (PIANO HOUSE Mix)-jacket.png;
#CDIMAGE:;
#DISCIMAGE:;
#LYRICSPATH:;
#CDTITLE:DigiMindAxel original simfile.png;
#MUSIC:Goldenrod Game Corner (PIANO HOUSE Mix).ogg;
#OFFSET:-0.004000;
#SAMPLESTART:66.202057;
#SAMPLELENGTH:12.000000;
#SELECTABLE:YES;
#BPMS:0.000=145.000;
#STOPS:;
#DELAYS:;
#WARPS:;
#TIMESIGNATURES:0.000=4=4;
#TICKCOUNTS:0.000=4;
#COMBOS:0.000=1;
#SPEEDS:0.000=1.000=0.000=0;
#SCROLLS:0.000=1.000;
#FAKES:;
#LABELS:0.000=Song Start;
#BGCHANGES:;
#KEYSOUNDS:;
#ATTACKS:
;

//---------------dance-single - ----------------
#NOTEDATA:;
#CHARTNAME:;
#STEPSTYPE:dance-single;
#DESCRIPTION:;
#CHARTSTYLE:;
#DIFFICULTY:Easy;
#METER:6;
#RADARVALUES:0.278109,0.382483,0.125868,0.167825,0.000000,232.000000,217.000000,15.000000,20.000000,0.000000,0.000000,0.000000,0.000000,0.000000,0.278109,0.382483,0.125868,0.167825,0.000000,232.000000,217.000000,15.000000,20.000000,0.000000,0.000000,0.000000,0.000000,0.000000;
#CREDIT:;
#NOTES:
0000
0000
0000
0000
,
0000
0000
0000
0000
,
0000
0000
0000
0000
,
0000
0000
0000
0000
,
1000
0100
0010
0000
,
0001
0001
0001
1001
,
0010
0100
1000
0000
,
0010
0010
0010
0110
,
1000
0100
0010
0000
,
0001
0001
0001
1001
,
0010
0100
1000
0000
,
0010
0010
0010
0110
,
1000
0100
0010
0001
,
1000
0000
0100
0000
0010
0100
0010
0000
,
0001
0010
0100
1000
,
0001
0000
0010
0000
0100
0010
0100
0000
,
1000
0010
0100
0010
,
1000
0000
1000
0000
1000
0001
1000
0000
,
0001
0100
0010
0100
,
0001
0000
0001
0000
0001
1000
0001
0000
,
1000
0100
0010
0100
,
1000
0000
1000
0000
1000
0001
1000
0000
,
0001
0010
0100
0010
,
0001
0000
0001
0000
0001
1000
0001
0000
,
0200
0000
0000
0000
,
0320
0000
0000
0000
,
2030
0000
0000
0000
,
3002
0000
0000
0003
,
0020
0000
0000
0000
,
0032
0000
0000
0000
,
2003
0000
0000
0000
,
3200
0000
2300
0000
,
3002
0000
0000
0000
,
0203
0000
0000
0000
,
0320
0000
0000
0000
,
2030
0000
0000
3000
,
0020
0000
0000
0000
,
0230
0000
0000
0000
,
0302
0000
0000
0000
,
1003
0000
0000
1000
,
1001
0010
0100
1000
,
0001
0000
0001
0000
1000
0010
1000
0000
,
0001
0010
0100
1000
,
0001
0000
0001
0000
0100
0010
0100
0000
,
0001
0010
0100
1000
,
0001
0100
0001
0000
1000
0000
1000
0000
,
0001
0010
0100
1000
,
0110
0000
0000
0110
0000
0110
0000
0000
,
1001
0000
0000
1001
0000
1001
0000
0000
,
0001
0100
0010
0100
,
0001
1000
0001
0000
1000
0001
1000
0000
,
0100
0010
0001
0100
,
0010
0100
0010
0000
0100
0010
0100
0000
,
0001
1000
0100
1000
,
0010
0100
0010
0000
0100
0010
0100
0000
,
0001
1000
0010
0100
,
0001
1000
0001
0000
1000
0001
1000
0000
,
0010
0010
0010
0010
,
1000
0100
0010
1001
,
0100
0100
0100
0100
,
0001
0010
0100
1001
,
1000
1000
1000
1000
,
0001
0100
0010
1001
,
0010
0010
0010
0010
,
1000
0010
0100
1001
,
2000
0000
0000
0000
,
3020
0000
0000
0000
,
0230
0000
0000
0000
,
0302
0000
0000
0000
,
1003
0000
0000
1000
0000
0000
0000
0000
,
0010
0100
0000
0000
0000
0000
0000
0000
;

//---------------dance-single - ----------------
#NOTEDATA:;
#CHARTNAME:;
#STEPSTYPE:dance-single;
#DESCRIPTION:;
#CHARTSTYLE:;
#DIFFICULTY:Medium;
#METER:11;
#RADARVALUES:0.451928,0.588960,0.067130,0.318867,0.184607,377.000000,369.000000,8.000000,38.000000,0.000000,0.000000,0.000000,0.000000,0.000000,0.451928,0.588960,0.067130,0.318867,0.184607,377.000000,369.000000,8.000000,38.000000,0.000000,0.000000,0.000000,0.000000,0.000000;
#CREDIT:;
#NOTES:
// measure 0
0000
0000
0000
0000
,  // measure 1
0000
0000
0000
0000
,  // measure 2
0000
0000
0000
0000
,  // measure 3
0000
0000
0000
0000
,  // measure 4
0000
0000
1000
0000
0000
0100
0000
0000
2000
0000
0000
0000
0000
0000
0000
0000
,  // measure 5
3001
0100
0001
0100
0010
0010
0010
0000
,  // measure 6
0000
0000
0100
0000
0000
0001
0000
0000
0200
0000
0000
0000
0000
0000
0000
0000
,  // measure 7
0301
0010
0100
1000
0001
0001
0001
0000
,  // measure 8
0000
0000
1000
0000
0000
0010
0000
0000
2000
0000
0000
0000
0000
0000
0000
0000
,  // measure 9
3100
0010
0100
0010
0001
0001
0001
0000
,  // measure 10
0000
0000
0100
0000
0000
0001
0000
0000
0200
0000
0000
0000
0000
0000
0000
0000
,  // measure 11
0301
0010
0001
1000
0010
0010
0010
0000
,  // measure 12
1000
0100
0010
0001
1000
0010
0100
0001
,  // measure 13
1000
0010
0001
0010
1000
1000
1000
0000
,  // measure 14
0001
0010
0100
1000
0001
0100
0010
1000
,  // measure 15
0001
0100
1000
0100
0001
0001
0001
0000
,  // measure 16
1000
0000
0001
0000
0000
0100
0000
0000
0001
0000
0010
0000
0100
0000
1000
0000
,  // measure 17
0100
1000
0001
1000
0100
0100
0100
0000
,  // measure 18
1000
0000
0001
0000
0000
0100
0000
0000
0001
0000
0010
0000
0100
0000
1000
0000
,  // measure 19
0100
1000
0001
1000
0100
0100
0100
0000
,  // measure 20
1000
0000
0010
0000
0000
0100
0000
0000
0010
0000
0100
0000
0001
0000
0010
0000
,  // measure 21
0001
0010
0001
1000
0001
0010
0001
0000
,  // measure 22
1000
0000
0010
0000
0000
0100
0000
0000
0010
0000
1000
0000
0001
0000
0010
0000
,  // measure 23
0001
0000
0010
0000
0001
0000
1000
0000
0001
0000
0010
0000
0001
0000
0100
0010
,  // measure 24
0200
0000
0000
0302
0000
0000
0013
0000
,  // measure 25
0200
0000
0000
2300
0000
0000
3010
0000
,  // measure 26
0200
0000
0000
0302
0000
0000
1003
0000
,  // measure 27
0200
0000
0000
0000
0000
0000
0000
0000
0000
0000
0000
0000
0300
0000
0010
0001
,  // measure 28
0020
0000
0000
0032
0000
0000
0103
0000
,  // measure 29
0020
0000
0000
0000
0000
0000
2030
0000
0000
0000
0000
0000
3001
0000
0010
0001
,  // measure 30
0020
0000
0000
0000
,  // measure 31
0230
0000
0000
0000
0000
0000
0000
0000
0320
0000
0000
0000
0000
0000
1030
0001
,  // measure 32
2000
0000
0000
3002
0000
0000
0103
0000
,  // measure 33
0020
0000
0000
2030
0000
0000
3100
0000
,  // measure 34
0020
0000
0000
0032
0000
0000
1003
0000
,  // measure 35
0200
0000
0000
0000
0000
0000
0000
0000
0000
0000
0000
0000
0300
0000
0010
0001
,  // measure 36
0020
0000
0000
0032
0000
0000
0103
0000
,  // measure 37
0020
0000
0000
0000
0000
0000
2030
0000
0000
0000
0000
0000
3100
0000
0010
0100
,  // measure 38
0020
0000
0000
0000
,  // measure 39
0031
0000
0001
0000
0000
1000
0000
1000
0000
0000
0000
0000
0000
0000
0000
0000
,  // measure 40
0001
0000
1000
0000
0000
0100
0000
0000
0010
0000
0001
0000
0010
0000
0100
0000
,  // measure 41
1000
0100
0001
0100
1000
0010
0100
0000
,  // measure 42
0001
0000
1000
0000
0000
0100
0000
0000
0010
0000
0001
0000
1000
0000
0001
0000
,  // measure 43
0100
0010
0100
0010
1000
0100
0010
0000
,  // measure 44
0001
0000
1000
0000
0000
0010
0000
0000
0100
0000
0001
0000
0010
0000
0100
0000
,  // measure 45
1000
0010
0001
0010
1000
0100
0010
0000
,  // measure 46
0001
0000
1000
0000
0000
0010
0000
0000
0100
0000
0001
0000
0010
0000
0100
0000
,  // measure 47
1001
0000
0000
1001
0000
0000
1001
0000
0000
0000
1001
0000
0000
0000
0000
0000
,  // measure 48
0110
0000
0000
0110
0000
0000
0110
0000
0000
0000
0110
0000
0000
0000
0000
0000
,  // measure 49
0001
0000
1000
0000
0000
0100
0000
0000
0010
0000
0100
0000
1000
0000
0100
0000
,  // measure 50
1000
1000
0010
0010
0100
0001
1000
0000
,  // measure 51
0100
0000
1000
0000
0000
0010
0000
0000
0100
0000
0010
0000
1000
0000
0010
0000
,  // measure 52
1000
0100
0001
0100
1000
1000
1000
0000
,  // measure 53
0001
0000
0100
0000
0000
0010
0000
0000
1000
0000
0001
0000
0010
0000
0001
0000
,  // measure 54
0100
0100
0010
0010
1000
0100
0010
0000
,  // measure 55
0100
0000
1000
0000
0000
0010
0000
0000
0100
0000
0001
0000
0010
0000
0001
0000
,  // measure 56
1000
0001
1000
0000
0001
1000
0001
0000
0100
0010
0100
0000
0010
0100
0010
0000
,  // measure 57
1000
0000
0010
0000
0000
0010
0000
0000
0100
0000
0000
0100
0000
0000
0001
0000
,  // measure 58
0000
0000
0010
0000
0000
0010
0000
0000
0100
0000
1000
0000
0001
0000
0000
0000
,  // measure 59
0000
0000
0010
0000
0000
0010
0000
0000
0100
0000
0000
0100
0000
0000
1000
0000
,  // measure 60
0000
0000
0010
0000
0000
0010
0000
0000
0100
0000
0001
0000
0010
0000
0000
0000
,  // measure 61
0000
0000
0100
0000
0000
0100
0000
0000
1000
0000
0000
1000
0000
0000
0010
0000
,  // measure 62
0000
0000
0100
0000
0000
0100
0000
0000
0001
0000
0010
0000
0100
0000
0000
0000
,  // measure 63
0000
1000
0000
1000
0000
1000
0000
1000
,  // measure 64
0000
0000
0001
0000
0000
0000
0001
0000
0000
0000
0001
0000
1000
0001
1000
0001
,  // measure 65
2000
3200
0320
0032
,  // measure 66
1003
0100
0010
0001
0100
0100
0100
0001
,  // measure 67
2000
3020
0230
0302
,  // measure 68
1003
0010
0100
0001
0100
0100
0100
0001
,  // measure 69
1000
0000
0000
0100
0000
0000
0010
0000
0000
0001
0000
0000
0000
0000
0000
0000
,  // measure 70
0100
0000
0100
0010
0000
0000
0000
0000
0000
0000
0000
0000
0000
0000
0000
0000
;

//---------------dance-single - ----------------
#NOTEDATA:;
#CHARTNAME:;
#STEPSTYPE:dance-single;
#DESCRIPTION:;
#CHARTSTYLE:;
#DIFFICULTY:Hard;
#METER:16;
#RADARVALUES:0.865496,0.912888,0.545430,0.008391,1.065687,722.000000,657.000000,65.000000,1.000000,0.000000,0.000000,0.000000,0.000000,0.000000,0.865496,0.912888,0.545430,0.008391,1.065687,722.000000,657.000000,65.000000,1.000000,0.000000,0.000000,0.000000,0.000000,0.000000;
#CREDIT:;
#NOTES:
// measure 0
0000
0000
0000
0000
,  // measure 1
0000
0000
0000
0000
,  // measure 2
0000
0000
0000
0000
,  // measure 3
0000
0000
0000
0000
,  // measure 4
1000
0000
0001
0100
0000
0001
0100
0000
0010
0000
1000
0000
0100
0000
0010
0000
,  // measure 5
0001
0000
0001
0000
1000
0010
0000
0100
0001
0000
0001
0000
0001
1000
0000
0000
,  // measure 6
0001
0000
1000
0010
0000
1000
0010
0000
0100
0000
0001
0000
0010
0000
0100
0000
,  // measure 7
0000
1000
0010
0000
0100
0001
0000
0001
1000
0000
1000
0000
1000
0001
0000
0000
,  // measure 8
0010
0000
0100
1000
0000
0100
1000
0000
0001
0100
0000
0001
0100
0000
0010
0000
,  // measure 9
1000
0000
1000
0000
0001
0100
0000
0010
1000
0000
1000
0000
1000
0001
0000
0000
,  // measure 10
0100
0000
0010
1000
0000
0010
1000
0000
0001
0010
0000
0001
0010
0000
0100
0000
,  // measure 11
1000
0000
0001
0100
0000
0100
0000
0010
1000
0000
1000
0000
1000
0001
0000
0000
,  // measure 12
0010
0100
1000
0000
0001
0010
0100
0000
1000
0010
0100
0000
0010
0100
0001
0000
,  // measure 13
1000
0100
0010
0100
1000
0100
0010
0100
1000
0000
1000
0000
1000
0001
0000
0000
,  // measure 14
0010
0100
1000
0000
0001
0010
0100
0000
0010
0001
0100
0000
0010
1000
0100
0000
,  // measure 15
1000
0010
0100
0010
1000
0010
0100
0010
1000
0000
1000
0000
1000
0001
0000
0000
,  // measure 16
0100
0000
0101
0000
0000
1010
0000
0000
1001
0000
1000
0000
0100
0000
0010
0000
,  // measure 17
0001
1000
0010
1000
0001
1000
0010
1000
0001
0000
0001
0000
0001
1000
0000
0000
,  // measure 18
0010
0000
0110
0000
0000
0101
0000
0000
1001
0000
0001
0000
0010
0000
0100
0000
,  // measure 19
1000
0001
0100
0001
1000
0001
0100
0001
1000
0000
1000
0000
1000
0001
0000
0000
,  // measure 20
0100
0000
0110
0000
0000
1010
0000
0000
0101
0000
1000
0000
0010
0000
0100
0000
,  // measure 21
0001
0010
0100
0010
0001
0010
0100
0010
0001
0000
0001
0000
0001
1000
0000
0000
,  // measure 22
0010
0000
0110
0000
0000
0011
0000
0000
1100
0000
0001
0000
0100
0000
0010
0000
,  // measure 23
1000
0010
0100
0010
1000
0010
0100
0010
1000
0000
1000
0000
1000
0001
0010
0100
,  // measure 24
1000
0000
1010
0000
0000
0110
0000
0000
1010
0000
0000
0110
0000
0000
1010
0000
,  // measure 25
0000
0000
0011
0000
0000
0110
0000
0000
0011
0000
0000
0110
0000
0000
0011
0000
,  // measure 26
0000
0000
1001
0000
0000
1010
0000
0000
1001
0000
0000
1010
0000
0000
1001
0000
,  // measure 27
0000
0000
0101
0000
0000
0110
0000
0000
0101
0000
0000
0110
0000
0000
0101
0000
,  // measure 28
0000
0000
1001
0000
0000
1100
0000
0000
1001
0000
0000
1100
0000
0000
1001
0000
,  // measure 29
0000
0000
0011
0000
0000
0110
0000
0000
0011
0000
0000
0110
0000
0000
0011
0000
,  // measure 30
0000
0000
1001
0000
0000
0101
0000
0000
1001
0000
0000
0101
0000
0000
1001
0000
,  // measure 31
0000
0000
1100
0000
0000
0110
0000
0000
1100
0000
0000
0110
0000
0000
1100
0000
,  // measure 32
0001
0000
1000
0010
0000
1000
0010
0000
0100
0001
0000
0100
0001
0000
1000
0000
,  // measure 33
0100
0000
0010
0001
0000
0010
0001
0000
0010
0100
0000
0010
0100
0000
1000
0000
,  // measure 34
0001
0000
0100
0001
0000
0100
0001
0000
0010
0100
0000
0010
0100
0000
1000
0000
,  // measure 35
0001
0000
1000
0010
0000
1000
0010
0000
1000
0001
0000
1000
0001
0000
0010
0100
,  // measure 36
1000
0000
0001
0100
0000
0001
1000
0000
0001
0100
0000
0001
1000
0000
0100
0000
,  // measure 37
0010
0000
0001
1000
0000
0100
1000
0000
0001
1000
0000
0100
1000
0000
0010
0100
,  // measure 38
0001
1000
0000
1000
0000
1000
0000
1000
,  // measure 39
0010
0100
0020
0000
0000
0100
0000
0130
0000
0000
0001
0000
0001
1000
0001
1000
,  // measure 40
0001
0000
0010
0001
0100
0010
1000
0100
0010
0000
0001
0000
0100
0000
0010
0000
,  // measure 41
1000
0100
0001
0100
1000
0010
0001
0010
1000
0000
1000
0000
1000
0010
0000
0000
,  // measure 42
0100
0001
0010
0100
1000
0010
1000
0100
0010
0000
0001
0000
0010
0000
0100
0000
,  // measure 43
1000
0010
0001
0010
1000
0100
0001
0100
1000
0000
1000
0000
1000
0001
0000
0000
,  // measure 44
0010
0001
0100
0010
1000
0100
1000
0010
0100
0000
0001
0000
0100
0000
0010
0000
,  // measure 45
1000
0100
0001
0100
1000
0010
0001
0010
1000
0000
1000
0000
1000
0010
0000
0000
,  // measure 46
0100
0001
0010
0100
1000
0010
1000
0100
0010
0000
0100
0000
1000
0000
0001
0000
,  // measure 47
0101
0000
0000
0101
0000
0000
0101
0000
0000
0000
1001
0000
0000
0000
0000
0000
,  // measure 48
1100
0000
0000
1100
0000
0000
1100
0000
0000
0000
1001
0000
0000
0000
0000
0000
,  // measure 49
1001
0000
1000
0010
0001
0010
1000
0100
0010
0000
0001
0000
0100
0000
0010
0000
,  // measure 50
1000
0001
0010
0001
1000
0010
1000
0001
0010
0100
1000
0001
1000
0100
0001
0100
,  // measure 51
1000
0000
0001
0010
1000
0010
0001
0010
0100
0000
1000
0000
0010
0000
0100
0000
,  // measure 52
0001
0100
0000
0100
1000
0000
0010
0100
0001
0010
0100
1000
0001
0100
0000
0000
,  // measure 53
1001
0000
0001
0010
1000
0010
0001
0010
0100
0000
1000
0000
0010
0000
0100
0000
,  // measure 54
0001
0100
0010
0100
0001
1000
0100
1000
0001
0010
0100
1000
0001
0100
1000
0100
,  // measure 55
0001
0000
1000
0010
0001
0010
1000
0100
0010
0000
0100
0000
1000
0000
0001
0000
,  // measure 56
1000
0010
0100
0010
1000
0001
0010
0001
1000
0100
0001
0100
1000
0100
0010
0001
,  // measure 57
1000
0000
0001
0100
0000
0100
1000
0000
1000
0010
0000
0010
0001
0000
1001
0000
,  // measure 58
0000
0000
1000
0100
0000
0100
0001
0000
0010
0100
1000
0010
1000
0001
0000
0000
,  // measure 59
1000
0000
0001
0010
0000
0010
1000
0000
1000
0100
0000
0100
0001
0000
1001
0000
,  // measure 60
0000
0000
1000
0010
0000
0010
0001
0000
0100
0010
1000
0100
1000
0001
0000
0000
,  // measure 61
1000
0000
0001
0100
0000
0100
1000
0000
1000
0010
0000
0010
0001
0000
1001
0000
,  // measure 62
0000
0000
1000
0100
0000
0100
0001
0000
0010
0100
1000
0010
1000
0001
0000
0000
,  // measure 63
0000
0000
1000
0000
0000
1000
0000
0000
0010
0000
0000
0010
0000
0000
0100
0000
,  // measure 64
0000
0000
0001
0000
0000
0001
0000
0000
1000
0000
1000
0000
0010
0100
0010
0100
,  // measure 65
0001
0010
0100
1000
0001
0010
0100
1000
0001
0100
0010
1000
0001
0100
0010
1000
,  // measure 66
0001
0100
1000
0100
0001
0010
1000
0010
0001
0000
0001
0000
0001
1000
0010
0000
,  // measure 67
1000
0100
0010
0001
1000
0100
0010
0001
1000
0010
0100
0001
1000
0010
0100
0001
,  // measure 68
1000
0010
0001
0010
1000
0100
0001
0100
1000
0000
1000
0000
1000
0010
0100
0000
,  // measure 69
0001
0010
0100
1000
0001
0100
0010
0100
0001
0010
0000
0000
0000
0000
0000
0000
,  // measure 70
0100
0000
0100
0100
0000
0000
0000
0000
0000
0000
0000
0000
0000
0000
0000
0000
;

//---------------dance-single - ----------------
#NOTEDATA:;
#CHARTNAME:;
#STEPSTYPE:dance-single;
#DESCRIPTION:;
#CHARTSTYLE:;
#DIFFICULTY:Beginner;
#METER:3;
#RADARVALUES:0.124670,0.176216,0.067130,0.000000,0.000000,104.000000,96.000000,8.000000,0.000000,0.000000,0.000000,0.000000,0.000000,0.000000,0.124670,0.176216,0.067130,0.000000,0.000000,104.000000,96.000000,8.000000,0.000000,0.000000,0.000000,0.000000,0.000000,0.000000;
#CREDIT:;
#NOTES:
0000
0000
0000
0000
,
0000
0000
0000
0000
,
0000
0000
0000
0000
,
0000
0000
0000
0000
,
1000
0000
0000
0000
,
0100
0000
0100
0000
,
1000
0000
0000
0000
,
0010
0000
0010
0000
,
1000
0000
0000
0000
,
0001
0000
0001
0000
,
1000
0000
0000
0000
,
0100
0000
0010
0000
,
0001
0000
0100
0000
,
0010
0000
0010
0000
,
1000
0000
0010
0000
,
0100
0000
0100
0000
,
0001
0000
0010
0000
,
0100
0000
0100
0000
,
1000
0000
0100
0000
,
0010
0000
0010
0000
,
0001
0000
1000
0000
,
0100
0000
0100
0000
,
1000
0000
0001
0000
,
0010
0000
0010
0000
,
0001
0000
0000
0000
,
0100
0000
0000
0000
,
0010
0000
0000
0000
,
1000
0000
0000
0000
,
0001
0000
0000
0000
,
0010
0000
0000
0000
,
0100
0000
0000
0000
,
1000
0000
0000
0000
,
0001
0000
0000
0000
,
0100
0000
0000
0000
,
0010
0000
0000
0000
,
0100
0000
0000
0000
,
0001
0000
0000
0000
,
1000
0000
0000
0000
,
0100
0000
0000
0000
,
1000
0000
0000
0000
,
1001
0000
0001
0000
,
0100
0000
0001
0000
,
1000
0000
0100
0000
,
1000
0000
0100
0000
,
0010
0000
0001
0000
,
0010
0000
0001
0000
,
0100
0000
0010
0000
,
0110
0000
0000
0000
,
0110
0000
0000
0000
,
1001
0000
1000
0000
,
0100
0000
1000
0000
,
0001
0000
0100
0000
,
0001
0000
0100
0000
,
0010
0000
1000
0000
,
0010
0000
1000
0000
,
0100
0000
0010
0000
,
0100
0000
0100
0000
,
0110
0000
0000
0000
,
0010
0000
0000
0000
,
1001
0000
0000
0000
,
1000
0000
0000
0000
,
0110
0000
0000
0000
,
0100
0000
0000
0000
,
1001
0000
0000
0000
,
0001
0000
0000
0000
,
1000
0000
0000
0000
,
0000
0000
0000
0000
,
1000
0000
0000
0000
,
0000
0000
0000
0000
,
0001
0000
0000
0000
,
0100
0000
0000
0000
;
