#VERSION:0.83;
#TITLE:Glorious Crown;
#SUBTITLE:;
#ARTIST:xi;
#TITLETRANSLIT:;
#SUBTITLETRANSLIT:;
#ARTISTTRANSLIT:;
#GENRE:;
#ORIGIN:;
#CREDIT:DigiMindAxel;
#BANNER:Glorious Crown.png;
#BACKGROUND:Glorious Crown-bg.png;
#PREVIEWVID:;
#JACKET:Glorious Crown-jacket.png;
#CDIMAGE:;
#DISCIMAGE:;
#LYRICSPATH:;
#CDTITLE:maimai.png;
#MUSIC:Glorious Crown.ogg;
#OFFSET:-1.032000;
#SAMPLESTART:46.247002;
#SAMPLELENGTH:12.000000;
#SELECTABLE:YES;
#BPMS:0.000=225.500;
#STOPS:;
#DELAYS:;
#WARPS:;
#TIMESIGNATURES:0.000=4=4;
#TICKCOUNTS:0.000=4;
#COMBOS:0.000=1;
#SPEEDS:0.000=1.000=0.000=0;
#SCROLLS:0.000=1.000;
#FAKES:;
#LABELS:0.000=Song Start;
#BGCHANGES:0.000=Glorious Crown.mp4=1.000=1=0=0=StretchNoLoop==CrossFade==,
99999=-nosongbg-=1.000=0=0=0 // don't automatically add -songbackground-
;
#KEYSOUNDS:;
#ATTACKS:
;

//---------------dance-single - ----------------
#NOTEDATA:;
#CHARTNAME:;
#STEPSTYPE:dance-single;
#DESCRIPTION:;
#CHARTSTYLE:;
#DIFFICULTY:Easy;
#METER:12;
#RADARVALUES:0.420223,0.763406,0.329587,0.197752,0.000000,357.000000,317.000000,40.000000,24.000000,0.000000,0.000000,0.000000,0.000000,0.000000,0.420223,0.763406,0.329587,0.197752,0.000000,357.000000,317.000000,40.000000,24.000000,0.000000,0.000000,0.000000,0.000000,0.000000;
#CREDIT:;
#NOTES:
0000
0000
0000
0000
,
0000
0000
0000
0000
,
0000
0000
0000
0000
,
0000
0000
0000
0000
,
0001
1000
0001
1000
,
0010
1000
0010
1000
,
0100
0010
0100
0010
,
0001
0100
0010
1000
,
0002
0000
0000
0000
,
0000
0000
0000
0000
,
2003
0000
0000
0000
,
3200
0000
0000
0000
,
2300
0000
0000
0000
,
3020
0000
0000
0000
,
0230
0000
0000
0000
,
0302
0000
0000
0000
,
2003
0000
0000
0000
,
3002
0000
0000
0000
,
0013
0000
0010
0000
,
0001
0000
0001
0000
,
0110
0000
0110
0000
,
1001
0000
1001
0000
,
1000
0001
1000
0000
,
0100
1000
0100
0000
,
0010
0001
0010
0000
,
0001
1000
0001
0000
,
2002
0000
0000
0000
0000
3003
0000
0000
,
0001
0010
0100
0010
,
0001
0001
1000
1000
,
0001
0100
0010
0100
,
0001
0001
1000
1000
,
0100
0010
0001
0010
,
0100
0100
0010
0010
,
0001
0100
0010
1000
,
0010
0010
0100
0100
,
0001
0010
0100
1000
,
0001
0010
0100
1000
,
0001
0100
0010
0100
,
0001
0100
0010
0100
,
0001
0010
0100
1000
,
0001
0010
0100
1000
,
1001
0001
0110
0010
,
0220
0000
0330
0000
,
1000
0010
0100
0010
,
1000
1000
0001
0001
,
0010
0010
0001
0010
,
0100
0100
1000
1000
,
0010
0100
0001
0010
,
0100
1000
0100
0010
,
0001
0001
1000
1000
,
0010
0100
0001
0000
,
1000
0100
1000
0001
,
0010
0010
0001
0001
,
0100
0010
0100
0001
,
1000
1000
0100
0100
,
1000
0100
0010
0100
,
1000
1000
0001
0001
,
0100
0010
0100
0001
,
1001
1000
0110
0100
,
0110
0010
1001
0001
,
2001
0000
0000
0000
,
3020
0000
0000
0000
,
0230
0000
0000
0000
,
0302
0000
0000
0000
,
1003
1001
1000
1001
,
0001
1001
0001
1001
,
0010
0110
0100
0110
,
1000
0100
0010
0001
,
1000
1000
0010
0010
,
0100
0100
0001
0001
,
1000
1000
0100
0100
,
0010
0010
0001
0001
,
1001
1001
1001
1001
,
0110
0110
0110
0110
,
0001
0100
1000
0100
,
0001
0010
0100
1000
,
0220
0000
0000
0000
,
0000
0000
0000
0000
,
0000
0000
0000
0000
,
0000
0000
0000
0330
,
0020
0000
0000
0000
,
0000
0000
0000
0000
,
0230
0000
0000
0000
,
0000
0000
0000
0000
,
0302
0000
0000
0000
,
2003
0000
0000
0000
,
3001
0010
0001
0000
,
1000
0100
1000
0000
,
0001
1000
0001
0000
,
1000
0001
1000
0000
,
0100
1000
0100
1000
,
0010
0100
0001
1000
,
0110
0100
0110
0010
,
1001
0100
0010
0100
,
1001
0001
1000
1000
,
0100
0010
0001
0010
,
0100
0100
0010
0010
,
0001
0100
0010
0100
,
1001
0010
0100
1000
,
1001
0010
0110
1000
,
1001
0100
0010
1000
,
0110
0100
0001
1000
,
0110
0010
0001
0010
,
0110
1000
0100
0010
,
0110
1000
0010
0100
,
0002
0000
0000
0000
,
0000
0000
0000
0000
,
1003
0100
0001
0100
,
1000
0001
1000
0001
0100
0010
0100
0010
,
0100
0000
0000
0000
;

//---------------dance-single - ----------------
#NOTEDATA:;
#CHARTNAME:;
#STEPSTYPE:dance-single;
#DESCRIPTION:;
#CHARTSTYLE:;
#DIFFICULTY:Medium;
#METER:14;
#RADARVALUES:0.666237,0.808312,0.889885,0.255430,0.041198,566.000000,458.000000,108.000000,31.000000,0.000000,0.000000,0.000000,0.000000,0.000000,0.666237,0.808312,0.889885,0.255430,0.041198,566.000000,458.000000,108.000000,31.000000,0.000000,0.000000,0.000000,0.000000,0.000000;
#CREDIT:;
#NOTES:
0000
0000
0000
0000
,
0000
0000
0000
0000
,
0000
0000
0000
0000
,
0000
0000
0000
0000
,
0001
0100
0001
0100
0001
1000
0100
0000
,
1000
0100
1000
0100
1000
0010
0100
0000
,
0001
1000
0001
1000
0100
1000
0100
1000
,
0001
0100
1000
0100
0001
0010
0100
1000
,
0020
0000
0000
0000
,
0000
0000
0000
0000
,
0230
0000
0000
0000
,
0302
0000
0000
0000
,
0203
0000
0000
0000
,
0302
0000
2003
0000
,
3002
0000
0000
0000
,
0023
0000
0032
0000
,
0203
0000
0000
0000
,
0320
0000
2030
0000
,
3001
1000
0001
1000
,
0010
1000
0010
1000
,
1001
0010
0011
0100
,
1100
1000
1001
1001
,
0110
0001
0010
0100
,
1001
0001
0011
0100
,
1100
0010
0011
1001
,
0110
0100
0010
1000
,
0001
1000
0000
1000
0000
1010
0000
0000
,
0010
0100
0001
0100
0001
0100
0010
0000
,
1010
1010
0101
0101
,
0001
1000
0100
1000
0100
1000
0001
0000
,
0101
0110
1010
0110
,
0010
1000
0100
0010
0001
1000
0001
0000
,
0100
0001
0010
0100
1000
0001
1000
0000
,
0010
1000
0100
1000
0100
1000
0010
0000
,
1001
1001
0110
0110
,
1100
1100
0011
0011
,
1001
0110
1001
0110
,
0010
1000
0010
0100
0001
0010
0001
0000
,
0010
0100
1000
0010
0100
0001
0010
0000
,
1001
1001
1010
1010
,
0010
0000
0100
0000
0010
0000
0100
0000
0001
0000
0000
1000
0000
0000
0001
0000
,
1001
0010
0110
0100
,
1001
0000
0000
1001
0000
0000
2002
0000
0000
0000
0000
0000
3003
0000
0000
0000
,
1001
0000
0001
0000
1000
0100
1000
0010
,
0100
0001
0100
0001
0010
0100
1000
0000
,
0001
0000
0001
0000
1000
0010
1000
0100
,
0010
0001
0010
0001
1000
0010
0100
0000
,
1001
0000
0001
0100
1000
0100
0001
0000
,
1000
0000
0000
1000
0000
0000
1000
0000
0001
0000
0000
0001
0000
0000
0001
0000
,
0100
0010
0100
0000
0001
0010
0100
0000
,
1001
0110
1001
0000
,
1001
0000
0001
0000
1000
0100
1000
0010
,
0100
0001
0010
0001
0100
0010
1000
0000
,
0001
0000
0001
0000
0100
0001
0010
0001
,
0100
0101
1001
1010
,
1001
0000
1000
0010
0100
0001
1000
0000
,
0001
0000
0000
0001
0000
0000
0001
0000
1000
0000
0000
1000
0000
0000
1000
0000
,
1001
1001
0011
0011
,
1100
1001
1100
1001
,
0110
1001
0110
1001
,
0002
0000
0000
0000
,
2003
0000
0000
0000
,
3002
0000
0000
0000
,
0023
0000
0000
0000
,
0130
1100
0100
1100
,
0010
0011
0010
0011
,
0100
0110
0110
0110
,
2000
3020
0230
0302
,
1003
1100
1001
1100
,
0010
0011
1001
0011
,
0100
1100
1001
1100
,
0010
0011
1001
0011
,
1001
1001
0110
0110
,
1010
1010
0101
0101
,
0001
1000
0001
1000
0010
0100
0010
0100
,
0001
0010
0001
0010
0100
1000
0001
0100
,
0002
0000
0000
0000
,
0000
0000
0000
0000
,
0000
0000
0000
0000
,
0000
0000
0000
0000
,
2003
0000
0000
3002
,
0000
0000
0000
0000
,
2003
0000
0000
0000
,
3200
0000
0320
0000
,
0032
0000
1003
0000
,
0020
0000
0130
0001
,
1001
1000
1000
1000
,
0001
0001
0001
0001
,
0010
0010
0100
0100
,
1000
1000
0110
0000
,
1001
0000
1000
0010
0100
0010
0100
0001
,
1000
0000
0000
1000
0000
0000
1000
0000
0001
0000
0000
0001
0000
0000
0001
0000
,
0011
0100
1010
0100
,
1001
0110
1001
0110
,
1001
0000
0001
1000
0100
0000
0010
0100
,
0010
0001
0010
0001
0100
0010
1000
0000
,
1001
0000
0001
1000
0100
0000
0010
0100
,
1000
0001
0100
0001
0100
0001
1000
0000
,
1100
0000
0010
0001
1000
0001
0010
0001
,
1000
0000
0000
1000
0000
0000
1000
0000
0001
0000
0000
0001
0000
0000
0001
0000
,
1001
1010
1001
0101
,
1001
0000
1000
0100
0010
0001
0100
0001
,
1000
0100
0001
0100
1000
0001
0010
0100
,
1000
0010
0001
0010
1000
0100
0010
0001
,
0100
1000
0001
0010
1000
0001
0100
0001
,
2000
0000
0000
0000
,
0000
0000
0000
0000
,
3001
0100
1000
0100
0001
0010
0100
1000
,
0010
0010
0010
0010
0100
0100
0100
0100
,
0001
0000
0000
0000
;

//---------------dance-single - ----------------
#NOTEDATA:;
#CHARTNAME:;
#STEPSTYPE:dance-single;
#DESCRIPTION:;
#CHARTSTYLE:;
#DIFFICULTY:Hard;
#METER:18;
#RADARVALUES:0.954625,1.302281,0.164794,0.387265,0.716852,811.000000,791.000000,20.000000,47.000000,0.000000,0.000000,0.000000,0.000000,0.000000,0.954625,1.302281,0.164794,0.387265,0.716852,811.000000,791.000000,20.000000,47.000000,0.000000,0.000000,0.000000,0.000000,0.000000;
#CREDIT:;
#NOTES:
// measure 0
0000
0000
0000
0000
,  // measure 1
0000
0000
0000
0000
,  // measure 2
0000
0000
0000
0000
,  // measure 3
0000
0000
0000
0000
,  // measure 4
1000
0010
0100
0001
1000
0100
0010
0010
,  // measure 5
0100
1000
0010
0100
0001
0010
0100
0100
,  // measure 6
1000
0001
1000
0000
0100
0000
0010
0000
0001
1000
0001
0000
1000
0000
0100
0000
,  // measure 7
1000
0010
0100
0000
0010
0100
0001
0000
1000
0100
0010
0000
0001
0010
0100
0000
,  // measure 8
2000
0000
0000
0000
,  // measure 9
0000
0000
0000
0000
3001
0010
0100
1000
,  // measure 10
0002
0000
0000
0000
0000
0000
0103
0010
,  // measure 11
1000
1000
0100
0100
,  // measure 12
0020
0000
0000
0000
0000
0031
0100
0010
,  // measure 13
0100
0100
0001
0001
,  // measure 14
2000
3200
0320
0032
,  // measure 15
1003
1000
0010
0010
,  // measure 16
0200
0302
0023
0230
,  // measure 17
1300
1000
0010
0010
,  // measure 18
0100
0001
0100
0001
0100
0001
1000
1000
,  // measure 19
0100
0010
0100
0010
0100
0010
0001
1000
,  // measure 20
1000
0001
0100
0001
0001
0010
0100
1000
,  // measure 21
1000
0100
0010
0001
1000
0100
1000
0010
,  // measure 22
0100
0001
0010
0001
0100
0001
0010
0001
,  // measure 23
1000
0100
0001
0100
1000
0010
0001
0010
,  // measure 24
1000
0100
0001
0100
1000
0010
0001
0010
,  // measure 25
1000
0100
0010
0001
1000
0100
1000
0001
,  // measure 26
0010
0100
0010
0100
1000
2002
0000
3003
,  // measure 27
0001
0100
1000
0001
0010
1000
0001
0000
,  // measure 28
1000
0000
0010
0100
0010
0000
1000
0001
1000
0000
0100
0000
0010
0000
0000
0000
,  // measure 29
0001
1000
0001
0010
1000
0010
0001
0000
,  // measure 30
1000
0000
0000
0000
0000
0000
0010
0000
0000
0100
0000
0000
0010
0000
0000
0000
0000
0000
1000
0000
0000
0001
0000
0000
1000
0000
0000
0000
0000
0000
0000
0000
0100
0000
0000
0000
0000
0000
0000
0000
0010
0000
0000
0000
0000
0000
0000
0000
,  // measure 31
0001
0100
0001
0010
1000
0010
0011
0000
,  // measure 32
0010
0000
0100
0000
1000
0000
0100
0010
0001
0000
0001
0000
1000
0000
1000
0000
,  // measure 33
0001
0100
1000
0001
0010
1000
0001
0000
,  // measure 34
0010
0000
0010
0000
0100
0000
0100
0000
1000
0000
0001
0100
0001
0000
0000
0000
,  // measure 35
1002
0203
2300
3200
,  // measure 36
0302
2003
3200
0320
,  // measure 37
0031
0100
1000
0100
0010
1000
0001
0010
,  // measure 38
0001
0100
1000
0100
0010
1000
0001
0000
,  // measure 39
0100
0000
0010
0100
0010
0000
1000
0000
0100
0000
0001
0000
0100
0000
1000
0000
,  // measure 40
0100
0000
0000
0000
0000
0000
0010
0000
0000
0100
0000
0000
0010
0000
0000
0000
0000
0000
0001
0000
0000
0000
0000
0000
0100
0000
0000
0000
0000
0000
0000
0000
0010
0000
0000
0000
0000
0000
0000
0000
1000
0000
0000
0000
0000
0000
0000
0000
,  // measure 41
0001
0000
1000
0000
0010
0000
1000
0000
0100
0010
0100
0010
0001
1000
0001
1000
,  // measure 42
0010
0000
0000
0010
0000
0000
0010
0000
1000
0000
0100
0000
0010
0000
0001
0000
,  // measure 43
1000
0001
1000
0000
0100
0000
1000
0000
0100
0000
1000
0000
0010
0000
0100
0000
,  // measure 44
0001
0000
0010
0001
0010
0000
0100
0010
0100
0000
1000
0100
1000
0000
0010
0000
,  // measure 45
0100
0010
0100
0000
0001
0000
0100
0000
0010
0000
1000
0000
0100
0000
0010
0000
,  // measure 46
0001
0000
0000
1000
0000
0000
0001
0000
0000
0000
0000
0000
0100
0000
0000
0000
0010
0000
0000
0000
0100
0000
0000
0000
0001
0000
0000
0000
0000
0000
0010
0000
0000
0000
0000
0000
0100
0000
0000
0000
0000
0000
1000
0000
0000
0000
0000
0000
,  // measure 47
0001
0000
0100
0000
0010
0100
0010
0000
0100
0001
0100
0000
0010
0100
0010
0000
,  // measure 48
1000
0000
0000
1000
0000
0000
1000
0000
0001
0000
0000
0001
0000
0000
0001
0000
,  // measure 49
1000
0000
0100
0010
0001
0000
1000
0000
0001
0010
0100
0000
1000
0000
0010
0000
,  // measure 50
0110
0000
0000
0000
1001
0000
0000
0000
1100
0000
0000
0100
0000
0000
0100
0000
,  // measure 51
1000
0001
1000
0000
0010
0000
1000
0000
0010
0000
1000
0000
0100
0000
0010
0000
,  // measure 52
0001
0000
0100
0001
0100
0000
0010
0100
0010
0000
1000
0010
1000
0000
0001
0000
,  // measure 53
0100
0010
0100
0000
0001
0000
0100
0000
0001
0000
0010
0000
0100
0000
1000
0000
,  // measure 54
0001
0000
0000
1000
0000
0000
0001
0000
0000
0000
0000
0000
0100
0000
0000
0000
0001
0000
0000
0000
0010
0000
0000
0000
0100
0000
0000
0000
0000
0000
1000
0000
0000
0000
0000
0000
0010
0000
0000
0000
0000
0000
0100
0000
0000
0000
0000
0000
,  // measure 55
0010
0000
1000
0001
1000
0000
0001
0010
0001
0000
0100
0000
0010
0000
1000
0000
,  // measure 56
0001
0000
0000
0001
0000
0000
0001
0000
1000
0000
0000
1000
0000
0000
1000
0000
,  // measure 57
0010
0100
0010
1000
0100
0001
0100
1000
,  // measure 58
0100
0010
0100
0000
1000
0000
0001
0100
0001
0000
1000
0000
0100
0000
0010
0000
,  // measure 59
0001
1000
0001
1000
0001
1000
0001
1000
0100
0010
0100
0010
0100
0010
0100
0010
,  // measure 60
0001
0000
0001
1000
0000
0001
1000
0100
0010
0001
0000
0001
,  // measure 61
1000
0000
1000
0010
0000
0010
1000
0010
0100
0001
0000
0000
,  // measure 62
1001
0000
0001
0010
0000
0010
0001
0010
0100
1000
0000
1000
,  // measure 63
0001
0000
0001
0100
0000
0100
0001
0100
0010
1000
0000
0000
,  // measure 64
1001
0000
1000
0100
0000
0100
0001
0000
0001
0100
0000
0100
,  // measure 65
1000
0000
1000
0010
0000
0010
0100
0010
0100
0010
0000
1000
,  // measure 66
0001
0000
0001
0010
0000
0010
0100
0010
0100
0010
0000
0001
,  // measure 67
0200
0320
2030
3002
,  // measure 68
1003
0000
0001
0100
0000
0010
0100
0000
0001
0100
0000
0010
,  // measure 69
0100
0001
0010
0100
0000
1000
0100
0000
0010
0100
0000
1000
,  // measure 70
0010
0000
0100
0010
0000
1000
0010
0000
0100
0010
0000
1000
,  // measure 71
0010
1000
0100
0010
0000
0001
0010
0000
0100
0010
0000
0001
,  // measure 72
0100
0000
0010
0100
0000
0001
0100
0000
0010
0100
0000
0001
,  // measure 73
1000
0000
0100
1000
0000
0001
1000
0000
0100
1000
0000
0000
,  // measure 74
0100
0010
0100
0010
0100
0000
1000
0000
0001
1000
0001
1000
0001
0000
0010
0000
,  // measure 75
0100
1000
0100
1000
0100
0000
0010
0000
0001
0100
0001
0100
0001
0000
0010
0000
,  // measure 76
0002
0000
0203
0000
,  // measure 77
2300
0000
3200
0000
,  // measure 78
0302
0000
0023
0000
,  // measure 79
0230
0000
0320
0000
,  // measure 80
0032
0000
0203
0000
,  // measure 81
2300
0000
3020
0000
,  // measure 82
0032
0000
0023
0000
,  // measure 83
0230
0000
0320
0000
,  // measure 84
0032
0000
0203
0000
,  // measure 85
0320
0000
0000
0000
1030
0100
0010
0001
,  // measure 86
1000
0010
1000
0010
0100
0010
0100
0010
,  // measure 87
0100
0001
0100
0001
0010
0100
0010
0100
,  // measure 88
1000
0001
1000
0001
0010
0100
0010
0100
,  // measure 89
1000
0010
0100
0001
1000
2002
0000
3003
,  // measure 90
1000
0000
0100
0000
0001
0000
0100
0000
1000
0000
0001
0000
0010
0100
1000
0000
,  // measure 91
0001
1000
0001
0000
0010
0000
0100
0000
1000
0010
1000
0000
0001
0000
0100
0000
,  // measure 92
1001
1000
0010
0000
0101
0001
1000
0100
,  // measure 93
0011
0000
0000
0000
1001
0000
0000
0000
1100
0000
0000
0100
0000
0000
0100
0000
,  // measure 94
1000
0001
1000
0000
0010
0000
1000
0000
0010
0000
1000
0000
0100
0000
0010
0000
,  // measure 95
0001
0000
0010
0001
0010
0000
0100
0010
0100
0000
1000
0100
1000
0000
0001
0000
,  // measure 96
0100
0010
0100
0000
0001
0000
0010
0000
0100
0000
0010
0000
0001
0000
1000
0000
,  // measure 97
0001
0000
0000
1000
0000
0000
0001
0000
0000
0000
0000
0000
0100
0000
0000
0000
0010
0000
0000
0000
1000
0000
0000
0000
0100
0000
0000
0000
0000
0000
0010
0000
0000
0100
0000
0000
0010
0000
0000
0000
0000
0000
0001
0000
0000
0000
0000
0000
,  // measure 98
1001
0000
0000
0000
1000
0100
0010
0000
0001
0100
0001
0000
1000
0000
1000
0000
,  // measure 99
1001
0000
0000
0100
0000
0000
0100
0000
1001
0000
0000
0010
0000
0000
0010
0000
,  // measure 100
1001
0000
0010
0000
0100
0000
1000
0000
0001
1000
0100
0000
0010
0100
0010
0000
,  // measure 101
1001
0000
0010
0000
0100
1000
0100
0000
1000
0001
1000
0000
0001
0100
0001
0000
,  // measure 102
1000
0100
0010
0001
1000
0000
1000
0000
0001
0010
0100
1000
0001
0000
0001
0000
,  // measure 103
0100
0001
0100
0000
0001
1000
0001
0000
1000
0010
1000
0000
0100
0000
0010
0000
,  // measure 104
0001
0010
0100
1000
0100
0010
0001
1000
0001
0100
0010
1000
0010
0100
0001
1000
,  // measure 105
0002
0000
0000
0000
,  // measure 106
0000
0000
0000
0000
,  // measure 107
1003
0100
0010
0001
0010
0100
0010
0001
0100
0010
1000
0100
0010
0001
1000
0010
,  // measure 108
0100
0000
0100
0000
0100
0000
0100
0000
0110
0000
1000
0010
0100
0001
0010
0100
,  // measure 109
0010
0000
0000
0000
;

//---------------dance-single - ----------------
#NOTEDATA:;
#CHARTNAME:;
#STEPSTYPE:dance-single;
#DESCRIPTION:;
#CHARTSTYLE:;
#DIFFICULTY:Challenge;
#METER:20;
#RADARVALUES:1.300692,1.481906,0.411984,0.115355,1.631456,1105.000000,1055.000000,50.000000,14.000000,0.000000,0.000000,0.000000,0.000000,0.000000,1.300692,1.481906,0.411984,0.115355,1.631456,1105.000000,1055.000000,50.000000,14.000000,0.000000,0.000000,0.000000,0.000000,0.000000;
#CREDIT:;
#NOTES:
// measure 0
0000
0000
0000
0000
,  // measure 1
0000
0000
0000
0000
,  // measure 2
0000
0000
0000
0000
,  // measure 3
0000
0000
0000
0000
,  // measure 4
1000
0100
1000
0000
0001
1000
0001
0000
1000
0100
1000
0000
0001
0000
0001
0000
,  // measure 5
0010
0100
0010
0000
0001
0100
0001
0000
1000
0010
1000
0010
0100
0000
0001
0000
,  // measure 6
1000
0100
1000
0000
0001
0000
0001
0000
1000
0100
1000
0000
0001
0000
0001
0000
,  // measure 7
1000
0100
0010
0001
0010
0100
0010
0001
1000
0010
0100
0010
1000
0010
0100
0001
,  // measure 8
0020
0000
0000
0000
,  // measure 9
0000
0000
0000
0000
0031
0010
0100
1000
,  // measure 10
0001
0000
0100
0001
0000
0100
0001
0000
1000
0000
0000
0000
0100
0000
0010
0000
,  // measure 11
0001
0000
0001
0000
0100
0000
0100
0000
0010
0000
0010
0000
0100
0001
0100
0001
,  // measure 12
1000
0000
0100
1000
0000
0100
1000
0000
0001
0000
0010
0000
0100
0000
1000
0000
,  // measure 13
0001
0000
0000
0001
0000
0000
1000
0000
0100
0000
0010
0000
0001
0000
0000
0001
0000
0000
0100
0000
0000
0100
0000
0000
,  // measure 14
0010
0000
1000
0000
0100
0010
0100
0010
0001
0100
0010
0000
1000
0000
1000
0000
,  // measure 15
0001
0000
0010
0100
0000
0010
0100
0000
1000
0000
0010
0100
0000
0010
0100
0000
,  // measure 16
0001
0010
1000
0010
0001
1000
0100
0010
,  // measure 17
0001
0000
0100
0000
1000
0000
0100
0000
0001
0000
0010
0000
0100
0000
1000
0001
,  // measure 18
1000
0001
1000
0001
0100
0010
1000
0100
,  // measure 19
0010
0001
0010
0001
0100
0010
0100
0010
,  // measure 20
1001
0001
0100
0010
1010
1000
0001
0010
,  // measure 21
0011
0000
0001
0000
0100
0000
0010
0000
1010
0000
1000
0000
0001
0000
0010
0100
,  // measure 22
1000
0001
1000
0001
1000
0001
1000
0001
1000
0001
1000
0001
1000
0001
1000
0001
,  // measure 23
1000
0000
0001
0100
0000
0001
0100
0000
0001
0000
1000
0100
0000
1000
0100
0000
,  // measure 24
1000
0001
1000
0001
1000
0000
0010
0000
0101
0000
0001
0000
1001
0000
1000
0000
,  // measure 25
0010
0000
0100
0001
0000
0100
0001
0000
0010
0000
0100
1000
0000
0100
1000
0000
,  // measure 26
0001
0000
0100
0010
0000
0100
0010
0000
1000
0000
1002
0000
0000
0000
0000
0000
,  // measure 27
1003
0100
0010
0001
1000
0000
0001
0010
0100
1000
0001
0000
1000
0000
0100
0000
,  // measure 28
0010
0000
0000
0010
0001
0000
0000
0001
1000
0000
0010
0000
0010
0000
0100
0000
,  // measure 29
0100
0000
0001
0000
0010
0100
1000
0100
0010
0000
0001
0000
0001
0000
0100
0000
,  // measure 30
0010
0000
0000
1000
0000
0000
0100
0000
0000
0010
0000
0000
0001
0000
0000
0100
0000
0000
0010
0000
0000
1000
0000
0000
0001
0000
0000
0000
0000
0000
0000
0000
0101
0000
0000
0000
0000
0000
0000
0000
0110
0000
0000
0000
0000
0000
0000
0000
,  // measure 31
1010
0000
0000
0000
0001
0010
0100
1000
0001
0000
0100
0000
0101
0000
0000
0000
,  // measure 32
1000
0000
1000
0000
0100
0010
0001
1000
0010
0000
0010
0000
0100
0000
0100
0000
,  // measure 33
0001
0000
1000
0010
1000
0000
0001
0000
1000
0010
1000
0000
0001
0000
0010
0000
,  // measure 34
1100
0000
1000
0000
1001
0000
0001
0000
0100
0010
1000
0010
0100
0000
0000
0000
,  // measure 35
1001
0000
0000
1000
0100
0000
0000
0100
0001
0000
0000
0001
0100
0000
0000
0100
,  // measure 36
1000
0000
0000
1000
0010
0000
0000
0010
0001
0000
0000
0001
0010
0000
0000
0000
,  // measure 37
1000
0100
1000
0100
0010
0001
0010
0001
1000
0010
0100
0001
1000
0000
1000
0000
,  // measure 38
0100
1000
0100
1000
0010
0100
0010
0100
0001
1000
0010
1000
0001
0000
0000
0001
,  // measure 39
0100
0000
0010
0000
0100
0000
0001
1000
0100
0000
0100
0000
1100
0000
0000
0010
,  // measure 40
0001
0000
0000
0100
0000
0000
0010
0000
0000
0100
0000
0000
0101
0000
0000
0000
0110
0000
0000
0000
1010
0000
0000
0000
,  // measure 41
1001
0000
0100
0000
0010
0000
0001
0000
1000
0010
1000
0010
0100
0001
0010
0100
,  // measure 42
1000
0000
0000
1001
0000
0000
1001
0000
0010
0000
0100
0000
1000
0000
0001
0000
,  // measure 43
0100
0001
0100
0001
0100
0000
0001
0010
0100
0000
1000
0000
1000
0000
0010
0000
,  // measure 44
1000
0000
0010
0100
0010
0000
0100
0001
0100
0000
0010
1000
0010
0100
0001
0010
,  // measure 45
0100
1000
0100
1000
0100
0000
1000
0100
0010
0000
0001
0000
0001
0000
0100
0000
,  // measure 46
0010
0000
0000
0100
0000
0000
0010
0000
0000
0000
0000
0000
1000
0000
0000
0000
0010
0000
0000
0000
0100
0000
0000
0000
0001
0000
0000
0000
0000
0000
0010
0000
0000
0100
0000
0000
0010
0000
0000
0000
0000
0000
0001
0000
0000
0000
0000
0000
,  // measure 47
1001
0000
0000
0000
0100
1000
0001
1000
0100
1000
0001
1000
0100
0000
0010
0000
,  // measure 48
0001
0000
0100
0010
0000
0100
0010
0000
1000
0000
0100
0010
0000
0100
0010
0000
,  // measure 49
0001
0000
0100
0001
0100
0000
0010
0100
0010
0000
1000
0010
1000
0010
0100
0000
,  // measure 50
1001
0000
0000
0000
0001
0010
0100
1000
0001
0000
0000
1001
0000
0000
1001
0000
,  // measure 51
0100
1000
0100
1000
0100
0000
1000
0010
0100
0000
0001
0000
0001
0000
1000
0000
,  // measure 52
0010
0000
0100
0001
0100
0000
0010
0100
0010
0000
1000
0010
1000
0001
0010
0100
,  // measure 53
1000
0001
1000
0001
1000
0000
0001
0100
0010
0000
1000
0000
1000
0000
0001
0000
,  // measure 54
0100
0000
0000
0010
0000
0000
0100
0000
0000
0000
0000
0000
0001
0000
0000
0000
0010
0000
0000
0000
0100
0000
0000
0000
1000
0000
0000
0000
0000
0000
0010
0000
0000
1000
0000
0000
0010
0000
0000
1000
0000
0000
0001
0000
0000
0000
0000
0000
,  // measure 55
1001
0000
0000
0000
0010
0001
1000
0001
0010
0001
1000
0001
0010
0000
0100
0000
,  // measure 56
1001
0000
0010
0100
0000
0010
0100
0000
1001
0000
0100
0010
0000
0100
0010
0000
,  // measure 57
1001
0000
0001
1000
0000
0001
1000
0000
0100
1000
0100
0010
0001
0100
0010
0100
,  // measure 58
0001
0000
1000
0010
0000
1000
0010
0000
0100
0000
0001
1000
0000
0001
1000
0000
,  // measure 59
0100
1000
0001
1000
0100
1000
0001
0100
0001
1000
0100
1000
0001
0100
0001
1000
,  // measure 60
0100
0000
0100
0010
0000
0010
0001
0010
0001
1000
0000
0001
,  // measure 61
0100
0000
0100
0010
0000
0010
1000
0010
1000
1001
0000
0000
,  // measure 62
0011
0000
0010
0100
0000
0100
1000
0100
1000
0001
0000
0100
,  // measure 63
0010
0000
0010
1000
0100
0001
0100
1000
0001
0101
0000
0000
,  // measure 64
1001
0000
1000
0100
0000
0100
0010
0100
0010
0001
0000
0001
,  // measure 65
1000
0000
1000
0010
0000
0010
0100
0010
0100
0001
0010
0100
,  // measure 66
1000
0000
1000
0001
0000
0001
0100
0010
0100
0010
0000
0010
,  // measure 67
1010
0000
1000
1001
0000
0001
0011
0000
0010
0110
0000
0000
,  // measure 68
0001
0100
1000
0100
0001
0010
0100
1000
0100
0010
0000
0001
,  // measure 69
1000
0100
0001
0100
1000
0010
0100
0001
0100
0010
0000
0000
,  // measure 70
1000
0010
0001
0010
1000
0100
0010
0001
0010
0100
0000
1000
,  // measure 71
0001
0010
1000
0010
0001
0100
0010
1000
0100
0010
0000
0001
,  // measure 72
1000
0100
0001
0100
1000
0010
0001
0010
1000
0100
0000
1000
,  // measure 73
0001
0010
1000
0010
0001
0100
1000
0100
0001
0010
0000
0000
,  // measure 74
0001
0010
0100
1000
0001
0100
0001
0100
0001
0010
0100
1000
0001
0100
0001
0100
,  // measure 75
0001
1000
0100
0010
0001
1000
0001
1000
0001
0100
0001
0100
0010
1000
0100
0010
,  // measure 76
0002
0000
2000
3000
,  // measure 77
0200
0300
2000
3000
,  // measure 78
0203
0000
0320
0000
,  // measure 79
2030
0000
3002
0000
,  // measure 80
0003
0010
0100
1000
0001
0100
0001
1000
,  // measure 81
0000
0000
0100
0000
0010
0000
0001
0000
1000
0000
0000
1000
0000
0000
1000
0000
,  // measure 82
0000
0010
0100
0001
1000
0100
1000
0001
,  // measure 83
0010
0000
0000
0010
0000
0000
0010
0000
0100
0000
0000
0100
0000
0000
0100
0000
,  // measure 84
1000
0010
0100
0001
0020
0000
0000
0000
,  // measure 85
0230
0000
0000
0000
1300
0010
0100
0001
,  // measure 86
1000
0001
1000
0001
1000
0001
1000
0001
1000
0001
1000
0001
1000
0001
1000
0001
,  // measure 87
0100
0001
0100
0001
0100
0001
0100
0001
0100
0001
0100
0001
0100
0001
0100
0001
,  // measure 88
1000
0100
1000
0100
1000
0100
1000
0100
1000
0100
1000
0100
1000
0100
1000
0100
,  // measure 89
0010
0100
0010
0100
0010
0100
0010
0100
0010
0100
2000
0000
0000
0000
3000
0000
,  // measure 90
1001
0000
0000
0000
1000
0100
0010
0100
1000
0010
0100
0001
1000
0000
1000
0000
,  // measure 91
0001
0100
0001
0100
0010
0000
1000
0000
0001
0010
0001
0010
0100
0000
1000
0000
,  // measure 92
1001
0000
0100
0010
0100
0010
0100
0000
1001
0000
0010
0100
0010
0100
0010
0000
,  // measure 93
1001
0000
0001
0000
0100
0001
0010
0100
1000
0000
0000
1001
0000
0000
1001
0000
,  // measure 94
0100
1000
0001
1000
0100
1000
0001
1000
0100
0000
0001
0000
0100
0000
1000
0000
,  // measure 95
0001
0000
0010
0100
1000
0000
0001
0010
0100
0000
1000
0100
0001
0100
1000
0001
,  // measure 96
0010
0001
1000
0001
0010
0001
1000
0001
0010
0000
1000
0000
0010
0000
0001
0000
,  // measure 97
1000
0000
0000
0001
0000
0000
1000
0000
0000
0000
0000
0000
0001
0000
0000
0000
0100
0000
0000
0000
0010
0000
0000
0000
1000
0000
0000
0000
0000
0000
0100
0000
0000
0010
0000
0000
0100
0000
0000
1000
0000
0000
0001
0000
0000
0000
0000
0000
,  // measure 98
1001
0000
0000
0000
0010
0001
0010
0001
0100
0010
1000
0100
0010
0000
0100
1000
,  // measure 99
0001
0000
0000
1001
0000
0000
1001
0000
1100
0000
0000
1100
0000
0000
1100
0000
,  // measure 100
1001
0000
0001
0100
0010
0000
0100
0010
1000
0100
0010
0001
1000
0010
0100
0010
,  // measure 101
1000
0001
1000
0001
0010
0100
1000
0001
0100
0010
1000
0001
0010
0100
0010
0001
,  // measure 102
1000
0010
0100
0010
1000
0001
0010
0100
0010
0001
0100
0010
0100
0001
1000
0000
,  // measure 103
0100
0010
0001
1000
0010
0100
0010
1000
0001
0010
0100
0010
0001
0100
0010
1000
,  // measure 104
0100
0001
0100
1000
0010
0100
0010
1000
0010
0001
0010
1000
0100
0010
0001
1000
,  // measure 105
0020
0000
0000
0000
,  // measure 106
0000
0000
0000
0000
,  // measure 107
1030
0001
0010
0100
1000
0010
0001
0010
1000
0100
0010
0100
1000
0100
0001
0100
,  // measure 108
1000
0010
1000
0010
0100
0001
0100
0001
1000
0010
0001
0010
0100
0001
0010
0100
,  // measure 109
0010
0000
0000
0000
;

//---------------dance-single - ----------------
#NOTEDATA:;
#CHARTNAME:;
#STEPSTYPE:dance-single;
#DESCRIPTION:;
#CHARTSTYLE:;
#DIFFICULTY:Beginner;
#METER:8;
#RADARVALUES:0.256607,0.449062,0.057678,0.000000,0.000000,218.000000,211.000000,7.000000,0.000000,0.000000,0.000000,0.000000,0.000000,0.000000,0.256607,0.449062,0.057678,0.000000,0.000000,218.000000,211.000000,7.000000,0.000000,0.000000,0.000000,0.000000,0.000000,0.000000;
#CREDIT:;
#NOTES:
0000
0000
0000
0000
,
0000
0000
0000
0000
,
0000
0000
0000
0000
,
0000
0000
0000
0000
,
1000
0000
0000
0000
,
1000
0000
0000
0000
,
0001
0000
0001
0000
,
0100
0000
0000
0000
,
0110
0000
0000
0000
,
0000
0000
0000
0000
,
0010
0000
0000
0000
,
0000
0000
0000
0000
,
0100
0000
0000
0000
,
0000
0000
0000
0000
,
0010
0000
0000
0000
,
0000
0000
0000
0000
,
0100
0000
0000
0000
,
0000
0000
0000
0000
,
0001
0000
0000
0000
,
0001
0000
0000
0000
,
1000
0000
0000
0000
,
1000
0000
0000
0000
,
0001
0000
0000
0000
,
1000
0000
0000
0000
,
0001
0000
0000
0000
,
1000
0000
0000
0000
,
0001
0000
0000
0000
,
0100
0000
0100
0000
,
0010
0100
0010
0100
,
0001
0000
0001
0000
,
1000
0001
1000
0001
,
0010
0000
0010
0000
,
0001
0100
0001
0100
,
0010
0000
0010
0000
,
1000
0100
0010
0001
,
1000
1000
1000
1000
,
1000
1000
1000
1000
,
0001
0010
0100
1000
,
0001
0010
0100
1000
,
0001
0000
0001
0000
,
0100
0000
0100
0000
,
0010
0000
0010
0000
,
1000
0000
1000
0000
,
1001
0000
0001
0000
,
1000
0100
1000
0001
,
0100
0000
0100
0000
,
0001
1000
0001
1000
,
0010
0000
0010
0000
,
1000
0001
1000
0001
,
0100
0000
0100
0000
,
0010
1000
0010
1000
,
0001
0000
0001
0000
,
0010
0100
0010
0100
,
1000
0000
1000
0000
,
0100
0010
0100
0010
,
0001
0000
0001
0000
,
0010
0100
0010
0100
,
1000
0000
1000
0000
,
0010
0100
0010
0100
,
0010
0100
0010
0100
,
0001
0000
0000
0000
,
0000
0000
0000
0000
,
0000
0000
0000
0000
,
0000
0000
0000
0000
,
1001
0000
0000
0000
,
1000
0000
0000
0000
,
1001
0000
0000
0000
,
0001
0000
0000
0000
,
0100
0000
0100
0000
,
0100
0000
0000
0000
,
0010
0000
0010
0000
,
0010
0000
0000
0000
,
0100
0000
0100
0000
,
0010
0000
0010
0000
,
1000
0100
0010
0001
,
1000
0100
0010
0001
,
1001
0000
0000
0000
,
0000
0000
0000
0000
,
0000
0000
0000
0000
,
0000
0000
0000
0000
,
0000
0000
0000
0000
,
0000
0000
0000
0000
,
0000
0000
0000
0000
,
0000
0000
0000
0000
,
0000
0000
0000
0000
,
0000
0000
0000
0000
,
1001
0000
1000
0000
,
1000
0000
1000
0000
,
0001
0000
0001
0000
,
0001
0000
0001
0000
,
1000
0001
1000
0001
,
0100
0000
0100
0000
,
0010
0100
0010
0100
,
0001
0000
0001
0000
,
0010
0001
0010
0001
,
1000
0000
1000
0000
,
0100
1000
0100
1000
,
0010
0000
0010
0000
,
0100
0001
0100
0001
,
1000
0000
1000
0000
,
0001
0010
0001
0010
,
0100
1000
0100
1000
,
0010
0100
0010
0100
,
0001
0010
0001
0010
,
0100
1000
0100
1000
,
0001
0000
0000
0000
,
0000
0000
0000
0000
,
1000
0100
0010
0001
,
0100
0100
0100
0010
,
0110
0000
0000
0000
;
