#TITLE:FLOWERS for ALBION;
#SUBTITLE:;
#ARTIST:dj TAKA;
#TITLETRANSLIT:;
#SUBTITLETRANSLIT:;
#ARTISTTRANSLIT:;
#GENRE:;
#CREDIT:DigiMindAxel;
#BANNER:FLOWERS for ALBION.png;
#BACKGROUND:FLOWERS for ALBION-bg.png;
#LYRICSPATH:;
#CDTITLE:beatmania IIDX.png;
#MUSIC:FLOWERS for ALBION.ogg;
#OFFSET:-0.408000;
#SAMPLESTART:43.149994;
#SAMPLELENGTH:12.000000;
#SELECTABLE:YES;
#BPMS:0.000000=80.000000
,1.000000=93.000000
,8.020833=84.000000
,8.979167=93.000000
,20.000000=90.000000
,21.000000=93.000000
,28.000000=79.000000
,29.000000=91.000000
,31.000000=85.000000
,31.979166=70.000000
,33.000000=93.000000
,44.000000=85.000000
,45.000000=93.000000
,48.000000=84.000000
,49.000000=93.000000
,56.000000=84.000000
,57.000000=93.000000
;
#STOPS:
;
#BGCHANGES:;
#KEYSOUNDS:;
#ATTACKS:;

//---------------dance-single - ----------------
#NOTES:
     dance-single:
     :
     Beginner:
     2:
     0.082357,0.138056,0.040456,0.000000,0.000000,57.000000,53.000000,4.000000,0.000000,0.000000,0.000000,0.082357,0.138056,0.040456,0.000000,0.000000,57.000000,53.000000,4.000000,0.000000,0.000000,0.000000:
0000
0000
0000
0000
,
0000
0000
0000
0000
,
0000
0000
0000
0000
,
0000
0000
0000
0000
,
0000
0000
0000
0000
,
0000
0000
0000
0000
,
0000
0000
0000
0000
,
0000
0000
0000
0000
,
0000
0000
0000
0000
,
0000
0001
0000
0000
,
0000
0001
0000
0000
,
0000
1000
0000
0000
,
0000
1000
0000
0000
,
0000
0001
0000
0000
,
0000
1000
0000
0000
,
0000
0010
0010
0110
,
0000
1001
0000
0000
,
1000
0000
0010
0010
,
0010
0010
0000
0000
,
0100
0001
0000
0001
,
1000
1001
1000
0000
,
0010
0000
0100
0100
,
0100
0100
0001
0000
,
1000
0001
1000
0010
,
0100
0010
0000
0000
,
0000
0100
0000
0000
,
0000
0001
0000
0000
,
0000
1000
0100
0010
,
0001
0100
0010
0000
,
0000
0000
1000
0100
,
0010
0001
0000
0000
,
0001
0000
1000
0000
,
0001
0000
1000
0000
0000
1000
0000
0000
,
0000
0000
0001
0000
0000
0001
0000
0000
,
0000
1001
0000
0000
0000
0000
0000
0000
;

//---------------dance-single - ----------------
#NOTES:
     dance-single:
     :
     Medium:
     5:
     0.196500,0.293306,0.101140,0.222508,0.035399,136.000000,126.000000,10.000000,22.000000,0.000000,0.000000,0.196500,0.293306,0.101140,0.222508,0.035399,136.000000,126.000000,10.000000,22.000000,0.000000,0.000000:
0000
0000
0000
0000
,
0000
0000
0000
0000
,
0000
0000
0000
0000
,
0000
0000
0000
0000
,
0000
0000
0001
0000
1000
0000
0001
0010
,
0100
1000
0010
0000
0000
0000
0000
0000
,
1000
0001
2000
0000
0000
0000
0000
0000
,
0000
3020
0000
0030
,
0000
0000
2000
0000
0000
3002
0000
0000
,
0000
0000
0023
0000
0000
0230
0000
0000
,
0000
2300
0000
0000
,
3000
0001
0010
0100
,
1000
0000
0020
0000
0000
0000
0000
1030
,
0100
0010
0002
0000
0000
0000
1003
0000
,
0000
0020
0000
0230
,
0000
0000
0000
0000
0301
0000
0001
0000
0001
0000
0000
0010
0100
0000
1000
0000
,
0010
1000
1001
0000
0010
0000
0100
1000
,
0100
0000
1000
0000
1001
0000
0100
0001
,
0100
0000
1001
0000
0001
1000
0010
1000
,
0001
0000
1000
0100
0010
0001
0100
0001
,
0100
0000
0001
0010
0100
1000
0010
1000
,
0010
1001
0002
0023
,
0230
0000
2300
0000
3001
0000
1000
0001
,
1000
0000
0100
0010
0001
0000
0010
0100
,
1000
0001
1001
0000
0001
0000
0010
0000
,
1000
0100
0001
0010
,
1000
0100
0001
0010
,
1000
0000
0000
0000
0000
0000
1001
0000
0000
0000
0000
0000
0010
0000
0000
0000
0000
0010
0000
0000
0000
1000
0000
0000
,
0100
0010
0001
0100
0020
0000
0000
0000
,
0000
0000
2030
3200
,
0320
0000
0032
0000
1003
0000
0001
0010
,
0100
1010
0100
0101
,
1001
0000
0000
0000
1000
1000
0000
0000
0000
0000
0001
0001
0000
0000
0000
0000
,
0000
0000
0100
0000
0010
0010
0000
0000
0000
0000
0100
0100
0000
0000
0000
0000
,
0000
0000
0001
2002
0000
0000
0000
0000
0000
0000
0000
0000
0000
0000
0000
0000
,
0000
0000
0000
0000
,
0000
3003
0000
0000
;

//---------------dance-single - ----------------
#NOTES:
     dance-single:
     :
     Easy:
     3:
     0.144485,0.238311,0.141596,0.161824,0.000000,100.000000,86.000000,14.000000,16.000000,0.000000,0.000000,0.144485,0.238311,0.141596,0.161824,0.000000,100.000000,86.000000,14.000000,16.000000,0.000000,0.000000:
0000
0000
0000
0000
,
0000
0000
0000
0000
,
0000
0000
0000
0000
,
0000
0000
0000
0000
,
0000
1001
0000
0000
,
0100
2000
0000
0000
,
3001
0020
0000
0000
,
0000
0230
0000
0000
,
0300
2001
0000
0000
,
3000
0002
0000
0000
,
0003
0020
0000
0000
,
0030
0200
0000
2300
,
0000
0000
3010
0000
0000
0000
0000
1000
,
0001
1000
0002
0000
0000
0000
0000
0000
,
0000
2003
0000
0000
,
0000
0000
3010
0100
0010
0000
1000
0000
,
0100
0010
0001
0000
0010
0000
0001
0000
,
0010
0100
1000
0100
,
1000
0010
1000
0010
,
1000
0010
0100
0001
,
0100
1001
0001
0010
,
0100
1001
0100
0010
,
0100
1001
0010
0100
,
1000
0000
0001
0100
0001
0000
0100
0010
,
0100
1001
0020
0000
,
0000
0130
2000
0000
,
0000
3001
0200
0000
,
0000
0310
1000
1000
,
0100
0000
0010
0001
0020
0000
0000
0000
,
0000
0000
0031
0010
,
0100
0000
1000
0000
0000
0000
0100
1000
,
0100
1001
0000
0110
,
0110
0000
1001
0000
0000
0110
0000
0000
,
0000
0100
0110
0000
0000
1001
0000
0000
,
0000
2002
0000
0000
0000
0000
0000
0000
,
0000
0000
0000
0000
,
0000
3003
0000
0000
;

//---------------dance-double - ----------------
#NOTES:
     dance-double:
     :
     Easy:
     2:
     0.114144,0.201648,0.141596,0.020228,0.000000,79.000000,65.000000,14.000000,2.000000,0.000000,0.000000,0.114144,0.201648,0.141596,0.020228,0.000000,79.000000,65.000000,14.000000,2.000000,0.000000,0.000000:
00000000
00000000
00000000
00000000
,
00000000
00000000
00000000
00000000
,
00000000
00000000
00000000
00000000
,
00000000
00000000
00000000
00000000
,
00000000
00000000
00000000
00000000
,
00000000
00000000
00000000
00000000
,
00000000
00000000
00000000
00000000
,
00000000
00000000
00000000
00000000
,
00000000
00000000
00000000
00000000
,
00000000
10000000
00000000
00000000
,
00000000
10010000
00000000
00000000
,
00000000
00010000
00010000
00010000
,
00010000
00001000
00000000
00000000
,
00000000
00000001
00000000
00000000
,
00000000
00001000
00000000
00000001
,
00000000
00000100
00000110
00011000
,
00000000
10010000
00000000
00000000
,
10000000
00000000
10000000
01000000
,
00100000
00010000
00000000
00000000
,
00001000
00000010
00000000
00000100
,
00000100
00001001
00010000
00000000
,
00100000
00000000
10000000
01000000
,
00100000
00010000
00001000
00000000
,
00000001
00000010
00000100
00001000
,
00010000
00100000
00100000
00100000
,
00100000
00110000
00001000
00001000
,
00001000
00001100
00000010
00000001
,
00000010
00000001
00000010
00000100
,
00001000
00011000
00000000
00000000
,
00000000
00000000
10000000
01000000
,
00100000
00010000
00000000
00000000
,
00000000
00011000
00000000
00000010
,
00000100
00000000
00000110
00000000
00000000
00011000
00000000
00000000
,
00000000
00000000
01100000
00000000
00000000
00011000
00000000
00000000
,
00000000
00000220
00000000
00000000
00000000
00000000
00000000
00000000
,
00000000
00000000
00000000
00000000
,
00000000
00000330
00000000
00000000
;

//---------------dance-single - ----------------
#NOTES:
     dance-single:
     :
     Challenge:
     14:
     0.440681,0.806590,0.222508,0.303420,0.495585,305.000000,283.000000,22.000000,30.000000,0.000000,0.000000,0.440681,0.806590,0.222508,0.303420,0.495585,305.000000,283.000000,22.000000,30.000000,0.000000,0.000000:
// measure 0
0000
0000
0000
0000
,  // measure 1
0000
0000
0000
0000
,  // measure 2
0000
0000
0000
0000
,  // measure 3
0000
0000
0000
0000
,  // measure 4
1000
0100
0002
0000
0203
0000
1300
0001
,  // measure 5
0001
0100
0020
0000
0000
0000
0030
0000
,  // measure 6
1000
0100
0020
0000
0000
0031
1000
1000
,  // measure 7
0010
0000
0000
0000
2001
0000
0000
0000
0000
0000
3010
0100
0002
0000
0000
0000
,  // measure 8
2003
0000
3001
0100
0001
2001
0000
0000
,  // measure 9
3100
0000
1000
0100
1000
1002
0000
0103
,  // measure 10
0100
0000
0001
0010
0200
0000
0000
0000
,  // measure 11
0310
1002
0203
2300
,  // measure 12
3020
0000
0031
0100
0002
0000
0000
0013
,  // measure 13
0100
0000
1000
0000
0020
0000
0000
0000
0000
0000
0000
0000
0130
0000
0000
0010
,  // measure 14
0000
0100
1002
0000
0000
0013
0200
0000
,  // measure 15
0310
0000
0000
0000
0000
0000
0000
0000
0000
0000
0001
0000
1000
0000
0000
0000
0000
0000
1000
0000
0000
0000
0000
0000
0010
0000
0000
0100
0000
0000
0000
0000
0000
0010
0000
0000
0100
0000
0000
0010
0000
0000
0100
0000
0000
0001
0000
0000
,  // measure 16
0010
0100
1000
0001
1001
0000
0010
0001
0100
0000
0020
0000
0000
0000
0130
0000
,  // measure 17
0001
0000
0010
0000
0100
1000
0001
1000
0100
0000
1000
0001
0100
0001
1000
0000
,  // measure 18
0010
0000
0100
0000
1001
0000
0000
0000
0001
0000
0010
0100
2000
0000
0000
0010
,  // measure 19
0000
0000
3010
0000
1000
0100
0010
0100
1000
0000
0001
0010
0100
0010
0001
0000
,  // measure 20
0100
0000
0010
0000
1001
0000
0100
0010
1000
0000
0020
0000
0000
0000
0130
0000
,  // measure 21
0001
0000
0010
0000
0100
1000
0001
1000
0100
0000
0010
0001
1000
0001
0010
0000
,  // measure 22
0100
0000
1000
0000
1001
0000
0000
0000
0010
0000
0100
1000
0001
0000
0100
0000
,  // measure 23
0110
0000
0000
0000
0001
1000
0010
1000
0001
0000
0010
0100
1000
0100
0010
0000
,  // measure 24
0001
0000
0000
0100
0000
0000
1001
0000
0000
0000
0000
0000
1000
0001
0010
0100
0010
0001
1000
0001
0010
0100
0010
0001
,  // measure 25
0100
0010
1000
0100
0010
0001
2000
0000
0000
0000
0000
0000
3001
0100
1000
0100
0001
0010
1000
0010
0001
0100
0010
0100
,  // measure 26
0001
0010
0001
0100
0010
1000
0001
0010
1000
0010
0001
0100
1000
0100
0001
0010
0001
0100
0010
1000
0100
0010
0001
0010
,  // measure 27
0100
1000
0001
0100
0001
1000
0200
0000
0000
0000
0000
0000
1300
0000
0001
0000
0000
0001
1000
0100
0001
0100
1000
0010
,  // measure 28
0001
0000
0010
0000
1000
0000
0100
0000
1000
0000
0001
0000
0010
0000
0000
0000
0000
0000
0100
0000
0000
1000
0000
0000
0001
0000
0000
0000
0000
0000
0200
0000
0000
0000
0000
0000
0000
0000
0000
0000
0000
0000
0301
0000
0000
0000
0000
0000
,  // measure 29
1001
0000
0000
0000
1000
0010
0100
0010
2000
0000
3001
0010
0200
0000
0310
0001
,  // measure 30
2000
0000
3010
0100
0002
0000
1003
0100
0010
0000
0001
1000
0100
1000
0001
0000
,  // measure 31
1001
0000
0000
0000
1000
0010
0100
0010
1000
0000
0100
0010
0001
0010
0100
0000
,  // measure 32
1000
0000
0010
0000
0101
0100
0000
0000
1001
0000
1010
0010
0000
0000
0100
0000
,  // measure 33
0110
0000
0001
0000
1100
1000
0000
0000
1001
0000
0011
0001
0000
0000
0100
0000
,  // measure 34
0100
0000
1001
2002
0000
0000
0000
0000
0000
0000
0000
0000
0000
0000
0000
0000
,  // measure 35
0000
0000
0000
0000
,  // measure 36
0000
3003
0000
0000
;

//---------------dance-single - ----------------
#NOTES:
     dance-single:
     :
     Hard:
     10:
     0.378552,0.476621,0.242736,0.283192,0.262964,262.000000,238.000000,24.000000,28.000000,0.000000,0.000000,0.378552,0.476621,0.242736,0.283192,0.262964,262.000000,238.000000,24.000000,28.000000,0.000000,0.000000:
0000
0000
0000
0000
,
0000
0000
0000
0000
,
0000
0000
0000
0000
,
0000
0000
0000
0000
,
1000
0100
0002
0000
0203
0000
1300
0001
,
0001
0100
0020
0000
0000
0000
0030
0000
,
1000
0100
0020
0000
0000
0031
1000
1000
,
0010
0000
0000
0000
2001
0000
0000
0000
0000
0000
3010
0100
0002
0000
0000
0000
,
2003
0000
3001
0100
0001
2001
0000
0000
,
3100
0000
1000
0100
1000
1002
0000
0103
,
0100
0000
0001
0010
0200
0000
0000
0000
,
0310
1002
0203
2300
,
3020
0000
0031
0100
0002
0000
0000
0013
,
0100
0000
1000
0000
0020
0000
0000
0000
0000
0000
0000
0000
0130
0000
0000
0010
,
0000
0100
1002
0000
0000
0013
0200
0000
,
0310
0000
0000
0000
0000
0000
0000
0000
0000
0000
0001
0000
1000
0000
0000
0000
0000
0000
1000
0000
0000
0000
0000
0000
0010
0000
0000
0100
0000
0000
0000
0000
0000
0010
0000
0000
0100
0000
0000
0010
0000
0000
0100
0000
0000
0001
0000
0000
,
0010
0100
1000
0001
1001
0000
0010
0001
0100
0000
0020
0000
0000
0000
0130
0000
,
0001
0000
0010
0000
0100
1000
0001
1000
0100
0000
1000
0001
0100
0001
1000
0000
,
0010
0000
0100
0000
1001
0000
0000
0000
0001
0000
0010
0100
2000
0000
0000
0010
,
0000
0000
3010
0000
1000
0100
0010
0100
1000
0000
0001
0010
0100
0010
0001
0000
,
0100
0000
0010
0000
1001
0000
0100
0010
1000
0000
0020
0000
0000
0000
0130
0000
,
0001
0000
0010
0000
0100
1000
0001
1000
0100
0000
0010
0001
1000
0001
0010
0000
,
0100
0000
1000
0000
1001
0000
0000
0000
0010
0000
0100
1000
0001
0000
0100
0000
,
0110
0000
0000
0000
0001
1000
0010
1000
0001
0000
0010
0100
1000
0100
0010
0000
,
0001
0100
1001
0000
1000
0100
0001
0100
,
1000
0000
0000
0001
0000
0000
0010
0100
0010
0100
0000
0000
1000
0000
0000
0100
0000
0000
0001
0000
0000
0100
0000
0000
,
1000
1000
0001
0010
1000
0010
0001
0001
,
0100
0000
0000
0100
0000
0000
1001
0000
0000
0000
0000
0000
0001
0000
1000
0000
0000
1000
0001
0000
0000
0010
0000
0000
,
0100
0000
1000
0000
1001
0000
0100
1000
0001
0000
0200
0000
0000
0000
0301
0000
,
1001
0000
0000
0000
1000
0010
0100
0010
2000
0000
3001
0010
0200
0000
0310
0001
,
2000
0000
3010
0100
0002
0000
1003
0100
0010
0000
0001
1000
0100
1000
0001
0000
,
1001
0000
0000
0000
1000
0010
0100
0010
1000
0000
0100
0010
0001
0010
0100
0000
,
1000
0000
0010
0000
0101
0100
0000
0000
1001
0000
1010
0010
0000
0000
0100
0000
,
0110
0000
0001
0000
1100
1000
0000
0000
1001
0000
0011
0001
0000
0000
0100
0000
,
0100
0000
1001
2002
0000
0000
0000
0000
0000
0000
0000
0000
0000
0000
0000
0000
,
0000
0000
0000
0000
,
0000
3003
0000
0000
;

//---------------dance-double - ----------------
#NOTES:
     dance-double:
     :
     Medium:
     5:
     0.193611,0.274974,0.101140,0.333761,0.040456,134.000000,124.000000,10.000000,33.000000,0.000000,0.000000,0.193611,0.274974,0.101140,0.333761,0.040456,134.000000,124.000000,10.000000,33.000000,0.000000,0.000000:
00000000
00000000
00000000
00000000
,
00000000
00000000
00000000
00000000
,
00000000
00000000
00000000
00000000
,
00000000
00000000
00000000
00000000
,
10000000
00000000
00010000
00000000
00100000
00000000
01000000
00100000
,
00001000
00010000
00002000
00000000
00000000
00000000
00000000
00000000
,
00013000
00000010
00000200
00000000
00000000
00000000
00000001
00000000
,
00000000
00000302
00000000
00001003
,
00000000
00000000
00000020
00000000
00000000
00000200
00000000
00000000
,
00000330
00000000
00020000
00000000
00000000
00002000
00000000
00000000
,
00033000
01000000
01000000
00000000
,
00000000
00100000
01000000
10000000
,
00001000
00000000
00020000
00000000
00000000
00000000
00030000
00000100
,
00000010
00000001
00000200
00000000
00000000
00000000
00000310
00000000
,
00000000
00020000
00000000
00030200
,
00000000
00000000
00000310
00000001
00000010
00000000
00000001
00000100
,
00000010
00010000
00010010
00000000
00000000
00011000
00000000
00000000
,
00100000
01000000
00100000
00000000
10010000
00000000
11000000
00000000
,
00100000
00000000
00001000
00000000
00010000
00000000
00000000
00000000
00000000
00000000
00000010
00000100
00000010
00000000
00000000
00000100
,
00000000
00000001
00000010
00000000
00000000
00010000
00001000
00000000
,
01000000
00100000
10000000
00000000
00000000
00011000
00000000
00000000
,
00000100
00000011
00000002
00000203
,
00000320
00000000
00020030
00000000
00031000
00000000
01000000
00100000
,
01000000
00000000
00100000
10000000
01000000
00000000
00100000
00001000
,
00010000
00000010
00000110
00000000
00000200
00000000
00000302
00000000
,
00000023
00000230
00020300
00032000
,
02003000
03200000
20300000
32000000
,
03200000
00000000
00000000
00000000
00000000
00000000
00301000
00000000
00000000
00000000
00000000
00000000
00010000
00000000
00000000
00000000
00000000
00010000
00000000
00000000
00000000
00000100
00000000
00000000
,
00000010
00000001
00000010
00000100
00010000
00001000
00020000
00000000
,
00000000
00000000
00030200
00000320
,
00000032
00000000
00002003
00000000
00003010
00000000
00000100
00000010
,
00000100
00000101
00010000
00011000
,
01001000
00000000
00000000
00000000
00100000
10000000
00000000
00000000
00000000
00000000
00010000
00001000
00000000
00000000
00000000
00000000
,
00000000
00000000
00000010
00000000
00000100
00000001
00000000
00000000
00000000
00000000
00001000
00010000
00000000
00000000
00000000
00000000
,
00000000
00000000
02000000
00200000
00000000
00000000
00000000
00000000
00000000
00000000
00000000
00000000
00000000
00000000
00000000
00000000
,
00000000
00000000
00000000
00000000
,
00000000
03300000
00000000
00000000
;

//---------------dance-double - ----------------
#NOTES:
     dance-double:
     :
     Challenge:
     14:
     0.449350,0.824922,0.333761,0.273078,0.470300,311.000000,278.000000,33.000000,27.000000,0.000000,0.000000,0.449350,0.824922,0.333761,0.273078,0.470300,311.000000,278.000000,33.000000,27.000000,0.000000,0.000000:
00000000
00000000
00000000
00000000
,
00000000
00000000
00000000
00000000
,
00000000
00000000
00000000
00000000
,
00000000
00000000
00000000
00000000
,
10000000
00100000
02000000
00000000
03020000
00000000
00130000
00001000
,
00010000
00000100
00000020
00000000
00000000
00000000
00000031
00000000
,
00000010
00000100
00002000
00000000
00000000
00003010
00010000
00001000
,
00100000
00000000
00000000
00000000
00022000
00000000
00000000
00000000
00033000
00000000
00010000
00001000
02000000
00000000
00000000
00000000
,
03200000
00000000
10300000
01000000
00100000
00011000
00000000
00000000
,
00000001
00000000
00000001
00000010
00000100
00011000
00000000
10000000
,
10000000
00000000
00100000
01000000
00002000
00000000
00000000
00000000
,
00013000
00000200
00000320
00000032
,
00002003
00000000
00003010
00000100
00000002
00000000
00000000
00000013
,
00000100
00000000
00001000
00000000
02020000
00000000
00000000
00000000
00000000
00000000
03030000
00000000
00100000
00000000
00000000
01000000
,
00000000
00100000
20020000
00000000
30030000
01000000
20000000
00000000
,
30100000
00000000
00000000
00000000
00000000
00000000
00000000
00000000
00000000
00000000
01000000
00000000
00100000
00000000
00000000
00000000
00000000
00000000
00100000
00000000
00000000
00000000
00000000
00000000
10000000
00000000
00000000
01000000
00000000
00000000
00000000
00000000
00000000
10000000
00000000
00000000
01000000
00000000
00000000
10000000
00000000
00000000
01000000
00000000
00000000
00100000
00000000
00000000
,
00001000
00100000
00001000
00010000
00000100
00000000
00000010
00000001
00000010
00000000
00001001
00000000
00000000
00000000
00000010
00000000
,
00000100
00000000
00001000
00000000
00000001
00000100
00000010
00000100
00000001
00000000
00010000
00000100
00000010
00000100
00010000
00000000
,
00001000
00000000
01000000
00000000
02200000
00000000
00000000
00000000
03300000
00000000
00100000
01000000
00010000
00000000
00000000
10000000
,
00000000
00000000
11000000
00000000
00001000
01000000
00100000
01000000
00001000
00000000
00100000
01000000
10000000
01000000
00100000
00000000
,
00001000
00000000
01000000
00000000
00011000
00000000
00000010
00000100
00000010
00000000
00001001
00000000
00000000
00000000
00000001
00000000
,
00000100
00000000
00000010
00000000
00010000
00000100
00000010
00000100
00010000
00000000
00000001
00000100
00000010
00000100
00000001
00000000
,
00000010
00000000
00000100
00000000
00011000
00000000
00000000
00000000
00100000
00000000
01000000
10000000
00100000
00000000
01000000
00000000
,
01001000
00000000
00000000
00000000
10000000
01000000
00100000
01000000
10000000
00000000
00001000
01000000
00100000
01000000
00001000
00000000
,
00010000
00000000
00000000
00000010
00000000
00000000
00000110
00000000
00000000
00000000
00000000
00000000
00000001
00000100
00000010
00000001
00000010
00000100
00000001
00001000
00000001
00000010
00000100
00010000
,
00000100
00000010
00000001
00000010
00000100
00010000
00001000
00000000
00000000
00000000
00000000
00000000
00100000
00001000
00010000
00001000
00100000
00001000
00010000
00001000
00100000
01000000
10000000
00100000
,
10000000
01000000
00010000
01000000
10000000
00100000
01000000
00001000
01000000
00001000
00010000
00000100
00010000
00000100
00000001
00000100
00010000
00000010
00000100
00000001
00000010
00000100
00001000
00000100
,
00000010
00000001
00010000
00000100
00000010
00000100
00010000
00000000
00000000
00000000
00000000
00000000
00011000
00000000
00001000
00000000
00000000
00001000
10000000
01000000
00100000
00010000
01000000
00001000
,
00010000
00000000
00000010
00000000
00000100
00000000
00000001
00000000
00000010
00000000
00000100
00000000
00001000
00000000
00000000
00000000
00000000
00000000
01000000
00000000
00000000
00100000
00000000
00000000
01000000
00000000
00000000
00000000
00000000
00000000
10010000
00000000
00000000
00000000
00000000
00000000
00000000
00000000
00000000
00000000
00000000
00000000
00100000
00000000
00000000
00000000
00000000
00000000
,
10100000
00000000
00000000
00000000
10000000
00100000
01000000
00000000
20100000
00000000
30001000
00000000
00021000
00000000
00030010
00000000
,
00000210
00000000
00000301
00000000
00001002
00000000
00000013
00000100
00000010
00000000
00000001
00000100
00000010
00000100
00000001
00000000
,
00001001
00000000
00000000
00000000
00010010
00000000
00001000
00010000
00001000
00000000
01000000
00000000
10100000
00100000
01000000
00000000
,
00101000
00001000
00010000
00000000
00000110
00000010
00000000
00000000
00010010
00000000
00011000
00010000
00000000
00000000
01000000
00000000
,
01100000
00000000
10000000
00000000
11000000
10000000
00000000
00000000
01001000
00000000
00011000
00010000
00000000
00000000
00000010
00000000
,
00000010
00000000
00001001
00002002
00000000
00000000
00000000
00000000
00000000
00000000
00000000
00000000
00000000
00000000
00000000
00000000
,
00000000
00000000
00000000
00000000
,
00000000
00003003
00000000
00000000
;

//---------------dance-double - ----------------
#NOTES:
     dance-double:
     :
     Hard:
     10:
     0.388666,0.513285,0.364103,0.273078,0.237679,269.000000,233.000000,36.000000,27.000000,0.000000,0.000000,0.388666,0.513285,0.364103,0.273078,0.237679,269.000000,233.000000,36.000000,27.000000,0.000000,0.000000:
00000000
00000000
00000000
00000000
,
00000000
00000000
00000000
00000000
,
00000000
00000000
00000000
00000000
,
00000000
00000000
00000000
00000000
,
10000000
00100000
02000000
00000000
03020000
00000000
00130000
00001000
,
00010000
00000100
00000020
00000000
00000000
00000000
00000031
00000000
,
00000010
00000100
00002000
00000000
00000000
00003010
00010000
00001000
,
00100000
00000000
00000000
00000000
00022000
00000000
00000000
00000000
00033000
00000000
00010000
00001000
02000000
00000000
00000000
00000000
,
03200000
00000000
10300000
01000000
00100000
00011000
00000000
00000000
,
00000001
00000000
00000001
00000010
00000100
00011000
00000000
10000000
,
10000000
00000000
00100000
01000000
00002000
00000000
00000000
00000000
,
00013000
00000200
00000320
00000032
,
00002003
00000000
00003010
00000100
00000002
00000000
00000000
00000013
,
00000100
00000000
00001000
00000000
02020000
00000000
00000000
00000000
00000000
00000000
03030000
00000000
00100000
00000000
00000000
01000000
,
00000000
00100000
20020000
00000000
30030000
01000000
20000000
00000000
,
30100000
00000000
00000000
00000000
00000000
00000000
00000000
00000000
00000000
00000000
01000000
00000000
00100000
00000000
00000000
00000000
00000000
00000000
00100000
00000000
00000000
00000000
00000000
00000000
10000000
00000000
00000000
01000000
00000000
00000000
00000000
00000000
00000000
10000000
00000000
00000000
01000000
00000000
00000000
10000000
00000000
00000000
01000000
00000000
00000000
00100000
00000000
00000000
,
00001000
00100000
00001000
00010000
00000100
00000000
00000010
00000001
00000010
00000000
00001001
00000000
00000000
00000000
00000010
00000000
,
00000100
00000000
00001000
00000000
00000001
00000100
00000010
00000100
00000001
00000000
00010000
00000100
00000010
00000100
00010000
00000000
,
00001000
00000000
01000000
00000000
02200000
00000000
00000000
00000000
03300000
00000000
00100000
01000000
00010000
00000000
00000000
10000000
,
00000000
00000000
11000000
00000000
00001000
01000000
00100000
01000000
00001000
00000000
00100000
01000000
10000000
01000000
00100000
00000000
,
00001000
00000000
01000000
00000000
00011000
00000000
00000010
00000100
00000010
00000000
00001001
00000000
00000000
00000000
00000001
00000000
,
00000100
00000000
00000010
00000000
00010000
00000100
00000010
00000100
00010000
00000000
00000001
00000100
00000010
00000100
00000001
00000000
,
00000010
00000000
00000100
00000000
00011000
00000000
00000000
00000000
00100000
00000000
01000000
10000000
00100000
00000000
01000000
00000000
,
01001000
00000000
00000000
00000000
10000000
01000000
00100000
01000000
10000000
00000000
00001000
01000000
00100000
01000000
00001000
00000000
,
00010000
00000010
00000110
00000000
00000001
00000100
00001000
00000101
,
00000010
00000000
00000000
00000100
00000000
00000000
00010000
00001000
00010000
00001000
00000000
00000000
00100000
00000000
00000000
10000000
00000000
00000000
00100000
00000000
00000000
00001000
00000000
00000000
,
01000000
00100000
10000000
01000000
00100000
00001000
00010000
00000100
,
00000010
00000000
00000000
00000001
00000000
00000000
00010100
00000000
00000000
00000000
00000000
00000000
00011000
00000000
00010000
00000000
00000000
00010000
00001000
00000000
00000000
00100000
00000000
00000000
,
01000000
00000000
00100000
00000000
00011000
00000000
01000000
00100000
01000000
00000000
10010000
00000000
00000000
00000000
00100000
00000000
,
10100000
00000000
00000000
00000000
10000000
00100000
01000000
00000000
20100000
00000000
30001000
00000000
00021000
00000000
00030010
00000000
,
00000210
00000000
00000301
00000000
00001002
00000000
00000013
00000100
00000010
00000000
00000001
00000100
00000010
00000100
00000001
00000000
,
00001001
00000000
00000000
00000000
00010010
00000000
00001000
00010000
00001000
00000000
01000000
00000000
10100000
00100000
01000000
00000000
,
00101000
00001000
00010000
00000000
00000110
00000010
00000000
00000000
00010010
00000000
00011000
00010000
00000000
00000000
01000000
00000000
,
01100000
00000000
10000000
00000000
11000000
10000000
00000000
00000000
01001000
00000000
00011000
00010000
00000000
00000000
00000010
00000000
,
00000010
00000000
00001001
00002002
00000000
00000000
00000000
00000000
00000000
00000000
00000000
00000000
00000000
00000000
00000000
00000000
,
00000000
00000000
00000000
00000000
,
00000000
00003003
00000000
00000000
;
