#TITLE:ファタール;
#SUBTITLE:;
#ARTIST:GEMN;
#TITLETRANSLIT:FATAL;
#SUBTITLETRANSLIT:;
#ARTISTTRANSLIT:;
#GENRE:;
#CREDIT:DigiMindAxel;
#BANNER:FATAL.png;
#BACKGROUND:FATAL-bg.png;
#LYRICSPATH:FATAL.lrc;
#CDTITLE:DigiMindAxel original simfile.png;
#MUSIC:FATAL.ogg;
#OFFSET:-0.753000;
#SAMPLESTART:55.731255;
#SAMPLELENGTH:12.000000;
#SELECTABLE:YES;
#BPMS:0.000000=156.000000
;
#STOPS:
;
#BGCHANGES:-2.000=FATAL.avi=1.000=1=0=0=StretchNoLoop==CrossFade==,
99999=-nosongbg-=1.000=0=0=0 // don't automatically add -songbackground-
;
#KEYSOUNDS:;
#ATTACKS:;

//---------------dance-single - ----------------
#NOTES:
     dance-single:
     :
     Easy:
     4:
     0.207711,0.251347,0.202881,0.135254,0.000000,129.000000,111.000000,18.000000,12.000000,0.000000,0.000000,0.207711,0.251347,0.202881,0.135254,0.000000,129.000000,111.000000,18.000000,12.000000,0.000000,0.000000:
0000
0000
0000
0000
,
0000
0000
0000
0000
,
0000
0000
0000
0000
,
0000
0000
0000
0000
,
2000
0000
0000
0000
,
3002
0000
0000
0000
,
0203
0000
0000
0000
,
0302
0000
0003
0000
,
1000
1000
0001
0001
,
0010
0100
0000
0000
,
1000
1000
0001
0001
,
0100
0010
0000
0000
,
0100
0100
0001
0001
,
1000
0100
0000
0000
,
0010
0000
0001
0000
,
1000
0000
0000
0000
,
2002
0000
0000
0000
,
0000
0000
0000
3003
,
0220
0000
0000
0000
,
0330
0000
0000
0000
,
1001
0000
0000
0000
0100
0000
0000
0110
,
0000
0000
0001
0000
,
1001
0000
0000
0000
0010
0000
0000
0110
,
0000
0000
0100
0000
,
0001
0000
0000
0000
1000
0000
0000
1001
,
0000
0000
0000
0000
,
0010
0000
0000
0000
0001
0000
0000
0110
,
0000
0000
0000
0000
,
1001
0000
1000
0000
,
1000
0000
0010
0010
,
0100
0000
0100
0000
,
0100
0000
0001
0000
,
0010
0000
0100
0000
,
0010
0000
0001
0000
,
1000
0001
1000
0001
,
2002
0000
3003
0000
,
0010
0010
0010
0010
,
0100
0010
0100
0000
,
0001
0001
1000
1000
,
0001
0010
0100
0000
,
0010
0010
0010
0010
,
0100
0010
0100
0000
,
1000
1000
0001
0001
,
0100
0010
0000
0000
,
1001
0000
1000
0000
,
1001
0000
0001
0000
,
0110
0000
0100
0000
,
0110
0000
0010
0000
,
1001
0000
1000
0000
,
1001
0000
0001
0000
,
0110
0000
0000
0000
0000
0000
0000
1001
,
0000
0100
0010
0000
,
0002
0000
0100
0000
,
0103
0000
0000
0000
,
0020
0000
0000
0000
0100
0000
0000
0130
,
0000
0001
0010
0100
;

//---------------dance-single - ----------------
#NOTES:
     dance-single:
     :
     Medium:
     10:
     0.441185,0.507202,0.529745,0.157796,0.000000,274.000000,227.000000,47.000000,14.000000,0.000000,0.000000,0.441185,0.507202,0.529745,0.157796,0.000000,274.000000,227.000000,47.000000,14.000000,0.000000,0.000000:
// measure 0
0000
0000
0000
0000
,  // measure 1
0000
0000
0000
0000
,  // measure 2
0000
0000
0000
0000
,  // measure 3
0000
0000
0000
0000
,  // measure 4
1000
0100
1000
0100
,  // measure 5
0010
0001
1000
0001
,  // measure 6
0100
0010
0100
0001
,  // measure 7
2000
0000
0000
3001
0000
0000
0000
0000
,  // measure 8
1000
0100
1000
0000
0001
1000
0001
0000
,  // measure 9
0010
0001
0200
0000
0300
0000
0000
0000
,  // measure 10
0010
0100
0010
0000
1000
0010
1000
0000
,  // measure 11
0001
0010
0200
0000
0300
0000
0000
0000
,  // measure 12
1000
0100
1000
0000
0001
0100
0001
0000
,  // measure 13
0010
0100
1000
0010
0000
1000
0100
0010
,  // measure 14
0001
1000
0000
0001
0010
0100
1000
0001
,  // measure 15
0000
1000
0100
0010
0001
0000
0100
0000
,  // measure 16
1001
0001
0001
0001
,  // measure 17
1000
1000
1000
1000
,  // measure 18
0110
0010
0010
0010
,  // measure 19
0020
0000
0030
0000
,  // measure 20
1001
0000
1000
0100
0010
0000
0001
2000
,  // measure 21
0000
0000
3001
0010
0000
0100
0000
1000
,  // measure 22
0001
0100
0001
0100
0010
1000
0010
1000
,  // measure 23
0000
0100
0010
0000
0110
0000
0000
0000
,  // measure 24
0001
0010
0100
1000
0100
0000
1000
0100
,  // measure 25
0010
0001
0010
0000
0000
0000
0000
0000
,  // measure 26
0001
0100
0010
1000
0010
0000
1000
0010
,  // measure 27
0100
0001
0100
0000
0000
0000
0000
0000
,  // measure 28
1001
1000
1000
1000
,  // measure 29
0001
0001
0100
0100
,  // measure 30
0001
0001
0001
1000
,  // measure 31
1000
1000
0010
0100
,  // measure 32
0001
0100
0001
0000
1000
0001
1000
0000
,  // measure 33
0100
1000
0100
0000
1000
0001
1000
0000
,  // measure 34
0010
0100
0010
0000
0100
0001
0100
0000
,  // measure 35
2002
0000
0000
3003
1001
0000
0000
0000
,  // measure 36
0101
0110
0101
0110
,  // measure 37
0010
1000
0100
0010
0100
0000
0000
0000
,  // measure 38
1100
0110
1100
0110
,  // measure 39
0100
1000
0010
0100
0001
0000
0000
0000
,  // measure 40
0202
0303
0202
0303
,  // measure 41
0100
0001
0010
0100
1000
0000
0000
0000
,  // measure 42
1010
0110
1010
0110
,  // measure 43
0010
1000
0100
0010
0001
0000
0000
0000
,  // measure 44
1100
0011
1100
0011
,  // measure 45
1100
0110
1001
0000
,  // measure 46
1010
0101
1010
0101
,  // measure 47
1010
0110
1001
0000
,  // measure 48
0011
1100
0011
1100
,  // measure 49
0011
0110
1001
0000
,  // measure 50
0101
0000
1010
0000
0101
0000
0000
1001
,  // measure 51
0000
1000
0001
0010
0100
0000
1000
0000
,  // measure 52
1001
0002
1000
1000
,  // measure 53
0100
0103
0000
0010
,  // measure 54
2000
0100
0100
3100
,  // measure 55
0000
1000
0100
0010
0001
0000
0200
0000
,  // measure 56
0000
0300
0000
0000
;

//---------------dance-single - ----------------
#NOTES:
     dance-single:
     :
     Hard:
     11:
     0.526524,0.570603,0.101440,0.236694,0.067627,327.000000,318.000000,9.000000,21.000000,0.000000,0.000000,0.526524,0.570603,0.101440,0.236694,0.067627,327.000000,318.000000,9.000000,21.000000,0.000000,0.000000:
// measure 0
0000
0000
0000
0000
,  // measure 1
0000
0000
0000
0000
,  // measure 2
0000
0000
0000
0000
,  // measure 3
0000
0000
0000
0000
,  // measure 4
0200
1000
1000
1300
,  // measure 5
0020
0001
0001
0031
,  // measure 6
0200
1000
1000
1300
,  // measure 7
0020
0000
0001
0031
0000
1000
0100
0010
,  // measure 8
0001
0100
0001
1000
0001
0100
0001
1000
,  // measure 9
0100
0001
0200
0000
0300
1000
0100
0010
,  // measure 10
0001
1000
0010
1000
0001
1000
0010
1000
,  // measure 11
0100
0001
0200
0000
0300
1000
0100
0010
,  // measure 12
0001
0100
1000
0100
0010
1000
0001
1000
,  // measure 13
0100
0001
0100
1000
0000
0100
0010
0001
,  // measure 14
1000
1000
0000
0010
0100
0001
1000
1000
,  // measure 15
0000
0100
0010
0001
1000
1000
0010
0000
,  // measure 16
1001
0000
0001
0000
0001
0000
1000
1000
,  // measure 17
0001
0000
0001
0001
1000
0000
1000
0000
,  // measure 18
0110
0000
0010
0000
0010
0000
0100
0100
,  // measure 19
0002
0000
0003
0000
,  // measure 20
0100
0001
1000
0100
0010
0001
1000
1001
,  // measure 21
0000
0010
0100
0010
1000
0200
0000
1300
,  // measure 22
0001
0010
1000
0010
0001
1000
0010
1001
,  // measure 23
0000
0100
0010
0100
0002
0000
0000
0003
,  // measure 24
1000
0010
0001
0010
1000
0000
1000
0010
,  // measure 25
0001
0010
2000
0000
0000
0000
3002
0000
,  // measure 26
1003
0100
0001
0100
1000
0000
1000
0100
,  // measure 27
0001
0100
2000
0000
0000
0000
3000
0000
,  // measure 28
0001
0100
0001
0100
1000
0100
0010
1000
,  // measure 29
0001
0010
0100
1000
0010
0000
0010
0000
,  // measure 30
1000
0100
1000
0100
0001
0100
0010
0001
,  // measure 31
1000
0010
0100
0001
2000
0000
0000
0000
,  // measure 32
3001
0010
0001
0010
0100
1000
0100
1000
,  // measure 33
0010
0100
0010
0100
0001
0010
0100
1000
,  // measure 34
0001
0100
1000
0100
0001
0010
0100
1000
,  // measure 35
1001
0000
0000
0001
0000
0000
0001
0000
2200
0000
0000
0000
3300
0000
0000
0000
,  // measure 36
1001
0000
1000
0100
0001
0000
0001
0100
,  // measure 37
1000
0001
0100
0010
0100
0000
0100
0010
,  // measure 38
1000
0100
0001
0100
1000
0001
0010
1000
,  // measure 39
0010
0000
0001
0000
1000
0000
0100
0000
0010
0000
0000
0000
0001
1000
0001
1000
,  // measure 40
0002
0000
0013
0100
2000
0000
3100
0010
,  // measure 41
0001
1000
0100
0010
0100
0000
0100
0010
,  // measure 42
0001
0100
1000
0100
0001
1000
0010
0001
,  // measure 43
0010
0000
1000
0000
0100
0000
0010
0000
0000
0000
0001
0000
0100
0000
0000
0100
,  // measure 44
0000
0000
1000
0000
0100
0000
0000
0100
0000
0000
0001
0000
0100
0000
0000
0100
,  // measure 45
0000
0000
1000
0000
0100
0000
0001
0000
0000
0000
1000
0000
0010
0000
0000
0010
,  // measure 46
0000
0000
0001
0000
0010
0000
0000
0010
0000
0000
1000
0000
0010
0000
0000
0010
,  // measure 47
0000
0000
0001
0000
0010
0000
1000
0000
0000
0000
0001
0000
0100
0000
0000
0100
,  // measure 48
0000
0000
1000
0000
0100
0000
0000
0100
0000
0000
0001
0000
0100
0000
0000
0100
,  // measure 49
0000
1000
0100
0001
0000
0010
0100
1000
,  // measure 50
0000
0001
0010
1000
0010
0001
0000
1001
,  // measure 51
0000
0100
0010
0200
0000
0000
0300
0000
,  // measure 52
1001
0000
1000
0100
0010
0001
0100
0000
,  // measure 53
0100
0001
2000
0000
0000
0000
3001
0010
,  // measure 54
1000
0010
0001
1000
0010
0000
0010
2000
,  // measure 55
0000
3001
0100
1000
0100
0000
0002
0000
,  // measure 56
0000
0003
0000
0000
;

//---------------dance-single - ----------------
#NOTES:
     dance-single:
     :
     Challenge:
     14:
     0.663388,0.919304,0.281779,0.270508,0.377584,412.000000,387.000000,25.000000,24.000000,0.000000,0.000000,0.663388,0.919304,0.281779,0.270508,0.377584,412.000000,387.000000,25.000000,24.000000,0.000000,0.000000:
// measure 0
0000
0000
0000
0000
,  // measure 1
0000
0000
0000
0000
,  // measure 2
0000
0000
0000
0000
,  // measure 3
0000
0000
0000
0000
,  // measure 4
1002
0000
1000
0000
1000
1000
1003
0000
,  // measure 5
0210
0000
0010
0000
0010
0010
0310
0000
,  // measure 6
1002
0000
1000
0000
1000
1000
1003
0000
,  // measure 7
0001
0000
0100
0010
0100
0000
0110
0000
0000
0000
1000
0000
0010
0000
0100
0000
,  // measure 8
0001
0000
1000
0100
1000
0000
0001
0000
1000
0000
0001
0100
0001
0000
1000
0000
,  // measure 9
0100
0000
0010
0000
0001
0000
0100
0000
0100
0000
1000
0010
0100
0000
0010
0000
,  // measure 10
1000
0000
0001
0100
0001
0000
1000
0000
0001
0000
1000
0100
1000
0000
0001
0000
,  // measure 11
0100
0000
0010
0000
1000
0000
0100
0000
0100
0000
0001
0010
0100
0000
0010
0000
,  // measure 12
0001
0000
1000
0100
1000
0000
0001
0100
0001
0000
1000
0100
1000
0000
0100
0000
,  // measure 13
0010
0000
0001
1000
0001
0000
0100
0000
0100
0000
1000
0010
0100
0000
0010
0000
,  // measure 14
1000
0000
0001
0010
0001
0000
1000
0010
1000
0000
0001
0010
0001
0000
0000
0000
,  // measure 15
1001
0100
0010
0001
0201
0000
0020
0330
,  // measure 16
1002
0000
0100
0000
1000
0000
0100
0100
,  // measure 17
0100
0000
1000
1000
1000
0000
0103
0000
,  // measure 18
2001
0000
0100
0000
0001
0000
0100
0100
,  // measure 19
0200
0000
3300
0000
,  // measure 20
1001
0000
0010
0000
0100
0000
1000
0000
0001
0000
1000
0010
1000
0000
1002
0000
,  // measure 21
0000
0000
0010
0000
0010
0000
0010
0000
0013
0000
0000
0000
0000
0000
0100
1000
,  // measure 22
0001
0000
0100
0010
0100
0000
0001
0100
0001
0000
0010
0000
0100
0000
2001
0000
,  // measure 23
0000
0010
0010
0010
3010
0000
0000
0000
,  // measure 24
0100
0001
0010
0100
1000
0000
0010
1000
,  // measure 25
0100
0010
0001
0100
0001
0000
0000
0000
,  // measure 26
0100
0001
0010
0100
1000
0000
0010
1000
,  // measure 27
0100
0010
0001
0100
0001
0000
0000
0000
,  // measure 28
1000
0000
0000
1000
0001
0000
0001
0000
0010
0000
0000
0001
1000
0000
1000
0000
,  // measure 29
0010
0000
0000
1000
0001
0000
0001
0000
0010
0000
0000
0000
0010
0000
0000
0000
,  // measure 30
0001
0000
0000
0001
1000
0000
1000
0000
0100
0000
0000
1000
0001
0000
0001
0000
,  // measure 31
0100
0000
0000
0001
1000
0000
1000
0000
0100
0000
0000
0000
0000
0000
0000
0000
,  // measure 32
1000
0100
1000
0000
0001
0010
0001
0000
1000
0100
1000
0000
0001
0010
0001
0000
,  // measure 33
0100
0010
0100
0000
0001
0100
0001
0000
1000
0010
1000
0000
0010
0100
0010
0000
,  // measure 34
1000
0100
1000
0100
0010
0001
0010
0001
1000
0010
1000
0010
0100
0001
0100
0001
,  // measure 35
1000
0000
0000
1001
0000
0000
0001
0000
2002
0000
0000
0000
3003
0000
0000
0000
,  // measure 36
0001
0000
0000
1000
0100
1000
0100
0000
0000
0010
0000
0000
0002
0000
0000
0000
0000
0000
1003
0000
0000
0010
0000
0000
,  // measure 37
1000
0100
0001
0100
1000
0000
0100
0010
,  // measure 38
0001
0000
1000
0010
1000
0000
0001
0100
0001
0000
0010
0000
0100
0000
1000
0000
,  // measure 39
0001
0000
0000
0000
0000
0000
1000
0000
0010
0000
1000
0000
0010
0000
0000
0000
0000
0000
0100
0000
0000
0000
0000
0000
0002
0000
0000
0000
0000
0000
0000
0000
0000
0000
0000
0000
1003
0000
0000
0001
0000
0000
1000
0000
0000
0001
0000
0000
,  // measure 40
2000
0000
3100
0010
0002
0000
0103
0010
,  // measure 41
1000
0000
0000
0000
0000
0000
0001
0000
0000
0010
0000
0000
0001
0000
0000
0000
0000
0000
1000
0000
0000
0100
0000
0000
1000
0000
0000
0000
0000
0000
0001
0000
0100
0000
0001
0000
0100
0000
0000
0000
0000
0000
0010
0000
0000
0000
0000
0000
,  // measure 42
1000
0000
0000
0001
1000
0001
1000
0000
0000
0100
0000
0000
0010
0000
0000
0001
1000
0001
1000
0000
0000
0010
0000
0000
,  // measure 43
0100
0000
0001
0000
1000
0000
0010
0000
2000
0000
0000
0000
3001
0000
0000
0101
,  // measure 44
0000
0000
1000
0000
0100
0000
0000
0101
0000
0000
1000
0000
0100
0000
0000
0101
,  // measure 45
0000
0000
1000
0000
0100
0000
0010
0000
0010
0000
0001
0000
0100
0000
0000
1100
,  // measure 46
0000
0000
0001
0000
0100
0000
0000
1100
0000
0000
0001
0000
0100
0000
0000
1100
,  // measure 47
0000
0000
0001
0000
0100
0000
0010
0000
0010
0000
1000
0000
0001
0000
0000
0110
,  // measure 48
0000
0000
1000
0000
0001
0000
0000
0110
0000
0000
1000
0000
0001
0000
0000
0110
,  // measure 49
0000
1000
0100
0010
0010
0001
0100
0001
,  // measure 50
1001
0100
0010
1000
0100
0010
0000
1002
,  // measure 51
0000
0100
0100
0103
0000
0000
0000
0000
,  // measure 52
1002
0000
0100
0100
0103
0010
2000
0000
,  // measure 53
3100
0010
0002
0000
0103
0100
0010
0010
,  // measure 54
1000
0100
0001
0100
1000
0001
0010
0002
,  // measure 55
0000
1003
0010
0100
0002
0000
2000
0000
,  // measure 56
0000
3003
0000
0000
;

//---------------dance-single - ----------------
#NOTES:
     dance-single:
     :
     Beginner:
     1:
     0.095000,0.185551,0.135254,0.000000,0.000000,59.000000,47.000000,12.000000,0.000000,0.000000,0.000000,0.095000,0.185551,0.135254,0.000000,0.000000,59.000000,47.000000,12.000000,0.000000,0.000000,0.000000:
0000
0000
0000
0000
,
0000
0000
0000
0000
,
0000
0000
0000
0000
,
0000
0000
0000
0000
,
1000
0000
0000
0000
,
0100
0000
0000
0000
,
0010
0000
0000
0000
,
0001
0000
0000
0000
,
1000
0000
1000
0000
,
1000
0000
0000
0000
,
0001
0000
0001
0000
,
0001
0000
0000
0000
,
1000
0000
1000
0000
,
1000
0000
0000
0000
,
0001
0000
0001
0000
,
0001
0000
0000
0000
,
0100
0000
0000
0000
,
0000
0000
0000
0000
,
0010
0000
0000
0000
,
0000
0000
0000
0000
,
1001
0000
0000
0000
,
0000
0000
0000
0000
,
1001
0000
0000
0000
,
0000
0000
0000
0000
,
1001
0000
0000
0000
,
0000
0000
0000
0000
,
1001
0000
0000
0000
,
0000
0000
0000
0000
,
0001
0000
0000
0000
,
0100
0000
0000
0000
,
0010
0000
0000
0000
,
1000
0000
0000
0000
,
0001
0000
0000
0000
,
0001
0000
0000
0000
,
0001
0000
0000
0000
,
0000
0000
0000
0000
,
1001
0000
0000
0000
,
1000
0000
0000
0000
,
0010
0000
0000
0000
,
1000
0000
0000
0000
,
0001
0000
0000
0000
,
0100
0000
0000
0000
,
0001
0000
0000
0000
,
0000
0000
0000
0000
,
1001
0000
0000
0000
,
1001
0000
0000
0000
,
0110
0000
0000
0000
,
0110
0000
0000
0000
,
1001
0000
0000
0000
,
1001
0000
0000
0000
,
0110
0000
0000
0000
,
0000
0000
0000
0000
,
0100
0000
0000
0000
,
0001
0000
0000
0000
,
0100
0000
0000
0000
0000
0000
0000
0010
;
