#TITLE:Explore Every Ave.;
#SUBTITLE:;
#ARTIST:BEMANI Sound Team "SYUNN";
#TITLETRANSLIT:;
#SUBTITLETRANSLIT:;
#ARTISTTRANSLIT:SYUNN;
#GENRE:;
#CREDIT:DigiMindAxel;
#BANNER:Explore Every Ave..png;
#BACKGROUND:Explore Every Ave.-bg.png;
#LYRICSPATH:;
#CDTITLE:jubeat.png;
#MUSIC:Explore Every Ave..ogg;
#OFFSET:-0.330000;
#SAMPLESTART:71.427299;
#SAMPLELENGTH:12.000000;
#SELECTABLE:YES;
#BPMS:0.000000=135.000000
;
#STOPS:
;
#BGCHANGES:;
#KEYSOUNDS:;
#ATTACKS:;

//---------------dance-single - ----------------
#NOTES:
     dance-single:
     :
     Easy:
     4:
     0.208679,0.271456,0.077907,0.146075,0.000000,150.000000,142.000000,8.000000,15.000000,0.000000,0.000000,0.208679,0.271456,0.077907,0.146075,0.000000,150.000000,142.000000,8.000000,15.000000,0.000000,0.000000:
0000
0000
0000
0000
,
0000
0000
0000
0000
,
0000
0000
0000
0000
,
0000
0000
0000
0000
,
1000
0010
0000
0010
,
0000
0100
0000
0100
,
0000
0001
0000
0001
,
0020
0230
2300
3001
,
1001
1000
0100
0010
,
0001
0001
1000
1000
,
0010
0100
0001
1000
,
0100
0100
0010
0010
,
0001
0100
0010
0100
,
0001
0001
1000
1000
,
0100
0010
0001
1000
,
0010
0010
0110
0000
,
0001
0000
1000
0000
0100
0000
0000
1000
,
0000
0010
0100
0001
,
2000
0000
3002
0000
,
0003
0010
0100
1000
,
0001
0000
1000
0000
0010
0000
0000
1000
,
0000
0100
0010
0001
,
1000
0001
0100
0001
,
2000
0000
0000
0000
,
3002
0000
0000
0000
,
0203
0000
0000
0000
,
0320
0000
0000
0000
,
0230
0000
0000
0000
,
0302
0000
0000
0000
,
2003
0000
0000
0000
,
3200
0000
0000
0000
,
0320
0000
0000
0000
,
0031
0000
0001
0000
,
1000
0000
1000
0000
,
0100
0000
0100
0000
,
0010
0000
0010
0000
,
0001
0000
0001
0000
,
0100
0000
0100
0000
,
0010
0000
0010
0000
,
1000
0000
1000
0000
,
0001
0010
0100
1000
,
0001
0001
1000
1000
,
0010
0100
0001
1000
,
0010
0010
0100
0100
,
0001
0010
0100
1000
,
0001
0001
0100
0100
,
0001
1000
0100
0010
,
0002
0000
1003
0000
,
0100
0000
0110
0000
,
1000
0000
1001
0000
,
0010
0000
0110
0000
,
0001
0000
1001
0000
,
0010
0010
0110
0000
,
1000
1000
1001
0000
,
0100
0100
0010
0010
,
0001
0001
0010
0100
;

//---------------dance-single - ----------------
#NOTES:
     dance-single:
     :
     Medium:
     7:
     0.350580,0.380890,0.214243,0.516132,0.004869,252.000000,230.000000,22.000000,53.000000,0.000000,0.000000,0.350580,0.380890,0.214243,0.516132,0.004869,252.000000,230.000000,22.000000,53.000000,0.000000,0.000000:
// measure 0
0000
0000
0000
0000
,  // measure 1
0000
0000
0000
0000
,  // measure 2
0000
0000
0000
0000
,  // measure 3
0000
0000
0000
0000
,  // measure 4
0011
1000
0010
0100
,  // measure 5
0001
0010
0100
1000
,  // measure 6
0001
0100
1000
0100
,  // measure 7
0001
0010
0100
1000
0002
0000
0103
0000
,  // measure 8
0001
1000
0000
0100
0010
0100
1000
0000
,  // measure 9
0010
0100
0000
0001
2000
0000
3100
0000
,  // measure 10
0010
0001
0000
1000
0010
0100
0010
0000
,  // measure 11
0200
0000
0301
0000
1000
0100
1000
0000
,  // measure 12
0010
0100
0000
0001
1000
0100
1000
0000
,  // measure 13
0100
0010
0000
0001
2000
0000
3010
0000
,  // measure 14
0100
0001
0000
1000
0001
0010
0001
0000
,  // measure 15
0011
0110
2200
3300
,  // measure 16
1001
0000
0100
0000
0100
0001
0010
0100
,  // measure 17
0000
1000
1000
0000
0100
0010
0001
0000
,  // measure 18
2002
0000
0000
3003
0220
0000
0000
0330
,  // measure 19
0000
0001
0010
0000
0100
1000
0100
1000
,  // measure 20
0001
0000
0101
0000
0010
1000
0100
0010
,  // measure 21
0000
0001
0001
0000
0100
0010
1000
0000
,  // measure 22
0001
1000
0000
0100
0010
0000
0001
1000
,  // measure 23
0200
0000
0000
0300
,  // measure 24
2002
0000
0000
3003
,  // measure 25
0000
1000
0200
0000
0000
0000
0000
0300
,  // measure 26
0000
0010
0001
0010
0200
0000
2300
0000
,  // measure 27
3020
0000
0000
0030
,  // measure 28
1001
0002
0000
0000
,  // measure 29
0203
0000
0000
0000
,  // measure 30
0300
0001
2000
0000
3200
0000
0320
0000
,  // measure 31
0032
2003
3020
2030
,  // measure 32
3002
0010
0000
0023
,  // measure 33
0230
0000
2300
0000
3001
0100
0000
0010
,  // measure 34
1000
0000
0100
0010
0000
0001
0010
0100
,  // measure 35
2000
3002
0203
2300
,  // measure 36
3100
0001
0010
0100
,  // measure 37
0010
0001
0100
1000
,  // measure 38
0100
0001
0010
0100
,  // measure 39
1000
0010
0100
0001
2000
0000
3100
0000
,  // measure 40
0010
0001
0000
0010
0100
1000
0100
0000
,  // measure 41
0010
0001
0000
1000
0020
0000
0130
0000
,  // measure 42
0001
0100
0000
0010
1000
0100
1000
0000
,  // measure 43
0200
0000
0310
0000
0001
1000
0100
0000
,  // measure 44
0010
0001
0000
1000
0010
0100
0010
0000
,  // measure 45
1000
0100
0000
0010
0200
0000
0310
0000
,  // measure 46
0001
0100
0000
0001
1000
0100
1000
0000
,  // measure 47
0200
0000
0310
0000
,  // measure 48
0101
0110
0202
0303
,  // measure 49
1000
0100
1000
0001
2002
0000
3003
0000
,  // measure 50
1100
0110
2200
3300
,  // measure 51
0010
0001
0100
0001
2002
0000
3003
0000
,  // measure 52
0101
0110
0202
0303
,  // measure 53
0010
1000
0100
0010
2002
0000
3003
0000
,  // measure 54
2000
0000
3020
0000
0130
0001
0010
0100
,  // measure 55
0000
0000
1000
0000
0000
1000
0000
0000
0001
0000
0010
0000
0100
0000
1000
0000
;

//---------------dance-single - ----------------
#NOTES:
     dance-single:
     :
     Hard:
     12:
     0.548129,0.571336,0.409010,0.185028,0.447963,394.000000,352.000000,42.000000,19.000000,0.000000,0.000000,0.548129,0.571336,0.409010,0.185028,0.447963,394.000000,352.000000,42.000000,19.000000,0.000000,0.000000:
// measure 0
0000
0000
0000
0000
,  // measure 1
0000
0000
0000
0000
,  // measure 2
0000
0000
0000
0000
,  // measure 3
0000
0000
0000
0000
,  // measure 4
1001
0000
0000
1000
0000
0000
0000
0000
0000
0000
0010
0000
0000
0010
0000
0000
,  // measure 5
1000
0000
0000
0100
0000
0000
0010
0000
0000
0000
0001
0000
0000
0001
0000
0000
,  // measure 6
1000
0000
0000
1000
0000
0000
0000
0000
0000
0000
0010
0000
0000
0010
0000
0000
,  // measure 7
2000
0000
0000
3002
0000
0000
1003
0010
0100
0010
0000
0000
,  // measure 8
1001
0000
1000
0000
0000
0000
0001
0000
0100
0001
0000
0010
0000
0100
0000
0000
,  // measure 9
1000
0000
1000
0000
0000
0000
0101
0000
0000
0101
0000
0000
0101
0000
1000
0000
,  // measure 10
0001
0000
0001
0000
0000
0000
1000
0000
0010
1000
0000
0100
0000
0010
0000
0000
,  // measure 11
0001
0000
0000
0000
0100
0000
0000
0000
0001
0000
0000
0000
1000
0000
0000
0000
0000
0000
1000
0000
0000
0000
0000
0000
0000
0000
0000
0010
0000
0000
0100
0000
0000
0000
0000
0000
0010
0000
0000
0000
0000
0000
0010
0000
0000
0000
0000
0000
,  // measure 12
1000
0000
1000
0000
0000
0000
0001
0000
0100
0001
0000
0010
0000
0100
0000
0000
,  // measure 13
1000
0000
1000
0000
0000
0000
0101
0000
0000
0101
0000
0000
0101
0000
1000
0000
,  // measure 14
0001
0000
0001
0000
0000
0000
0100
0000
0010
1000
0000
0100
0000
0010
0000
0000
,  // measure 15
0001
0000
0100
0000
0001
0000
1000
0000
0000
1000
0000
0000
2020
0000
0000
0000
0000
0000
3030
0000
0000
0000
0000
0000
,  // measure 16
1001
0000
0000
0000
1100
0000
0000
0000
0010
0000
0000
0010
0000
0000
1001
0000
,  // measure 17
0000
0100
0101
0010
0100
1000
1010
0010
,  // measure 18
1001
0000
0000
0001
0000
0000
0001
0000
1100
0000
0000
1000
0000
0000
1000
0000
,  // measure 19
0000
0010
1010
0100
0010
0001
0100
0010
,  // measure 20
0101
0000
0000
0000
1001
0000
0000
0000
0010
0000
0000
0010
0000
0000
1001
0000
,  // measure 21
0000
0100
1100
0010
0001
1000
1010
0010
,  // measure 22
1001
0000
0011
0100
1000
0010
0100
0001
,  // measure 23
2001
0000
0100
0000
0000
0100
0000
0000
0010
0000
0010
0000
0010
0000
3010
0000
,  // measure 24
2002
0000
0000
3003
,  // measure 25
0000
0002
0200
0000
0000
0000
0303
0000
,  // measure 26
0000
1000
0010
0010
0100
0100
0002
0000
,  // measure 27
1003
0100
0010
0001
0100
0100
0100
0010
,  // measure 28
0100
2002
0000
3003
,  // measure 29
1001
0000
0000
0000
0000
0000
0000
0000
1001
0000
0000
0000
0000
0000
0000
0000
0000
0000
1000
0000
0000
0000
0000
0000
0000
0000
0000
1000
0000
0000
0000
0000
0000
0000
0000
0000
0010
0000
0000
0000
0000
0000
0000
0000
0000
0010
0000
0000
,  // measure 30
0000
0100
0010
1000
0100
0001
0100
1000
,  // measure 31
0001
0000
0000
0001
0000
0000
0100
0000
0010
0000
1000
0000
0100
0000
0010
0000
,  // measure 32
2001
0000
0000
3002
,  // measure 33
0023
0000
0000
0000
0230
0000
0000
0000
1300
0010
1000
0001
0000
0000
0001
0010
,  // measure 34
0001
1000
0000
0000
1000
0100
1000
0001
0000
0000
0001
0100
0001
0000
1000
0000
,  // measure 35
0100
0100
1000
0010
0001
0010
1000
1000
,  // measure 36
0010
0000
0100
0100
0001
0000
0010
0100
,  // measure 37
1000
0010
0001
0010
1000
0000
0001
0100
,  // measure 38
1000
0100
0001
0010
0100
1000
0001
0010
,  // measure 39
0100
0000
0000
0010
0000
0000
0100
0000
0000
0010
0000
0000
0100
0000
0000
0000
0000
0000
1000
0000
0000
0000
0000
0000
0001
0000
0000
0000
0100
0000
0000
0000
0001
0000
0000
0000
1000
0000
0000
0000
0000
0000
0000
0000
0000
0000
0000
0000
,  // measure 40
1100
0000
0100
0000
0000
0000
1000
0000
0001
0100
0000
0010
0000
0010
1000
0000
,  // measure 41
1001
0000
0001
0000
0000
0000
0110
0000
0000
0110
0000
0000
1000
0010
0000
0000
,  // measure 42
0101
0000
0001
0000
0000
0000
1000
0000
0001
0010
0000
0100
0000
0010
0001
0000
,  // measure 43
1000
0000
0000
0000
0010
0000
0000
0000
0100
0000
0000
0000
0001
0000
0000
0000
0000
0000
0001
0000
0000
0000
0000
0000
0000
0000
0000
1000
0000
0000
0000
0000
0000
0000
0000
0000
1000
0000
0000
0000
0000
0000
0010
0000
0000
0000
0000
0000
,  // measure 44
1001
0000
0001
0000
0000
0000
1000
0000
0001
0100
0000
0010
0000
0100
0001
0000
,  // measure 45
1100
0000
1000
0000
0000
0000
0110
0000
0000
0110
0000
0000
0001
0100
0000
0000
,  // measure 46
1010
0000
0010
0000
0000
0000
1000
0000
0001
0010
0000
0100
0000
0010
0001
0000
,  // measure 47
1000
0010
0100
0002
0000
0000
1003
0000
0000
0000
0000
0000
,  // measure 48
0001
0100
0000
0000
1000
0100
0000
0000
0001
1000
0001
0000
0010
0000
0100
0000
,  // measure 49
1000
0010
0000
1000
0010
0000
0100
0000
1001
0000
0010
0000
0100
0000
1000
0000
,  // measure 50
0001
0100
0000
0000
1000
0100
0000
0000
0001
1000
0001
0000
0100
0000
0010
0000
,  // measure 51
0000
0000
1000
0100
0000
1000
0100
0000
1001
0000
0010
0000
0100
0000
1000
0000
,  // measure 52
0001
0100
0000
0000
1000
0100
0000
0000
0001
1000
0001
0000
0010
0000
0100
0000
,  // measure 53
0000
0000
0010
0001
0000
0010
0001
0000
0100
0010
0100
0010
1000
0000
1000
0000
,  // measure 54
0002
0000
0000
0000
2003
0000
0000
0000
3001
0010
0001
0000
1000
0100
1000
0001
,  // measure 55
0000
0000
0100
0000
0000
0100
0000
0000
0001
0010
0001
0010
0100
1000
0100
0000
;

//---------------dance-single - ----------------
#NOTES:
     dance-single:
     :
     Challenge:
     15:
     0.809673,0.870607,0.642730,0.564823,1.022525,582.000000,516.000000,66.000000,58.000000,0.000000,0.000000,0.809673,0.870607,0.642730,0.564823,1.022525,582.000000,516.000000,66.000000,58.000000,0.000000,0.000000:
// measure 0
0000
0000
0000
0000
,  // measure 1
0000
0000
0000
0000
,  // measure 2
0000
0000
0000
0000
,  // measure 3
0000
0000
0000
0000
,  // measure 4
1001
0000
0000
0001
0100
0000
0000
0000
0000
0000
1001
0000
0000
1001
0000
0000
,  // measure 5
1000
0000
0000
1000
0010
0000
0100
0000
0000
0000
1001
0000
0000
1001
0000
0000
,  // measure 6
0001
0000
0000
0001
0010
0000
0000
0000
0000
0000
1001
0000
0000
1001
0000
0000
,  // measure 7
1000
0000
0010
0100
0010
0100
0001
0000
0010
0000
0100
0000
1000
0000
1000
0000
0001
0000
0101
0000
0000
0000
0000
0000
,  // measure 8
1001
0000
1000
0000
1100
0000
0002
0000
1003
0010
0000
0010
0000
0100
0001
0000
,  // measure 9
1000
0100
1000
0000
1001
0000
0000
0110
0000
0000
0110
0000
0000
0010
0100
0000
,  // measure 10
1001
0000
1000
0000
1010
0000
0002
0000
1003
0100
0000
0100
0000
0010
0001
0000
,  // measure 11
2000
0000
0000
0000
3020
0000
0000
0000
0230
0000
0000
0000
0302
0000
0000
0000
0000
0000
1003
0000
0000
0000
0000
0000
0000
0000
0000
0001
0000
0000
0100
0000
0000
0000
0000
0000
0001
0000
0000
0100
0000
0000
0010
0000
0000
0000
0000
0000
,  // measure 12
1001
0000
0001
0000
0011
0000
2000
0000
3001
0100
0000
0100
0000
0010
1000
0000
,  // measure 13
0001
0010
0001
0000
1001
0000
0000
0110
0000
0000
0110
0000
0000
0100
0010
0000
,  // measure 14
1001
0000
1000
0000
1010
0000
0002
0000
1003
0100
0000
0100
0000
0010
0001
0000
,  // measure 15
2000
0000
3020
0000
0230
0000
0302
0000
0000
1003
0000
0000
0220
0000
0000
0000
0000
0000
0330
0000
0000
0000
0000
0000
,  // measure 16
2002
0000
3003
0000
0001
0100
0010
1000
0001
0010
0100
0010
0001
0000
1001
0000
,  // measure 17
0000
0000
0110
0000
1001
0100
0010
0001
0100
1000
0100
0001
1000
0000
1100
0000
,  // measure 18
1001
0000
0000
0101
0000
0000
1010
0000
1000
0100
0010
0001
0010
0100
1000
0000
,  // measure 19
0000
0000
0110
0000
1001
0010
0100
1000
0010
0001
0010
1000
0100
0010
0001
0000
,  // measure 20
2002
0000
3003
0000
0220
0000
0330
0000
0010
1000
0100
0001
0100
0000
1001
0000
,  // measure 21
0000
0000
0110
0000
1001
0100
0010
0001
1000
0100
0100
0001
1000
0000
1010
0000
,  // measure 22
2002
0000
3003
0000
0220
0000
0330
0000
1000
0010
0001
0010
1000
0000
1010
0000
,  // measure 23
1001
0000
0010
0001
0000
0010
0001
0000
0200
0000
0320
0000
2030
0000
3100
0000
,  // measure 24
1001
0000
0000
0001
0000
1000
0000
0000
0100
0000
0000
0010
0000
0000
0001
0200
0000
0000
0000
0000
0000
0300
0000
0000
,  // measure 25
0000
0000
0000
0001
0000
0000
1000
0002
0000
0000
0000
0000
0000
0000
1003
0000
0010
0000
0100
0000
0010
0000
1000
0000
,  // measure 26
0000
0000
0000
0001
0000
0000
0001
0000
0001
0010
0000
0100
1000
0000
0000
1000
0000
0000
0010
0000
0100
0000
0010
0000
,  // measure 27
1000
0000
0000
0001
0000
0100
0000
0000
0001
1000
0000
0100
1000
0000
0100
1000
0000
0010
0100
0000
0001
0010
0000
0000
,  // measure 28
0100
0000
0000
1002
0000
0000
0000
0000
0000
1003
0010
0100
,  // measure 29
0001
0000
0000
0000
0000
0000
1000
0000
0001
0000
1000
0000
0000
0000
0000
0000
0000
0000
0100
0000
0000
0000
0000
0000
0100
0000
0000
1000
0000
0000
0000
0000
0000
0000
0000
0000
0010
0000
0000
0000
0000
0000
0010
0000
0000
0100
0000
0000
,  // measure 30
0000
0000
0001
0000
0001
0010
0100
1000
0100
0010
0001
0100
0010
0100
0001
0000
,  // measure 31
1000
0000
0010
0100
0000
0010
0100
0000
0001
1000
0100
0010
0001
0010
0100
1000
,  // measure 32
0002
0100
0000
0203
,  // measure 33
0320
0000
0000
0000
2030
0000
0000
0000
3001
0100
0010
0200
0000
0000
0301
0010
,  // measure 34
0100
2000
0000
0000
3100
0010
0001
0200
0000
0000
0310
1000
0001
0010
0001
1000
,  // measure 35
0010
0100
0001
0000
1000
0100
1000
0001
0100
0010
1000
0010
0100
0001
0100
0002
,  // measure 36
0000
0000
1003
0000
0100
1000
0100
2000
0000
0000
3001
0000
0010
0100
0010
0100
,  // measure 37
1000
0010
0100
0000
1001
0000
0010
0100
0002
0000
0000
0000
0003
1000
0100
1000
,  // measure 38
0001
0010
1000
0010
0001
0100
1000
0100
0001
0010
1000
0010
0001
0100
0010
1000
,  // measure 39
0100
0000
0010
0100
0010
0100
1000
0000
0010
0000
0100
0000
0001
0000
0001
0000
1000
0000
1100
0000
0000
0000
0000
0000
,  // measure 40
1001
0000
0101
0000
1001
0000
2000
0000
3010
0100
0000
0100
0001
0010
0100
0000
,  // measure 41
1001
0000
1000
0001
0100
0000
0000
0110
0000
0000
0110
0000
0000
0010
0100
0000
,  // measure 42
1001
0000
1010
0000
1001
0000
2000
0000
3100
0010
0000
0010
0100
1000
0001
0000
,  // measure 43
2000
0000
0000
0000
3200
0000
0000
0000
0302
0000
0000
0000
0203
0000
0000
0000
0000
0000
1300
0000
0000
0000
0000
0000
0010
0000
0000
0100
0000
0000
0000
0000
0000
0010
0000
0000
0100
0000
0000
0001
0000
0000
1000
0000
0000
0000
0000
0000
,  // measure 44
1001
0000
0101
0000
1001
0000
2000
0000
3100
0010
0000
0001
0100
0010
1000
0000
,  // measure 45
1001
0000
0001
1000
0010
0000
0000
0110
0000
0000
0110
0000
0000
0100
0010
0000
,  // measure 46
1001
0000
1100
0000
1001
0000
0002
0000
0103
0010
0000
0100
0010
1000
0001
0000
,  // measure 47
2000
0000
3020
0000
0230
0000
0302
0000
0000
1003
0000
0000
2200
0000
0000
0000
0000
0000
0000
0000
0000
3300
0000
0000
,  // measure 48
1000
1000
0010
0000
0100
0100
0001
0000
0010
0100
1000
0001
0010
0100
1000
0000
,  // measure 49
0001
0001
1000
0010
0010
1000
0001
0000
1000
1000
0001
0100
0100
0001
1000
0000
,  // measure 50
0001
0001
0010
0000
0100
0100
1000
0000
0010
0100
0001
1000
0010
0100
0002
0000
,  // measure 51
0003
0000
0000
0000
0000
0000
0010
0000
0000
0100
0000
0000
0000
0000
0000
0010
0000
0000
0100
0000
0000
0000
0000
0000
1000
0000
0010
0000
1000
0000
0001
0000
0010
0000
0001
0000
0100
0000
0010
0000
0100
0000
0010
0000
0000
0000
0000
0000
,  // measure 52
1000
1000
0100
0000
0010
0010
0001
0000
0100
0010
1000
0010
0100
0001
2000
0000
,  // measure 53
3000
0000
0100
0010
0001
0100
0010
1000
0100
0100
0001
0010
0100
1000
0010
0000
,  // measure 54
0200
0001
0300
0000
0020
1000
0030
0000
1000
0010
0001
0010
0100
0001
1000
0001
,  // measure 55
0000
0000
0010
0100
0000
0010
0100
0000
1000
1000
0010
0010
0100
0100
0001
0000
;

//---------------dance-single - ----------------
#NOTES:
     dance-single:
     :
     Beginner:
     2:
     0.100166,0.162143,0.116860,0.000000,0.000000,72.000000,60.000000,12.000000,0.000000,0.000000,0.000000,0.100166,0.162143,0.116860,0.000000,0.000000,72.000000,60.000000,12.000000,0.000000,0.000000,0.000000:
0000
0000
0000
0000
,
0000
0000
0000
0000
,
0000
0000
0000
0000
,
0000
0000
0000
0000
,
0001
0000
0000
0000
,
1000
0000
0000
0000
,
0001
0000
0000
0000
,
0010
0000
0000
0000
,
1001
0000
1000
0000
,
1000
0000
1000
0000
,
0100
0000
0100
0000
,
0100
0000
0100
0000
,
0010
0000
0010
0000
,
0010
0000
0010
0000
,
0001
0000
0001
0000
,
0001
0000
0001
0000
,
1001
0000
0000
0000
,
1000
0000
0000
0000
,
1001
0000
0000
0000
,
0001
0000
0000
0000
,
0110
0000
0000
0000
,
0100
0000
0000
0000
,
0110
0000
0000
0000
,
0010
0000
0000
0000
,
1001
0000
0000
0000
,
0000
0000
0000
0000
,
0000
0000
0000
0000
,
0000
0000
0000
0000
,
0001
0000
0000
0000
,
0000
0000
0000
0000
,
1000
0000
0000
0000
,
0001
0000
0000
0000
,
1001
0000
0000
0000
,
0100
0000
0000
0000
,
0010
0000
0000
0000
,
0100
0000
0000
0000
,
0010
0000
0000
0000
,
0000
0000
0000
0000
,
0001
0000
0000
0000
,
1000
0000
0000
0000
,
1001
0000
0000
0000
,
0001
0000
0000
0000
,
1000
0000
0000
0000
,
0001
0000
0000
0000
,
0100
0000
0100
0000
,
0010
0000
0010
0000
,
0100
0000
0100
0000
,
0010
0000
0010
0000
,
1001
0000
0000
0000
,
0001
0000
0000
0000
,
1001
0000
0000
0000
,
1000
0000
0000
0000
,
1001
0000
0000
0000
,
0001
0000
0000
0000
,
1001
0000
0000
0000
,
1000
0000
0100
0000
;
