#VERSION:0.83;
#TITLE:Dynamic ! Atomic ! S.C.B.G. ~ver.1~;
#SUBTITLE:;
#ARTIST:新堂敦士;
#TITLETRANSLIT:Dynamic ! Atomic ! S.C.B.G. ~ver.1~;
#SUBTITLETRANSLIT:;
#ARTISTTRANSLIT:ATSUSHI SHINDO;
#GENRE:;
#ORIGIN:;
#CREDIT:DigiMindAxel;
#BANNER:Dynamic ! Atomic ! S.C.B.G. ~ver.1~.png;
#BACKGROUND:Dynamic ! Atomic ! S.C.B.G. ~ver.1~-bg.png;
#PREVIEWVID:;
#JACKET:Dynamic ! Atomic ! S.C.B.G. ~ver.1~-jacket.png;
#CDIMAGE:;
#DISCIMAGE:;
#LYRICSPATH:Dynamic ! Atomic ! S.C.B.G. ~ver.1~.lrc;
#CDTITLE:pop'n music.png;
#MUSIC:Dynamic ! Atomic ! S.C.B.G. ~ver.1~.ogg;
#OFFSET:-0.510000;
#SAMPLESTART:51.044006;
#SAMPLELENGTH:12.000000;
#SELECTABLE:YES;
#BPMS:0.000=147.000,
200.000=154.000;
#STOPS:;
#DELAYS:;
#WARPS:;
#TIMESIGNATURES:0.000=4=4;
#TICKCOUNTS:0.000=4;
#COMBOS:0.000=1;
#SPEEDS:0.000=1.000=0.000=0;
#SCROLLS:0.000=1.000;
#FAKES:;
#LABELS:0.000=Song Start;
#BGCHANGES:-2.000=Dynamic ! Atomic ! S.C.B.G. ~ver.1~.avi=1.000=1=0=0=StretchNoLoop==CrossFade==,
99999=-nosongbg-=1.000=0=0=0 // don't automatically add -songbackground-
;
#KEYSOUNDS:;
#ATTACKS:
;

//---------------dance-single - ----------------
#NOTEDATA:;
#CHARTNAME:;
#STEPSTYPE:dance-single;
#DESCRIPTION:;
#CHARTSTYLE:;
#DIFFICULTY:Hard;
#METER:12;
#RADARVALUES:0.505301,0.586149,0.677103,0.212226,0.252650,350.000000,283.000000,67.000000,21.000000,0.000000,0.000000,0.000000,0.000000,0.000000,0.505301,0.586149,0.677103,0.212226,0.252650,350.000000,283.000000,67.000000,21.000000,0.000000,0.000000,0.000000,0.000000,0.000000;
#CREDIT:;
#NOTES:
// measure 0
0000
0000
0000
0000
,  // measure 1
0000
0000
0000
0000
,  // measure 2
0000
0000
0000
0000
,  // measure 3
0000
0000
0000
0000
,  // measure 4
2002
3003
0220
0330
,  // measure 5
1001
0000
1001
0000
1001
0100
0100
0100
,  // measure 6
1001
0000
1000
0100
0000
1000
0000
0001
,  // measure 7
0100
0000
0000
0100
0000
0000
0100
0000
0010
0000
0000
0010
0000
0000
0010
0000
,  // measure 8
1000
0100
0010
0001
1000
0100
1000
0000
,  // measure 9
1001
1100
1001
1001
,  // measure 10
1000
0000
0100
0000
0010
0000
0000
0001
0000
0000
0101
0000
0000
0000
0010
0000
,  // measure 11
0100
1000
0100
1000
0000
0000
0001
1000
0001
1000
0000
0000
0001
0100
0001
0100
,  // measure 12
0020
0000
0000
1000
0000
0000
1030
0000
0002
0000
0000
0010
0000
0000
0013
0000
,  // measure 13
0200
0000
0000
0010
0000
0000
0310
0000
0001
0000
1000
0000
0100
1000
0100
0000
,  // measure 14
1001
0000
0001
0010
0000
0001
0000
1000
,  // measure 15
0010
0000
0000
0010
0000
0000
0010
0000
0100
0000
0000
0100
0000
0000
0100
0000
,  // measure 16
0001
0010
0100
1000
0001
0100
0001
0000
,  // measure 17
1001
0011
1001
1001
,  // measure 18
0001
0000
0010
0000
0100
0000
0000
1000
0000
0000
1010
0000
0000
0000
0100
0000
,  // measure 19
0010
0001
0010
0001
0000
0000
1000
0001
1000
0001
0000
0000
1000
0010
1000
0010
,  // measure 20
0200
0000
0000
0001
0000
0000
0301
0000
2000
0000
0000
0100
0000
0000
3100
0000
,  // measure 21
0020
0000
0000
0100
0000
0000
0130
0000
1000
0000
0001
0000
0100
0001
0100
0000
,  // measure 22
1001
1001
1001
0110
,  // measure 23
0010
0001
1000
0100
0010
0000
0110
0000
,  // measure 24
1001
0000
1001
0000
1001
0000
0010
1000
,  // measure 25
0100
0001
0100
1000
0001
0010
0100
1000
,  // measure 26
1001
1001
1001
0110
,  // measure 27
0100
1000
0001
0010
0100
0000
0110
0000
,  // measure 28
1002
0000
0000
1000
0000
1003
0100
0010
,  // measure 29
2001
0000
0000
0001
0000
3001
0010
0100
,  // measure 30
1000
0010
0100
0110
,  // measure 31
1001
0000
0000
1001
0000
0000
0000
0000
1001
0000
0000
1001
0000
0000
0000
0000
,  // measure 32
0011
0011
1010
1001
,  // measure 33
0001
0010
0100
1000
0001
0010
0001
1000
,  // measure 34
0200
0000
0000
0000
0010
0000
0000
0000
0310
0000
0001
0000
0001
1000
0000
0000
,  // measure 35
0100
0000
0000
0100
0000
0000
0100
0000
0010
0000
0000
0010
0000
0000
0010
0000
,  // measure 36
0001
0100
0010
1000
0001
0100
0001
0001
,  // measure 37
0101
0000
0101
0000
1100
0000
0000
1001
,  // measure 38
0000
0100
0001
1000
0000
1001
0000
0000
,  // measure 39
1001
0000
0000
1001
0000
0000
0000
0000
1001
0000
0000
1001
0000
0000
0000
0000
,  // measure 40
1100
1100
0101
1001
,  // measure 41
1000
0100
0010
0001
1000
0100
1000
0010
,  // measure 42
0100
0000
0001
0000
0001
1000
0000
0020
0000
0000
0000
0000
0130
0010
0100
0000
,  // measure 43
1001
0000
0000
0110
0000
0000
1001
0000
0000
0000
0000
0000
0001
0000
0100
0000
,  // measure 44
0001
1000
0100
0010
0110
0000
1000
0000
,  // measure 45
1001
0100
1001
0100
,  // measure 46
1001
0000
0100
0000
1001
0100
0110
0000
,  // measure 47
0020
0000
0000
1000
0000
0000
1030
0000
0001
0000
0000
0001
0000
0000
0001
0000
,  // measure 48
0200
0000
0000
0010
0000
0000
0310
0000
1000
0000
0000
1000
0000
0000
1000
0000
,  // measure 49
0010
0100
0000
0010
0000
0000
0010
0000
1000
0001
0000
1000
0000
0000
1001
0000
,  // measure 50
0000
0000
0000
0000
,  // measure 51
0000
0000
0000
0000
,  // measure 52
1000
0000
0000
0000
1000
0000
0001
0000
0000
0000
0001
0000
,  // measure 53
0100
0000
0000
0000
0100
0000
1000
0000
0000
0000
1000
0000
,  // measure 54
0002
0000
0003
0000
,  // measure 55
0000
1001
0000
0000
0000
0000
0000
0000
0000
0220
0000
0000
0000
0000
0000
0000
0000
0000
0000
0000
0000
0000
0000
0000
,  // measure 56
0000
0000
0000
0000
,  // measure 57
0000
0000
0000
0000
0000
0000
0000
0000
0000
0000
0330
0000
0000
0000
0000
2002
0000
0000
0000
0000
0000
0000
0000
0000
,  // measure 58
3003
0000
0000
0000
;

//---------------dance-single - ----------------
#NOTEDATA:;
#CHARTNAME:;
#STEPSTYPE:dance-single;
#DESCRIPTION:;
#CHARTSTYLE:;
#DIFFICULTY:Medium;
#METER:8;
#RADARVALUES:0.339273,0.410304,0.586149,0.616467,0.005053,235.000000,177.000000,58.000000,61.000000,0.000000,0.000000,0.000000,0.000000,0.000000,0.339273,0.410304,0.586149,0.616467,0.005053,235.000000,177.000000,58.000000,61.000000,0.000000,0.000000,0.000000,0.000000,0.000000;
#CREDIT:;
#NOTES:
// measure 0
0000
0000
0000
0000
,  // measure 1
0000
0000
0000
0000
,  // measure 2
0000
0000
0000
0000
,  // measure 3
0000
0000
0000
0000
,  // measure 4
0220
0330
0220
0330
,  // measure 5
1001
1001
1001
0000
,  // measure 6
2000
0000
0000
3010
0000
0000
0000
1000
,  // measure 7
0001
0010
0001
0000
1000
0100
1000
0000
,  // measure 8
0002
0000
0000
0103
0000
0000
0000
0001
,  // measure 9
1000
0010
1000
0000
0001
0100
0001
0000
,  // measure 10
1000
1001
0001
1001
,  // measure 11
0110
0000
0000
0110
0000
0000
1001
0000
,  // measure 12
2000
0100
3002
0100
,  // measure 13
2003
0010
3002
0010
,  // measure 14
1003
0000
0001
0100
0010
0000
0010
0000
,  // measure 15
1000
0100
1000
0000
0100
0010
0100
0000
,  // measure 16
1000
0000
1000
0010
0100
0000
0100
0000
,  // measure 17
0001
0010
0001
0000
0010
0100
0010
0000
,  // measure 18
0001
1001
1000
1001
,  // measure 19
0110
0000
0000
0110
0000
0000
0110
0000
,  // measure 20
0002
0100
2003
0100
,  // measure 21
3002
0010
2003
0010
,  // measure 22
3001
1001
1001
0000
,  // measure 23
1000
0000
0010
0000
0100
0010
0100
0000
,  // measure 24
1001
1001
1001
0000
,  // measure 25
0001
0100
0010
1000
,  // measure 26
1001
1001
1001
0000
,  // measure 27
1000
0000
0010
0000
0100
0010
0100
0000
,  // measure 28
0002
0000
0000
0000
,  // measure 29
2003
0000
0000
0000
0000
0001
3001
0000
,  // measure 30
1000
0100
0010
0101
,  // measure 31
2002
3003
2002
3003
,  // measure 32
0011
0110
2200
3300
,  // measure 33
1000
0010
0100
0000
0010
0100
0001
0000
,  // measure 34
2000
0000
0000
0000
3002
1000
1003
0000
,  // measure 35
1010
1000
1001
1000
,  // measure 36
1010
0000
1000
0000
1001
0000
0001
1000
,  // measure 37
0002
0000
0023
0000
0230
0000
0000
0310
,  // measure 38
0000
0110
0000
1001
0000
1001
0000
0000
,  // measure 39
2002
3003
2002
3003
,  // measure 40
1100
0110
0022
0033
,  // measure 41
0001
0010
0100
0000
0010
0100
1000
0000
,  // measure 42
2002
0000
0000
3003
,  // measure 43
1010
0000
0000
0202
0000
0000
0303
0000
,  // measure 44
0001
1000
0001
0000
1001
0000
0000
0000
,  // measure 45
0102
1003
2100
3001
,  // measure 46
2002
0000
0000
3000
0000
1000
1003
0000
,  // measure 47
0022
0033
2002
3003
,  // measure 48
2200
3300
2002
3003
,  // measure 49
0220
0000
0330
0000
2002
0000
3003
1001
,  // measure 50
0000
0000
0000
0000
,  // measure 51
0000
0000
0000
0000
,  // measure 52
2010
0000
3200
0000
,  // measure 53
0320
0000
0032
0000
,  // measure 54
1003
0000
0000
0000
,  // measure 55
0000
0100
0000
0000
0000
0000
0000
0000
0000
0220
0000
0000
0000
0000
0000
0000
0000
0000
0000
0000
0000
0000
0000
0000
,  // measure 56
0000
0000
0000
0000
,  // measure 57
0000
0000
0000
0000
0000
0000
0000
0000
0000
0000
0330
0000
0000
0000
0000
2002
0000
0000
0000
0000
0000
0000
0000
0000
,  // measure 58
3003
0000
0000
0000
;

//---------------dance-single - ----------------
#NOTEDATA:;
#CHARTNAME:;
#STEPSTYPE:dance-single;
#DESCRIPTION:;
#CHARTSTYLE:;
#DIFFICULTY:Beginner;
#METER:2;
#RADARVALUES:0.098173,0.174708,0.161696,0.000000,0.000000,68.000000,52.000000,16.000000,0.000000,0.000000,0.000000,0.000000,0.000000,0.000000,0.098173,0.174708,0.161696,0.000000,0.000000,68.000000,52.000000,16.000000,0.000000,0.000000,0.000000,0.000000,0.000000,0.000000;
#CREDIT:;
#NOTES:
// measure 0
0000
0000
0000
0000
,  // measure 1
0000
0000
0000
0000
,  // measure 2
0000
0000
0000
0000
,  // measure 3
0000
0000
0000
0000
,  // measure 4
0000
0000
0000
0000
,  // measure 5
0000
0000
0000
0000
,  // measure 6
0001
0000
0000
0000
,  // measure 7
1000
0000
0000
0000
,  // measure 8
0001
0000
0000
0000
,  // measure 9
0001
0000
0000
0000
,  // measure 10
1000
0000
0000
0000
,  // measure 11
1001
0000
0000
0000
,  // measure 12
1000
0000
0000
0000
,  // measure 13
1000
0000
0000
0000
,  // measure 14
1000
0000
0000
0000
,  // measure 15
0001
0000
0000
0000
,  // measure 16
1000
0000
0000
0000
,  // measure 17
1000
0000
0000
0000
,  // measure 18
0001
0000
0000
0000
,  // measure 19
1000
0000
0000
0000
,  // measure 20
1001
0000
0001
0000
,  // measure 21
0001
0000
0000
0000
,  // measure 22
1001
0000
0000
0000
,  // measure 23
0001
0000
0000
0000
,  // measure 24
1001
0000
0000
0000
,  // measure 25
1000
0000
0000
0000
,  // measure 26
1001
0000
0000
0000
,  // measure 27
0001
0000
0000
0000
,  // measure 28
1001
0000
0000
0000
,  // measure 29
1000
0000
0000
0000
,  // measure 30
1000
0000
0000
0000
,  // measure 31
1001
0000
0000
0000
,  // measure 32
1001
0000
0000
0000
,  // measure 33
0001
0000
0000
0000
,  // measure 34
1000
0000
0000
0000
,  // measure 35
0001
0000
0000
0000
,  // measure 36
0001
0000
0000
0000
,  // measure 37
1001
0000
0000
0000
,  // measure 38
1000
0000
0000
0000
,  // measure 39
1001
0000
0000
0000
,  // measure 40
1001
0000
0000
0000
,  // measure 41
1000
0000
0000
0000
,  // measure 42
0001
0000
0000
0000
,  // measure 43
1000
0000
0000
0000
,  // measure 44
1000
0000
0000
0000
,  // measure 45
0010
0000
0100
0000
,  // measure 46
0010
0000
0000
0000
,  // measure 47
0110
0000
0000
0000
,  // measure 48
0110
0000
0000
0000
,  // measure 49
0110
0000
0000
0000
0000
0000
0000
0010
,  // measure 50
0000
0000
0000
0000
,  // measure 51
0000
0000
0000
0000
,  // measure 52
1000
0000
0000
0000
,  // measure 53
0001
0000
0000
0000
,  // measure 54
1001
0000
0000
0000
,  // measure 55
0000
0000
0000
1001
0000
0000
0000
0000
,  // measure 56
0000
0000
0000
0000
,  // measure 57
0000
0000
0000
0000
0000
0100
0000
0000
;

//---------------dance-single - ----------------
#NOTEDATA:;
#CHARTNAME:;
#STEPSTYPE:dance-single;
#DESCRIPTION:;
#CHARTSTYLE:;
#DIFFICULTY:Easy;
#METER:4;
#RADARVALUES:0.210783,0.322382,0.252650,0.141484,0.005053,146.000000,121.000000,25.000000,14.000000,0.000000,0.000000,0.000000,0.000000,0.000000,0.210783,0.322382,0.252650,0.141484,0.005053,146.000000,121.000000,25.000000,14.000000,0.000000,0.000000,0.000000,0.000000,0.000000;
#CREDIT:;
#NOTES:
// measure 0
0000
0000
0000
0000
,  // measure 1
0000
0000
0000
0000
,  // measure 2
0000
0000
0000
0000
,  // measure 3
0000
0000
0000
0000
,  // measure 4
0110
0000
0100
0000
,  // measure 5
0110
0110
0110
0000
,  // measure 6
1001
0000
0000
0000
,  // measure 7
1000
0001
1000
0000
,  // measure 8
0010
0010
0010
0000
,  // measure 9
0010
0100
0010
0000
,  // measure 10
1000
0001
1000
0000
,  // measure 11
0010
0000
0000
1001
0000
0000
0010
0000
,  // measure 12
0200
0000
0320
0000
,  // measure 13
0230
0000
0310
0000
,  // measure 14
1001
0000
0000
0000
,  // measure 15
0001
1000
0001
0000
,  // measure 16
0100
0100
0100
0000
,  // measure 17
0100
0010
0100
0000
,  // measure 18
0001
1000
0001
0000
,  // measure 19
0100
0000
0000
1001
0000
0000
0100
0000
,  // measure 20
0020
0000
0230
0000
,  // measure 21
0320
0000
1030
0000
,  // measure 22
1001
0000
1001
0000
,  // measure 23
0010
0100
0010
0000
,  // measure 24
1001
0000
1001
0000
,  // measure 25
0100
0010
0100
0010
,  // measure 26
0100
0000
1001
0000
,  // measure 27
0001
1000
0001
0000
,  // measure 28
0002
0000
0000
0000
,  // measure 29
2003
0000
0000
0000
,  // measure 30
3001
0001
1001
0000
,  // measure 31
2000
0000
3002
0000
,  // measure 32
0103
0100
0100
0101
,  // measure 33
1000
0100
0010
0001
,  // measure 34
2000
0000
0001
0000
,  // measure 35
3001
0000
0100
0000
,  // measure 36
0010
1000
0100
0010
,  // measure 37
0001
0000
1000
0000
0001
0000
0000
1001
,  // measure 38
0000
0000
0000
1000
0000
0001
0000
0000
,  // measure 39
1001
0000
1001
0000
,  // measure 40
1001
0000
0000
0000
,  // measure 41
0001
0010
0100
1000
,  // measure 42
0002
0000
1000
0000
,  // measure 43
1003
0000
0000
1001
0000
0000
0000
0000
,  // measure 44
0010
0000
0100
0000
,  // measure 45
0010
0000
0010
0000
,  // measure 46
1000
0000
0000
0000
,  // measure 47
1001
0000
1000
0000
,  // measure 48
0001
0000
0010
0000
,  // measure 49
0100
0000
0000
0000
1000
0000
0000
1001
,  // measure 50
0000
0000
0000
0000
,  // measure 51
0000
0000
0000
0000
,  // measure 52
1000
0000
0001
0000
,  // measure 53
0010
0000
0100
0000
,  // measure 54
1001
0000
0000
0000
,  // measure 55
0000
1000
0000
0000
0000
0000
0000
0000
0000
1001
0000
0000
0000
0000
0000
0000
0000
0000
0000
0000
0000
0000
0000
0000
,  // measure 56
0000
0000
0000
0000
,  // measure 57
0000
0000
0000
0000
0000
2002
0000
0000
,  // measure 58
3003
0000
0000
0000
;

//---------------dance-single - ----------------
#NOTEDATA:;
#CHARTNAME:;
#STEPSTYPE:dance-single;
#DESCRIPTION:;
#CHARTSTYLE:;
#DIFFICULTY:Challenge;
#METER:14;
#RADARVALUES:0.658335,0.820608,0.656891,0.535619,0.565937,456.000000,391.000000,65.000000,53.000000,0.000000,0.000000,0.000000,0.000000,0.000000,0.658335,0.820608,0.656891,0.535619,0.565937,456.000000,391.000000,65.000000,53.000000,0.000000,0.000000,0.000000,0.000000,0.000000;
#CREDIT:;
#NOTES:
// measure 0
0000
0000
0000
0000
,  // measure 1
0000
0000
0000
0000
,  // measure 2
0000
0000
0000
0000
,  // measure 3
0000
0000
0000
0000
,  // measure 4
0001
1000
0000
0001
0000
0000
0100
0000
0010
1000
0000
0010
0000
0000
0100
0000
,  // measure 5
1001
0001
1001
1000
1001
0100
0100
0100
,  // measure 6
1001
0010
0100
2000
0000
3010
0000
0010
,  // measure 7
1000
0000
0001
0010
0000
0001
0010
0000
0100
0000
1000
0010
0000
1000
0010
0000
,  // measure 8
1000
0100
0010
0002
0000
0103
0000
0001
,  // measure 9
1000
0000
0010
0100
0000
0010
0100
0000
0001
0000
0001
0000
0001
1000
0001
0000
,  // measure 10
1000
0000
0010
0000
0100
0000
0001
0100
0000
0001
1000
0000
0000
0000
1000
0000
,  // measure 11
0001
0010
0100
1000
0000
0000
1000
0100
0010
0001
0000
0000
0001
0010
0100
1000
,  // measure 12
0002
0100
0000
0103
0000
0000
0010
0000
2000
0100
0000
3100
0000
0000
0010
0000
,  // measure 13
0002
0100
0000
0103
0000
0000
0010
0000
1000
0100
0010
0000
0001
1000
0001
0000
,  // measure 14
1000
0010
0100
0002
0000
1003
0000
0001
,  // measure 15
1000
0000
0100
1000
0000
0100
1000
0000
0001
0000
0100
0001
0000
0100
0001
0000
,  // measure 16
1000
0100
0010
0002
0000
1003
0000
0001
,  // measure 17
1000
0000
0010
0100
0000
0010
0100
0000
0001
0000
0001
0000
0001
1000
0001
0000
,  // measure 18
0010
0000
0100
0000
1000
0000
0001
0100
0000
0001
1000
0000
0000
0000
1000
0000
,  // measure 19
0001
0010
0100
1000
0000
0000
1000
0100
0010
0001
0000
0000
0001
0010
0100
1000
,  // measure 20
0002
0100
0000
0103
0000
0000
0010
0000
2000
0100
0000
3100
0000
0000
0010
0000
,  // measure 21
0002
0100
0000
0103
0000
0000
0001
0000
1000
0100
1000
0000
0010
0100
0001
0000
,  // measure 22
2002
0000
3003
0000
2002
0000
3003
0000
0220
0000
0330
0000
1001
0000
0000
0001
,  // measure 23
0010
0000
0001
0010
0100
0000
1000
0000
0101
0000
1001
0000
0101
0000
0000
0000
,  // measure 24
2002
0000
3003
0000
2002
0000
3003
0000
0220
0000
0330
0000
1001
0000
0000
1000
,  // measure 25
0100
0000
1000
0100
0010
0000
0010
0001
1000
0000
1000
0100
0010
0000
0010
0000
,  // measure 26
2002
0000
3003
0000
2002
0000
3003
0000
0220
0000
0330
0000
1001
0000
0000
1000
,  // measure 27
0010
0000
1000
0010
0100
0000
0001
0000
1100
0000
1001
0000
1100
0000
0000
0000
,  // measure 28
1001
0000
0010
0000
0100
1000
0001
1000
0100
0000
1000
0000
0001
0000
0100
0000
,  // measure 29
1001
0000
0100
0000
0010
0001
1000
0001
0010
0000
0100
0000
1000
0001
1000
0000
,  // measure 30
0001
0010
0001
0000
0010
0100
0010
0000
0100
1000
0100
0000
1001
0000
0000
0000
,  // measure 31
1001
0000
0100
0001
0000
0100
0001
0000
1001
0000
0100
0001
0000
0100
0001
0000
,  // measure 32
1001
0000
1100
0000
0011
1100
1001
0000
,  // measure 33
0001
0001
0100
0100
0010
0010
1000
0100
,  // measure 34
0010
0000
0001
0000
1000
0010
1000
0010
1000
0000
0001
0000
0001
1000
0000
0000
,  // measure 35
0010
0000
0100
0001
0000
0000
0010
0000
0100
0000
1000
0010
0000
0000
0100
0000
,  // measure 36
0001
0001
0010
0010
0100
0100
1000
0001
,  // measure 37
1001
0000
2000
0000
3002
0000
0013
0110
,  // measure 38
0000
0010
0100
0110
0000
1001
0000
0000
,  // measure 39
1001
0000
0100
1000
0000
0100
1000
0000
1001
0000
0100
1000
0000
0100
1000
0000
,  // measure 40
1001
0000
1010
0000
0101
1010
1001
0000
,  // measure 41
1000
1000
0010
0010
0100
0100
0001
0010
,  // measure 42
0100
0000
1000
0000
0001
0100
0000
0002
0000
0000
0000
0000
1003
0100
0010
0000
,  // measure 43
0101
0000
0000
0110
0000
0000
2020
0000
0000
0000
0000
0000
0000
0000
3030
0000
,  // measure 44
1000
0000
0100
0000
0010
0001
0010
0001
2000
0000
0000
0000
3001
0000
0000
0000
,  // measure 45
0101
0000
1000
0100
1000
0100
1000
0000
1100
0000
0001
1000
0001
1000
0001
0000
,  // measure 46
1001
0000
0100
0010
0100
0010
0100
0000
0110
0000
1001
0000
0101
0000
0000
0000
,  // measure 47
2000
0100
0000
3200
0000
0000
0310
0000
0002
0100
0000
0203
0000
0000
0310
0000
,  // measure 48
2000
0010
0000
3020
0000
0000
0130
0000
0002
0010
0000
0023
0000
0000
0130
0000
,  // measure 49
1000
0001
0000
0101
0000
0000
1010
0000
1000
0001
0000
0011
0000
0000
1100
0000
,  // measure 50
0000
0000
0000
0000
,  // measure 51
0000
0000
0000
0000
0000
0000
1100
0000
0010
0000
0010
0000
,  // measure 52
1002
0000
0000
0000
1003
0000
1200
0000
0000
0000
0310
0000
,  // measure 53
0102
0000
0000
0000
0013
0000
1200
0000
0000
0000
0310
0000
,  // measure 54
1002
0000
0000
0000
0000
0100
0000
0103
0000
0000
0000
0000
,  // measure 55
0000
0220
0000
0000
0000
0000
0330
0000
0000
2002
0000
0000
0000
0000
0000
0000
0000
0000
0000
0000
0000
0000
0000
0000
,  // measure 56
0000
0000
0000
0000
,  // measure 57
0000
0000
0000
0000
3003
2002
0000
0000
,  // measure 58
3003
0000
0000
0000
;
