#TITLE:Disconnected HaZaRD;
#SUBTITLE:;
#ARTIST:DM Ashura feat. Inspector K;
#TITLETRANSLIT:;
#SUBTITLETRANSLIT:;
#ARTISTTRANSLIT:;
#GENRE:;
#CREDIT:DigiMindAxel;
#BANNER:Disconnected HaZaRD.png;
#BACKGROUND:Disconnected HaZaRD-bg.png;
#LYRICSPATH:;
#CDTITLE:DigiMindAxel original simfile.png;
#MUSIC:Disconnected HaZaRD.ogg;
#OFFSET:-0.038000;
#SAMPLESTART:18.290989;
#SAMPLELENGTH:12.000000;
#SELECTABLE:YES;
#BPMS:0.000000=210.000000
,128.000000=105.000000
,144.000000=210.000000
,304.000000=105.000000
,308.000000=210.000000
;
#STOPS:
;
#BGCHANGES:;
#KEYSOUNDS:;
#ATTACKS:;

//---------------dance-single - ----------------
#NOTES:
     dance-single:
     :
     Easy:
     10:
     0.380146,0.603982,0.365696,0.085588,0.000000,342.000000,295.000000,47.000000,11.000000,0.000000,0.000000,0.380146,0.603982,0.365696,0.085588,0.000000,342.000000,295.000000,47.000000,11.000000,0.000000,0.000000:
// measure 0
0000
0000
0000
0000
,  // measure 1
0000
0000
0000
0000
,  // measure 2
0000
0000
0000
0000
,  // measure 3
0000
0000
0000
0000
,  // measure 4
0000
0000
0000
0000
,  // measure 5
0000
0000
0000
0000
,  // measure 6
0000
0000
0000
0000
,  // measure 7
0000
0000
0000
0000
,  // measure 8
0001
1000
0001
1000
,  // measure 9
1001
1001
1001
0000
,  // measure 10
0100
0010
1000
0000
,  // measure 11
0001
0100
0001
0000
,  // measure 12
1000
0001
1000
0001
,  // measure 13
1001
1001
1001
0000
,  // measure 14
0010
0100
1000
0001
,  // measure 15
0010
0001
1000
0010
,  // measure 16
1000
0100
0000
1000
,  // measure 17
0000
0001
0000
0100
,  // measure 18
0000
0010
0000
0100
,  // measure 19
0000
0001
0000
1000
,  // measure 20
0000
0010
0000
1000
,  // measure 21
0000
0001
0000
0100
,  // measure 22
0000
0010
0000
0100
,  // measure 23
0000
0001
0000
0100
,  // measure 24
0001
1000
0100
0010
,  // measure 25
0100
1000
0001
1000
,  // measure 26
0001
0100
0010
0100
,  // measure 27
0001
1000
0100
0000
,  // measure 28
0010
0001
0010
0001
,  // measure 29
1001
0010
0100
0001
,  // measure 30
0100
0001
1000
1000
,  // measure 31
0001
0001
0010
0100
,  // measure 32
1001
0110
1000
0110
,  // measure 33
0001
1001
0100
0110
,  // measure 34
0010
1001
0001
0110
,  // measure 35
1000
0000
0110
0000
0001
1000
0001
1000
,  // measure 36
1001
0010
0100
0001
,  // measure 37
0100
0010
1000
0100
,  // measure 38
0010
0100
1000
0010
,  // measure 39
0100
0010
1000
0001
,  // measure 40
0010
0100
0010
0001
,  // measure 41
1000
0100
1000
0010
,  // measure 42
0100
0100
0001
0001
,  // measure 43
0010
0100
1000
0001
,  // measure 44
2000
0000
0000
0000
,  // measure 45
3020
0000
0000
0000
,  // measure 46
0230
0000
0000
0000
,  // measure 47
0301
0001
1001
0000
,  // measure 48
0002
0000
2003
0000
,  // measure 49
3020
0000
0230
0000
,  // measure 50
0302
0000
2003
0000
,  // measure 51
3010
0010
0110
0000
,  // measure 52
1000
0100
1000
0001
,  // measure 53
0010
0001
0100
0010
,  // measure 54
1000
0100
0010
0001
,  // measure 55
1001
1001
1001
0001
,  // measure 56
1000
0100
0010
0001
,  // measure 57
1000
0010
0100
0001
,  // measure 58
1000
0100
0010
0100
,  // measure 59
1001
1001
1001
0000
,  // measure 60
0110
0000
0000
0000
,  // measure 61
0000
0000
0000
0000
,  // measure 62
0110
0000
0000
0000
,  // measure 63
0000
0000
0000
0000
,  // measure 64
1001
0000
0000
0000
,  // measure 65
0000
0000
0000
0000
,  // measure 66
1001
0000
0000
0000
,  // measure 67
0000
0000
0000
0000
,  // measure 68
1001
0010
0100
0001
,  // measure 69
1000
0100
1000
1001
,  // measure 70
0100
0010
0100
0010
,  // measure 71
0001
1000
1001
0000
,  // measure 72
0001
0010
0100
0010
,  // measure 73
0001
1000
1001
1001
,  // measure 74
0001
1000
0100
0010
,  // measure 75
0100
1000
1001
0000
,  // measure 76
0000
0000
0000
0000
,  // measure 77
1000
0100
0010
0001
,  // measure 78
0100
0010
1000
0010
,  // measure 79
1000
0001
0010
0100
,  // measure 80
1000
0100
0010
0001
,  // measure 81
1000
0100
0010
0100
,  // measure 82
1000
0010
0100
0001
,  // measure 83
1000
0010
0100
0010
,  // measure 84
1000
0100
0010
0001
,  // measure 85
0100
1001
0010
0110
,  // measure 86
1000
1100
0001
0011
,  // measure 87
0100
1010
0010
0101
,  // measure 88
0100
0110
1000
1001
,  // measure 89
0001
0101
0010
1010
,  // measure 90
1000
1100
0001
0011
,  // measure 91
0100
1000
0010
0100
,  // measure 92
0001
1000
0100
1000
,  // measure 93
0001
0000
0100
0000
,  // measure 94
0010
0000
1000
0000
,  // measure 95
0001
0000
1000
0000
,  // measure 96
0010
0000
0100
0000
,  // measure 97
0001
1000
0001
1000
,  // measure 98
0100
0010
0100
0010
,  // measure 99
0001
0100
0010
1000
,  // measure 100
0100
0010
0001
1000
,  // measure 101
2002
0000
0000
0000
,  // measure 102
0000
0000
0000
0000
,  // measure 103
0000
0000
3003
0000
;

//---------------dance-single - ----------------
#NOTES:
     dance-single:
     :
     Medium:
     13:
     0.563550,0.644248,0.591338,0.046685,0.019452,507.000000,431.000000,76.000000,6.000000,0.000000,0.000000,0.563550,0.644248,0.591338,0.046685,0.019452,507.000000,431.000000,76.000000,6.000000,0.000000,0.000000:
// measure 0
0000
0000
0000
0000
,  // measure 1
0000
0000
0000
0000
,  // measure 2
0000
0000
0000
0000
,  // measure 3
0000
0000
0000
0000
,  // measure 4
1000
0000
0000
0001
,  // measure 5
0000
0000
0000
0000
0000
0100
0000
0000
,  // measure 6
0100
0000
0000
0100
0000
0000
0220
0000
,  // measure 7
0000
0000
0000
0330
,  // measure 8
0100
0010
0100
0001
1000
0000
0100
0000
,  // measure 9
1010
0000
0101
0000
1001
0000
1000
0001
,  // measure 10
1000
0100
0010
0001
1000
0000
0001
1000
,  // measure 11
0001
0010
0100
1000
0001
0000
0100
0000
,  // measure 12
1001
0100
0010
0001
,  // measure 13
1100
0000
0011
0000
1001
0000
1000
0010
,  // measure 14
1000
0100
0010
0001
1000
0000
0001
0100
,  // measure 15
0001
0010
0100
1000
0001
0000
0000
0000
,  // measure 16
0110
0100
0010
0100
,  // measure 17
0001
1000
0001
1000
0100
0010
0001
0000
,  // measure 18
0100
0010
0100
0010
,  // measure 19
1000
0100
0010
0001
0100
0010
0100
0000
,  // measure 20
0001
1000
0001
1000
,  // measure 21
0100
1000
0010
0100
0001
0010
0001
0000
,  // measure 22
1000
0001
1000
0001
,  // measure 23
0010
0001
0100
0010
1000
0100
1000
0000
,  // measure 24
1001
0100
0010
1000
,  // measure 25
0001
0010
0001
0010
0100
1000
0100
0000
,  // measure 26
1000
0000
0010
1000
0010
1000
0001
0100
,  // measure 27
0010
0100
0001
0000
1000
0001
1000
0000
,  // measure 28
0100
0010
0001
1000
,  // measure 29
1001
0000
0001
0010
0100
1000
0001
0000
,  // measure 30
0010
0000
0100
0000
1000
0010
1000
0010
,  // measure 31
0100
0001
0100
0001
0010
0100
1000
0001
,  // measure 32
1001
0000
0000
0000
0000
0000
1100
0000
0000
0000
0000
0000
0000
0001
0000
0000
,  // measure 33
0011
0000
0000
0100
0000
0000
1010
0000
0000
0000
0000
0000
0000
0000
0000
0000
,  // measure 34
1001
0000
0000
0000
0000
0000
0101
0000
0000
0000
0000
0000
0000
1000
0100
1000
,  // measure 35
0001
0000
0000
0011
0000
0000
1010
0000
1001
0000
0000
0000
0000
0000
0000
0000
,  // measure 36
1001
0100
0010
1000
,  // measure 37
0010
0100
0001
1000
,  // measure 38
1001
0001
0010
0110
,  // measure 39
1000
0100
1000
0001
,  // measure 40
0010
0100
1000
0001
,  // measure 41
0100
0001
1000
0001
,  // measure 42
1001
0100
0010
0110
,  // measure 43
0001
0100
0001
1000
,  // measure 44
0001
0010
0100
1000
0010
0100
0010
0000
,  // measure 45
0100
0001
1000
0001
0100
0001
1000
0000
,  // measure 46
0010
0100
0010
1000
0010
0100
0001
0000
,  // measure 47
0011
0000
1100
0000
0011
0000
0001
1000
,  // measure 48
0001
0000
0100
0000
0110
0000
0001
1000
,  // measure 49
0001
0000
0100
0000
0110
0000
1000
0001
,  // measure 50
1000
0000
0001
1000
0001
0000
1000
0000
,  // measure 51
1100
0011
1100
1001
,  // measure 52
0001
0100
1000
0100
0001
0000
1000
0000
,  // measure 53
0001
0100
1000
0100
0001
0000
1000
0000
,  // measure 54
0010
0100
0010
0000
0100
0010
0100
0000
,  // measure 55
1100
0011
1100
1001
,  // measure 56
1000
0010
0001
0010
1000
0000
0001
0000
,  // measure 57
1000
0010
0001
0010
1000
0000
0001
0000
,  // measure 58
1000
0100
1000
0000
0001
0010
0001
0000
,  // measure 59
0101
1010
0101
1001
,  // measure 60
0110
0000
0000
0000
,  // measure 61
0000
0000
1001
1001
,  // measure 62
0000
0000
0000
0000
,  // measure 63
0000
0000
1100
0000
,  // measure 64
0000
0000
0000
0000
,  // measure 65
0000
0000
1001
1001
,  // measure 66
0000
0000
0000
0000
,  // measure 67
0000
0000
0011
0000
,  // measure 68
1001
0100
0010
1000
,  // measure 69
0001
0100
1001
1001
,  // measure 70
1000
0100
0010
0100
,  // measure 71
1000
0001
1001
0000
,  // measure 72
0100
0010
0100
0001
,  // measure 73
1000
0001
1001
1001
,  // measure 74
1000
0001
0100
0010
,  // measure 75
1000
0100
0022
0000
,  // measure 76
0033
0000
0000
0000
,  // measure 77
1001
0000
1000
0001
0000
0010
0000
0100
,  // measure 78
1000
0000
0001
1000
0001
1000
0001
0000
,  // measure 79
1000
0100
0001
0100
,  // measure 80
1000
0100
0010
0001
0010
0100
1000
0000
,  // measure 81
0001
0000
0100
0010
0000
1000
0000
0010
,  // measure 82
0100
0000
0001
1000
0001
1000
0001
0000
,  // measure 83
1000
0010
0001
0010
,  // measure 84
1000
0100
0010
0001
0010
0100
1000
0000
,  // measure 85
0010
1001
0100
0110
,  // measure 86
0001
0011
1000
1100
,  // measure 87
0010
0101
0100
1010
,  // measure 88
0010
0110
0001
1001
,  // measure 89
1000
1010
0100
0101
,  // measure 90
0001
0011
1000
1100
,  // measure 91
0010
0000
0001
0000
0100
0010
0100
0010
,  // measure 92
1000
0100
0010
0001
0010
0100
1000
0001
,  // measure 93
1000
0000
1100
0000
,  // measure 94
0001
0000
1001
0000
,  // measure 95
1000
0000
1010
0000
,  // measure 96
0001
0000
1001
0000
,  // measure 97
1000
0001
1000
0000
1001
0000
0100
0000
,  // measure 98
0010
0100
0010
0000
0110
0000
1000
0000
,  // measure 99
0100
1000
0001
1000
0100
1000
0001
1000
,  // measure 100
0100
0000
0010
0001
0010
0100
1000
0000
,  // measure 101
2002
0000
0000
0000
,  // measure 102
0000
0000
0000
0000
,  // measure 103
0000
0000
3003
0000
;

//---------------dance-single - ----------------
#NOTES:
     dance-single:
     :
     Hard:
     15:
     0.859219,1.087168,0.692488,0.077808,0.202300,773.000000,684.000000,89.000000,10.000000,0.000000,0.000000,0.859219,1.087168,0.692488,0.077808,0.202300,773.000000,684.000000,89.000000,10.000000,0.000000,0.000000:
// measure 0
0000
0000
0000
0000
,  // measure 1
0000
0000
0000
0000
,  // measure 2
0000
0000
0000
0000
,  // measure 3
0000
0000
0000
0000
,  // measure 4
0002
0000
0003
2000
,  // measure 5
0000
0000
3000
0000
0000
0010
0000
0010
,  // measure 6
0010
0000
0100
0100
0000
0001
0001
0100
,  // measure 7
0010
0100
0001
1000
2002
0000
0000
3003
,  // measure 8
0010
0100
0010
1000
0100
0010
0100
0000
,  // measure 9
1001
0000
0110
0000
1001
0000
0001
0001
,  // measure 10
1000
0100
0001
0100
1000
0000
0001
0001
,  // measure 11
1000
0100
0001
0100
1000
0000
0001
1000
,  // measure 12
0001
0010
0100
1000
0010
0001
0010
0000
,  // measure 13
1001
0000
0110
0000
1001
0000
1000
1000
,  // measure 14
0001
0010
1000
0010
0001
1000
0001
0001
,  // measure 15
1000
0100
0001
0100
1000
0001
1000
0001
,  // measure 16
1001
0000
0000
0000
1010
0000
0100
0000
0010
0000
0001
0000
1000
0000
0010
0100
,  // measure 17
0010
0000
1000
1000
0100
0100
1001
0000
,  // measure 18
0011
0000
0001
0100
0010
1000
0010
0100
,  // measure 19
0001
0000
0001
0000
1000
0000
1000
0000
0010
0100
0010
0000
1010
0000
0000
0000
,  // measure 20
1001
0000
0000
0000
1000
0000
0100
0000
0010
0000
0001
0000
1000
0000
0010
0100
,  // measure 21
0010
0000
1000
1000
0001
0001
0100
0000
,  // measure 22
1001
0000
0000
0000
0001
0000
0100
0010
0100
0000
0001
0000
0010
0000
0100
0010
,  // measure 23
0100
0000
1000
0000
0010
0000
0100
0010
0100
0000
0001
0000
1000
0000
0000
0000
,  // measure 24
1001
0000
1000
0010
0100
0001
1000
0100
,  // measure 25
1100
0000
0010
0010
0100
0100
1001
0000
,  // measure 26
0011
0000
0001
0001
1000
1000
0100
0100
,  // measure 27
0010
0001
0010
0000
0100
0000
1000
0000
1010
0000
0000
0000
0101
0000
0000
0000
,  // measure 28
1001
0000
0000
0000
1000
0000
0100
0000
1000
0000
0010
0000
0100
0000
0001
1000
,  // measure 29
0001
0000
1000
1000
0010
0010
1001
0000
,  // measure 30
0011
0000
0000
0000
0001
0000
1000
0010
1000
0000
0001
0000
0010
0000
0100
0010
,  // measure 31
0100
1000
0010
0100
0001
0001
1000
1000
,  // measure 32
1001
0000
0000
0000
1010
0000
0110
0000
0001
0000
0001
0000
1001
0100
0000
1000
,  // measure 33
1000
0000
0001
0001
0000
0000
0110
0000
1000
0000
1000
0000
1001
0000
0000
0000
,  // measure 34
0011
0000
0000
0000
0110
0000
1010
0000
0001
0000
0001
0000
0110
0000
1000
1000
,  // measure 35
0100
0000
0010
0001
0000
1000
0010
0000
1000
0100
0010
0001
0100
0010
0100
0001
,  // measure 36
1001
0100
1100
1001
,  // measure 37
1000
0100
0010
0001
1000
1010
0000
0010
,  // measure 38
0010
0000
0100
0100
0000
0001
0001
0010
,  // measure 39
0100
1000
0001
0100
0001
1000
0100
0000
,  // measure 40
1001
0010
0011
1001
,  // measure 41
0001
0010
0100
1000
0010
0100
0100
0001
,  // measure 42
0001
0010
0100
1000
0001
0010
0100
1000
,  // measure 43
0001
0100
0010
0100
0001
0100
0010
0010
,  // measure 44
1000
0100
0010
0001
0100
0010
0100
0010
,  // measure 45
1000
0100
0010
0001
0100
0010
0100
0010
,  // measure 46
1000
0010
0100
0001
0010
0100
0010
0100
,  // measure 47
1001
0000
0110
0000
1001
0000
0100
0001
,  // measure 48
1000
0100
0010
0001
0100
0010
0100
0010
,  // measure 49
1000
0100
0010
0001
0100
0010
0100
0010
,  // measure 50
1000
0010
0100
0001
0010
0100
0010
0100
,  // measure 51
1000
1000
0010
0010
0100
0100
0001
0001
,  // measure 52
1000
0010
0001
0010
1000
0100
0010
0001
,  // measure 53
1000
0010
0001
0010
1000
0100
0010
0001
,  // measure 54
1000
0100
0001
0100
1000
0010
0001
0010
,  // measure 55
1000
0001
0010
0100
1000
0001
1000
0010
,  // measure 56
0001
0010
1000
0100
0010
0001
1000
0100
,  // measure 57
0001
0100
1000
0010
0100
0001
1000
0100
,  // measure 58
0001
0100
1000
0010
0001
0010
1000
0001
,  // measure 59
0100
1000
0001
0010
1000
0001
0001
0010
,  // measure 60
1100
0000
0000
0000
0010
0000
0101
0000
0000
0000
0101
0000
0000
0000
0100
0010
,  // measure 61
1000
1000
1000
0000
1001
0000
1001
0000
,  // measure 62
0011
0000
0000
0000
0100
0000
1000
0000
0010
0000
0100
0000
0000
0000
0010
0100
,  // measure 63
0001
0001
0001
0000
1001
0000
0000
0000
,  // measure 64
1000
0010
0100
0101
0000
0101
0000
0101
,  // measure 65
1000
0100
0010
0000
1001
0000
1001
0000
,  // measure 66
0000
0000
0001
0000
0010
0000
0100
0010
0100
0000
0000
0000
0110
0000
0000
0000
,  // measure 67
1000
0001
1000
0001
1000
0000
0000
0000
0001
1000
0001
1000
0001
0000
0000
0000
,  // measure 68
1000
0000
0001
0000
0100
0000
0001
0000
1000
0000
0001
0000
0100
0000
0001
1000
,  // measure 69
0001
0010
0100
1000
1001
0000
1001
0000
,  // measure 70
0011
0000
0000
0000
0100
0000
0100
0000
1000
0000
1000
0000
0000
0000
0010
0100
,  // measure 71
0010
0100
0001
0000
1001
0000
1000
0100
,  // measure 72
1000
0001
0100
0001
1000
0010
0100
0001
,  // measure 73
1000
0100
0010
0000
1001
0000
1001
0000
,  // measure 74
0001
0000
0100
0000
0010
0000
0100
0001
0100
0000
0010
0000
1000
0000
0100
0000
,  // measure 75
1000
0001
1000
0001
1000
0000
0000
0000
2002
0000
0000
0000
0000
0000
0000
0000
,  // measure 76
3003
0000
0000
0000
0000
0000
0000
0000
0010
0010
0010
0010
0220
0000
0000
0330
,  // measure 77
1001
0000
0000
0000
1000
0000
1000
0000
0010
0000
0100
0000
0010
0000
1000
0001
,  // measure 78
1000
0000
0100
0100
0010
0010
0100
0000
,  // measure 79
1001
0000
0001
0001
1000
0100
0010
0100
,  // measure 80
1000
0000
1000
0000
0010
0000
0010
0000
0100
0010
0100
0000
0001
0000
0000
0000
,  // measure 81
1001
0000
0000
0000
1000
0000
1000
0000
0001
0000
0100
0000
0010
0000
0100
0001
,  // measure 82
0100
0000
0001
0001
1000
1000
0100
0000
,  // measure 83
1001
0000
0000
0000
0001
0000
1000
0100
1000
0000
0001
0000
0010
0000
0100
0010
,  // measure 84
0100
0000
1000
0000
0010
0000
0100
0001
0100
0000
0010
0000
1000
0000
0000
0000
,  // measure 85
1001
0000
0101
0001
1000
0000
1100
1000
,  // measure 86
0001
0000
1001
1000
0010
0010
0110
0000
,  // measure 87
0101
0000
1001
1000
0100
0010
0001
1000
,  // measure 88
0010
0100
0010
0100
0010
0000
0000
0000
1010
0000
0010
0000
0100
0000
0000
0000
,  // measure 89
1001
0000
0011
0001
1000
0000
1010
1000
,  // measure 90
0001
0000
1001
0100
0010
0001
1000
0000
,  // measure 91
0011
0000
0000
0000
1100
0000
0001
0100
0001
0000
0010
0000
0100
0000
1000
0000
,  // measure 92
0010
0100
0010
0100
0010
0000
1000
0000
0001
1000
0001
1000
0001
0000
0000
0000
,  // measure 93
1001
1000
0110
0101
,  // measure 94
1000
0000
0000
0000
0010
0000
0000
0000
1000
0000
1001
0000
0000
0000
0001
0010
,  // measure 95
0001
0000
1000
1000
0000
0001
0001
0000
,  // measure 96
0100
0100
1001
0110
,  // measure 97
1000
0100
1000
0010
0100
0001
0100
1000
,  // measure 98
0001
0000
0010
0000
1000
0000
0001
0000
1000
0000
0010
0000
0010
0000
0100
0010
,  // measure 99
0100
0000
0001
0100
0001
0000
1000
0010
1000
0000
0001
1000
0001
0000
0100
0000
,  // measure 100
1000
0001
0010
1000
0001
0001
0100
0100
,  // measure 101
2002
0000
0000
0000
,  // measure 102
0000
0000
0000
0000
,  // measure 103
0000
0000
3003
0000
;

//---------------dance-single - ----------------
#NOTES:
     dance-single:
     :
     Challenge:
     19:
     1.193792,1.530088,1.089308,0.280108,1.019281,1074.000000,934.000000,140.000000,36.000000,0.000000,0.000000,1.193792,1.530088,1.089308,0.280108,1.019281,1074.000000,934.000000,140.000000,36.000000,0.000000,0.000000:
// measure 0
0000
0000
0000
0000
,  // measure 1
0000
0000
0000
0000
,  // measure 2
0000
0000
0000
0000
,  // measure 3
0000
0000
0000
0000
,  // measure 4
2200
0000
3300
0022
,  // measure 5
0000
0000
0000
0000
0033
0000
0000
0000
0000
0000
1001
0000
0000
0000
1000
0001
,  // measure 6
0200
0000
0301
0001
0010
0100
0010
0100
,  // measure 7
0010
0100
0010
0100
0010
0100
0010
0100
1000
0001
1000
0001
1000
0001
1000
0001
,  // measure 8
1000
0100
0010
0100
1000
0001
0100
0001
,  // measure 9
2002
0000
3003
0000
2200
0000
3300
0000
0022
0000
0033
0000
0001
0000
0100
0010
,  // measure 10
0100
0000
0001
0000
1000
0100
1000
0000
0010
0000
0100
0000
0110
0000
0000
0000
,  // measure 11
1001
0100
0010
0001
1000
0010
0100
0000
,  // measure 12
0001
0010
0100
0010
0001
1000
1010
0000
,  // measure 13
0202
0000
0303
0000
0220
0000
0330
0000
2020
0000
3030
0000
1000
0000
0001
0010
,  // measure 14
0001
0000
1000
0000
0100
0010
0100
0000
1000
0000
1000
0000
1000
0000
1000
0000
,  // measure 15
0010
0100
0001
0100
0010
1000
0010
1000
0001
0000
0001
0000
0001
0000
0001
0000
,  // measure 16
1001
0000
0000
0000
0001
0000
0100
0000
0010
0000
0100
0000
0001
0000
1000
0100
,  // measure 17
0010
0000
0101
0001
1001
1000
1100
0000
,  // measure 18
1001
0000
0001
0010
1000
0010
0001
0100
,  // measure 19
1001
0000
1001
0000
0110
0000
0110
0000
0001
0100
0010
0000
1100
0000
0000
0000
,  // measure 20
1000
0000
0010
0000
0100
0000
1000
0000
0100
0000
0010
0000
1000
0000
0010
0100
,  // measure 21
0001
0000
0101
0001
1001
1000
1100
0000
,  // measure 22
1001
0000
0000
0000
0001
0000
0100
0010
1000
0000
0010
1000
0001
0000
0010
0100
,  // measure 23
1000
0000
1000
0000
0001
0100
0010
1000
0100
0000
0100
0000
1100
0000
0000
0000
,  // measure 24
1001
0000
0010
0000
0100
0000
1000
0000
0010
0000
0100
0000
0010
0000
1000
0100
,  // measure 25
0010
0000
0101
0001
1100
1000
1010
0000
,  // measure 26
1001
0000
0100
1000
0010
0001
0010
1000
,  // measure 27
0001
0100
0010
1000
0100
0000
1000
0100
0010
0001
0100
0000
0101
0000
0000
0000
,  // measure 28
0010
0000
1000
0000
0100
0000
0010
0000
0100
0000
1000
0000
0001
0000
0100
0010
,  // measure 29
1000
0000
1100
0100
1001
0001
0101
0000
,  // measure 30
1001
0000
0000
0000
1000
0000
0010
0000
0100
0001
1000
0000
0100
0010
0001
0000
,  // measure 31
0100
0010
0100
0010
1000
0001
0100
0001
1000
0100
0010
0001
1000
0100
0010
0001
,  // measure 32
2000
0000
0000
0000
3010
0000
0000
0000
0110
0000
0000
0000
0002
0000
0000
0000
1003
0000
0000
0000
0100
0000
0000
0000
1100
0000
0001
0000
0000
0000
0001
0010
,  // measure 33
0100
0000
0000
0000
1000
0000
1010
0000
0000
0000
0001
0000
0101
0000
0000
0000
0010
0000
0000
0000
0010
0000
0000
0000
1001
0000
0000
0000
0100
0000
1000
0100
,  // measure 34
2000
0000
0000
0000
3010
0000
0000
0000
0110
0000
0000
0000
0002
0000
0000
0000
0103
0000
0000
0000
0010
0000
0000
0000
1010
0000
1000
0000
1000
0000
0100
0010
,  // measure 35
0001
0000
0000
0000
0100
0000
0110
0000
0000
0000
1000
0000
1100
0000
0010
0000
0001
1000
0001
1000
0010
0100
0010
0100
0001
0010
0001
0010
0100
1000
0100
1000
,  // measure 36
0002
0000
0103
0000
0110
1000
0002
0000
,  // measure 37
1003
0000
0100
0000
0010
0000
0001
0000
1100
0000
0000
0000
1000
0000
0001
0010
,  // measure 38
0200
0000
0000
0000
1300
0000
1000
0000
0010
0100
0010
1000
0100
0010
0100
0000
,  // measure 39
1000
0000
0010
0000
0100
0000
0001
0000
1001
0000
0000
0000
1000
0000
0010
0100
,  // measure 40
0010
1000
0100
0010
0101
0000
0001
1000
,  // measure 41
0010
0000
0100
0000
0010
0000
1000
0000
1001
0000
0000
0000
0001
0000
1000
0010
,  // measure 42
0100
0000
0001
0100
0001
0000
1000
0001
1000
0000
0100
1000
0100
0000
0010
0001
,  // measure 43
0010
0001
0100
0010
0100
0010
1000
0100
1000
0100
0010
0001
1000
0100
0010
0001
,  // measure 44
1000
0100
0001
0000
0100
0000
1000
0000
0001
0100
1000
0000
0100
0000
0001
0000
,  // measure 45
1001
0000
0010
0000
0100
0000
1000
0010
0001
0010
1000
0000
0100
0000
1001
0000
,  // measure 46
1001
0000
0100
0000
0010
0000
0001
0100
1000
0100
0001
0000
0010
0000
0100
0000
,  // measure 47
2200
3300
0220
0330
0022
0033
0000
0110
,  // measure 48
1001
0000
0010
0100
1000
0100
0010
0000
0011
0000
0100
1000
0010
1000
0100
0000
,  // measure 49
1001
0000
0100
0010
0001
0010
0100
0000
1100
0000
0010
0001
0100
0001
0010
0000
,  // measure 50
1001
0000
0010
0100
1000
0100
0010
0000
0011
0000
0100
1000
0010
1000
0100
0000
,  // measure 51
0110
0100
0101
0001
1001
1000
1100
0100
,  // measure 52
1000
0001
0010
0100
1000
0100
0010
0100
1000
0001
0100
0001
1000
0000
0010
0000
,  // measure 53
1000
0100
0010
0001
0010
0100
0010
0001
1000
0001
0100
0001
1000
0000
0010
0000
,  // measure 54
0100
0001
0010
1000
0010
0001
0100
1000
0100
0001
0010
1000
0010
0001
0100
1000
,  // measure 55
0100
0001
0010
1000
0010
0001
0100
1000
0100
0001
0010
0100
1000
0100
0010
0001
,  // measure 56
1000
0010
0100
0001
0100
0010
1000
0010
0100
0001
0010
1000
0010
0001
0010
0100
,  // measure 57
1000
0010
0100
0001
1000
0010
0100
0001
0010
1000
0010
0001
1000
0100
0010
0100
,  // measure 58
1000
0001
0010
0100
1000
0001
1000
0010
0001
0010
1000
0100
0001
0100
1000
0010
,  // measure 59
0001
0010
1000
0100
0001
0100
1000
0010
0100
0001
0010
0100
1000
0001
0010
0100
,  // measure 60
0010
0000
0000
0000
0101
0000
0101
0000
0000
0000
0101
0000
0000
0000
0001
1000
,  // measure 61
0100
1100
1100
0000
1001
0000
1001
0000
,  // measure 62
1010
0000
0000
0000
1010
0000
1010
0000
1010
0000
1010
0000
0000
0000
0010
1000
,  // measure 63
0001
1001
1001
0000
0110
0000
0000
0000
,  // measure 64
0011
0101
1001
1001
0000
1001
0000
1001
,  // measure 65
0000
1001
1001
0000
0110
0000
0110
0000
,  // measure 66
0000
0000
1100
0000
1100
0000
0100
1000
0010
0000
0000
0000
1010
0000
0000
0000
,  // measure 67
0010
0100
0010
0100
0001
0000
0000
0000
1000
0001
1000
0001
1000
0001
1000
0001
,  // measure 68
1000
0000
0100
0000
0010
0000
0001
0100
0001
0000
1000
0100
1000
0000
0010
0100
,  // measure 69
0001
0000
0100
0001
0100
0000
0010
0000
1001
0000
0110
0000
1001
0000
0000
0000
,  // measure 70
0001
0000
0010
0000
0100
0000
0010
0001
1000
0000
1000
0000
0001
0000
0010
0100
,  // measure 71
1000
1000
0010
0100
2002
0000
3003
0000
,  // measure 72
1000
0000
0010
0000
0100
0000
0001
0100
0001
0000
1000
0001
1000
0000
0100
0010
,  // measure 73
0001
0000
0100
0010
0100
0000
0000
0000
1001
0000
0110
0000
1001
0000
0000
0000
,  // measure 74
1000
0000
0010
0000
1000
0000
0001
0010
0100
0000
1000
0010
1000
0000
0001
0000
,  // measure 75
0100
0001
0010
0001
0100
0001
0010
0100
1000
0100
0010
0001
1000
0000
0000
0000
,  // measure 76
0000
0000
0000
0000
0000
0000
0000
0000
0000
0000
0000
0000
0000
0000
0000
0000
0110
0000
0110
0000
1001
0000
1001
0000
1000
0001
1000
0001
1000
0001
1000
0001
,  // measure 77
1000
0000
0010
0000
1000
0000
0001
0010
0100
0000
0010
0100
1000
0000
0001
0100
,  // measure 78
1000
0000
0100
0000
0001
0000
0100
0010
1000
0000
0010
0100
0001
0000
0000
0000
,  // measure 79
1001
0000
0001
0000
0100
0000
0001
0010
0100
0000
0010
0100
1000
0000
0001
0100
,  // measure 80
0010
0000
1010
0000
0110
0000
0101
0000
0100
0010
1000
0000
1100
0000
0000
0000
,  // measure 81
1001
0000
1000
0000
0010
0000
1000
0100
0010
0000
0100
0010
0001
0000
1000
0010
,  // measure 82
0001
0000
0010
0000
1000
0000
0001
0100
0010
0000
0100
0010
1000
0000
0000
0000
,  // measure 83
1001
0000
1000
0000
0100
0000
1000
0010
0100
0000
0010
0100
0001
0000
0010
0100
,  // measure 84
1000
0000
1100
0000
0110
0000
0011
0000
0100
0010
1000
0000
1010
0000
0000
0000
,  // measure 85
1001
0000
0100
0000
0101
0000
1000
0010
0100
0000
0010
1000
0100
0000
0010
0001
,  // measure 86
1000
0000
0010
0000
1000
0001
0010
0100
1000
0001
0100
0000
0101
0000
0000
0000
,  // measure 87
1001
0000
1000
0000
1100
0000
0010
0001
0100
0000
0010
1000
0100
0000
1000
0100
,  // measure 88
0010
0001
0010
0100
1000
0000
0010
0100
0001
0100
0010
0000
1001
0000
0000
0000
,  // measure 89
1010
0000
0010
0000
0110
0000
1000
0100
0010
0000
0001
0010
0100
0000
1000
0001
,  // measure 90
0100
0000
0001
0000
1000
0100
0010
0001
0010
0100
1000
0000
1010
0000
0000
0000
,  // measure 91
0101
0000
0001
0000
1001
0000
0100
0010
0001
0000
0010
0100
1000
0000
0001
0100
,  // measure 92
0010
0100
0001
0010
0100
1000
0100
0010
0001
0100
1000
0100
0001
0010
1000
0010
,  // measure 93
0001
1000
0110
0101
,  // measure 94
1000
0000
0000
0000
0100
0000
0000
0000
1001
0000
0001
0000
0000
0000
0100
0001
,  // measure 95
1000
0000
1100
1001
0000
0011
1001
0000
,  // measure 96
0001
0000
0000
0000
0100
0000
0000
0000
1001
0000
0100
0000
0010
0000
0001
1000
,  // measure 97
0020
0000
1000
0000
1030
0000
0001
0000
0011
0000
0100
1000
0020
0000
0100
0000
,  // measure 98
0130
0000
0001
0000
0010
0000
0001
0000
1100
0000
0010
0001
1000
0000
0010
0100
,  // measure 99
0001
0000
1000
0100
0001
0000
1000
0010
0001
0000
1000
0100
0001
0000
1000
0010
,  // measure 100
0001
1000
0100
0010
0100
1000
0001
0100
0010
0100
0001
1000
0100
0010
0001
0100
,  // measure 101
2020
0000
0000
0000
,  // measure 102
0000
0000
0000
0000
,  // measure 103
0000
0000
3030
0000
;

//---------------dance-single - ----------------
#NOTES:
     dance-single:
     :
     Beginner:
     6:
     0.230088,0.392929,0.062246,0.000000,0.000000,207.000000,199.000000,8.000000,0.000000,0.000000,0.000000,0.230088,0.392929,0.062246,0.000000,0.000000,207.000000,199.000000,8.000000,0.000000,0.000000,0.000000:
// measure 0
0000
0000
0000
0000
,  // measure 1
0000
0000
0000
0000
,  // measure 2
0000
0000
0000
0000
,  // measure 3
0000
0000
0000
0000
,  // measure 4
0000
0000
0000
0000
,  // measure 5
0000
0000
0000
0000
,  // measure 6
0000
0000
0000
0000
,  // measure 7
0000
0000
0000
0000
,  // measure 8
1000
0000
0000
0000
,  // measure 9
0001
0000
0000
0000
,  // measure 10
0100
0000
0000
0000
,  // measure 11
0100
0000
0000
0000
,  // measure 12
0010
0000
0000
0000
,  // measure 13
1000
0000
0000
0000
,  // measure 14
0001
0000
0000
0000
,  // measure 15
0001
0000
0000
0000
,  // measure 16
1000
0000
0001
0000
,  // measure 17
1000
0000
0000
0000
,  // measure 18
0100
0000
1000
0000
,  // measure 19
0100
0000
0000
0000
,  // measure 20
0010
0000
0001
0000
,  // measure 21
0010
0000
0000
0000
,  // measure 22
0100
0000
0010
0000
,  // measure 23
0100
0000
0010
0000
,  // measure 24
1000
0000
0001
0000
,  // measure 25
0100
0000
0000
0000
,  // measure 26
0010
0000
1000
0000
,  // measure 27
0010
0000
0100
0000
,  // measure 28
0001
0000
1000
0000
,  // measure 29
0001
0000
0000
0000
,  // measure 30
1000
0000
0001
0000
,  // measure 31
0010
0000
0100
0000
,  // measure 32
1001
0000
0000
0000
,  // measure 33
0100
0000
0000
0000
,  // measure 34
0010
0000
0000
0000
,  // measure 35
0001
0000
0000
0000
,  // measure 36
1000
0000
1000
0000
,  // measure 37
0100
0000
0100
0000
,  // measure 38
1000
0000
1000
0000
,  // measure 39
0001
0000
0001
0000
,  // measure 40
0100
0010
0100
0000
,  // measure 41
0010
0100
0010
0000
,  // measure 42
1000
0001
1000
0001
,  // measure 43
1000
0001
1000
0001
,  // measure 44
0010
0000
0000
0000
,  // measure 45
0010
0000
0000
0000
,  // measure 46
0010
0000
0000
0000
,  // measure 47
0100
0000
0100
0000
,  // measure 48
1000
0000
1000
0000
,  // measure 49
1000
0000
1000
0000
,  // measure 50
0001
0000
0001
0000
,  // measure 51
0001
1000
0001
0000
,  // measure 52
0010
0001
0010
0000
,  // measure 53
0001
1000
0001
0000
,  // measure 54
1000
0100
1000
0000
,  // measure 55
0001
1000
0001
0000
,  // measure 56
0100
0010
0100
0000
,  // measure 57
0010
1000
0010
0000
,  // measure 58
0100
0010
0100
0010
,  // measure 59
0100
0010
0100
0000
,  // measure 60
1001
0000
0000
0000
,  // measure 61
0000
0000
0000
0000
,  // measure 62
0001
0000
0000
0000
,  // measure 63
0000
0000
0000
0000
,  // measure 64
1000
0000
0000
0000
,  // measure 65
0000
0000
0000
0000
,  // measure 66
0001
0000
0000
0000
,  // measure 67
0000
0000
0000
0000
,  // measure 68
1000
0001
1000
0000
,  // measure 69
0100
1000
0100
0000
,  // measure 70
1000
0001
1000
0000
,  // measure 71
0100
1000
0100
0000
,  // measure 72
1000
0001
1000
0000
,  // measure 73
0001
0100
0001
0000
,  // measure 74
1000
0001
1000
0000
,  // measure 75
0001
0100
0001
0000
,  // measure 76
0000
0000
0000
0000
,  // measure 77
1001
0000
1000
0000
,  // measure 78
0001
0000
1000
0000
,  // measure 79
0100
0000
0100
0000
,  // measure 80
0010
0000
0010
0000
,  // measure 81
0001
1000
0001
0000
,  // measure 82
0010
0001
0010
0000
,  // measure 83
0100
0010
0100
0010
,  // measure 84
0100
0010
0001
0100
,  // measure 85
0010
0000
1000
0000
,  // measure 86
0010
0000
0100
0000
,  // measure 87
0010
1000
0010
1000
,  // measure 88
0100
0010
0001
1000
,  // measure 89
0010
0100
0010
0000
,  // measure 90
1000
0010
1000
0000
,  // measure 91
0001
0010
0100
1000
,  // measure 92
0001
0100
0001
1000
,  // measure 93
0001
0000
1001
0000
,  // measure 94
1000
0000
1001
0000
,  // measure 95
0001
0000
1001
0000
,  // measure 96
1000
0000
1001
0000
,  // measure 97
0001
1000
0001
0000
,  // measure 98
0010
0001
0010
0000
,  // measure 99
0100
0010
0100
0010
,  // measure 100
0100
0010
0001
1000
,  // measure 101
0110
0000
0000
0000
;
