#TITLE:ドキメキダイアリー;
#SUBTITLE:;
#ARTIST:asmi feat. Chinozo;
#TITLETRANSLIT:DOKIMEKI DIARY;
#SUBTITLETRANSLIT:;
#ARTISTTRANSLIT:;
#GENRE:;
#CREDIT:DigiMindAxel;
#BANNER:DOKIMEKI DIARY.png;
#BACKGROUND:DOKIMEKI DIARY-bg.png;
#LYRICSPATH:DOKIMEKI DIARY.lrc;
#CDTITLE:DigiMindAxel original simfile.png;
#MUSIC:DOKIMEKI DIARY.ogg;
#OFFSET:-0.015000;
#SAMPLESTART:51.395161;
#SAMPLELENGTH:12.000000;
#SELECTABLE:YES;
#BPMS:0.000000=185.000000
;
#STOPS:
;
#BGCHANGES:0.000=DOKIMEKI DIARY.avi=1.000=1=0=0=StretchNoLoop==CrossFade==,
99999=-nosongbg-=1.000=0=0=0 // don't automatically add -songbackground-
;
#KEYSOUNDS:;
#ATTACKS:;

//---------------dance-single - ----------------
#NOTES:
     dance-single:
     :
     Easy:
     5:
     0.274246,0.359948,0.076353,0.010908,0.000000,176.000000,169.000000,7.000000,1.000000,0.000000,0.000000,0.274246,0.359948,0.076353,0.010908,0.000000,176.000000,169.000000,7.000000,1.000000,0.000000,0.000000:
0000
0000
0000
0000
,
0000
0000
0000
0000
,
0000
0000
0000
0000
,
0000
0000
0000
0000
,
0000
0000
0000
0000
,
0000
0000
0000
0000
,
0001
0010
0001
1000
,
0100
0010
0000
0000
,
0001
0100
0001
1000
,
0100
0010
0001
0000
,
1000
0000
1000
0000
,
1000
0000
1000
0000
,
0100
0000
0100
0000
,
0100
0000
0100
0000
,
0010
0000
0010
0000
,
0010
0000
0010
0000
,
0001
0010
0100
1000
,
0001
1000
0001
0000
,
0100
0010
0100
0001
,
0010
0100
1000
0000
,
0100
1000
0100
1000
,
0010
0100
0001
0000
,
0010
0001
0010
0001
,
1000
0010
0100
0000
,
0010
1000
0010
1000
,
0001
0010
0100
1000
,
0002
0000
0000
0000
,
0000
0000
0000
0000
,
1003
0000
1000
0000
,
0100
0000
0010
0000
,
0001
0000
0001
0000
,
0100
0000
0100
0000
,
0010
0000
1000
0000
,
0001
0000
0010
0000
,
0001
0000
0001
0000
,
0001
0000
0001
0000
,
1001
0000
0000
1000
0000
0000
0001
0000
,
0000
0001
0000
0000
0010
0000
0000
0000
,
0100
0000
1000
0000
,
1001
0000
0000
0000
,
0001
0000
0100
0000
,
0001
0100
0010
0000
,
1000
0000
0100
0000
,
1000
0100
0010
0000
,
0001
1000
0001
0100
,
0010
1000
0100
0010
,
0001
0001
0100
0100
,
0010
1000
0001
0000
,
1000
0000
0100
0000
,
1000
0010
0100
0000
,
0001
0000
0010
0000
,
0001
0100
0010
0000
,
1000
0001
1000
0001
,
0010
0001
0010
0001
,
0100
0100
0010
1000
,
0001
0001
0001
0000
,
1000
1000
1000
1000
,
0100
0010
0001
0000
,
0100
0100
0100
0100
,
0010
1000
0010
1000
,
0001
0001
0001
0001
,
0010
0100
1000
0000
,
0010
0100
0010
0100
,
0001
0000
1000
0000
,
1001
0000
1001
0000
,
1001
0000
1001
0000
,
1001
0000
0000
0000
;

//---------------dance-single - ----------------
#NOTES:
     dance-single:
     :
     Medium:
     11:
     0.473697,0.621182,0.708988,0.392670,0.000000,304.000000,239.000000,65.000000,36.000000,0.000000,0.000000,0.473697,0.621182,0.708988,0.392670,0.000000,304.000000,239.000000,65.000000,36.000000,0.000000,0.000000:
0000
0000
0000
0000
,
0000
0000
0000
0000
,
0000
0000
0000
0000
,
0000
0000
0000
0000
,
0000
0000
0000
0000
,
0000
0000
0000
0000
,
1000
0010
0001
0010
,
1000
0100
0010
0002
0000
0000
0003
0000
,
1000
0010
0001
0010
,
1000
0100
0010
0001
0000
1001
0000
0000
,
0010
0010
0010
0010
,
0010
0010
0010
0010
,
0100
0100
0100
0100
,
0100
0100
0100
0100
,
0010
0010
0010
0010
,
0010
0010
0010
0010
,
1000
0100
0010
0000
0001
0000
0101
0000
,
1010
1010
1001
0000
,
0001
0010
0001
0000
0100
0010
1000
0000
,
0001
0000
1000
0010
0000
1000
0001
0000
,
0010
0011
0100
0110
,
1000
0100
0000
0010
0000
0001
0000
0000
,
1000
0010
1000
0000
0001
0010
0100
0000
,
1000
0000
0001
0100
0000
0010
1000
0000
,
0100
0110
0001
0011
,
1100
0000
0010
0001
1000
0000
1000
0000
,
0002
0203
2300
3200
,
0302
0000
0000
0000
,
1003
0001
0010
0100
,
1000
1000
1010
0000
,
2000
0000
3000
0001
2000
0000
3000
0001
,
0000
0001
0000
1000
0002
0000
0003
0000
,
0010
0000
0100
0000
1000
0000
0000
0001
,
0000
0001
0000
0100
0010
0000
1000
0000
,
1001
0001
1000
0001
,
1000
0001
1000
0001
,
0011
0000
0000
0110
0000
0000
1100
0000
,
0000
0110
0000
0000
0011
0000
0001
0000
,
2002
3003
0220
0330
,
2002
0000
0000
0000
0000
3003
0000
1001
,
0000
0001
0011
0100
,
0110
0000
0001
0010
0100
0000
0000
1010
,
0000
0100
0110
0001
,
0011
0000
0100
0000
1000
0000
0000
1001
,
0000
0002
0203
2300
,
3200
0000
0302
0000
1003
0001
0010
0100
,
0000
1100
0011
1100
,
1001
0000
1001
0000
0010
0100
0000
0101
,
0000
0010
1010
0100
,
0110
0000
0001
0010
0100
0000
0000
0011
,
0000
0000
0100
0000
1000
0001
0100
0000
,
1001
0000
0010
0000
0100
1000
0000
1001
,
0000
0002
0203
2300
,
3200
0302
0023
0130
,
1010
0101
1010
1001
,
0110
0110
0110
0000
,
1001
1001
1100
1100
,
0010
0001
0010
0001
0100
0000
0010
0000
,
1010
0100
0101
0100
,
1001
0110
1001
0110
,
0101
0101
1001
1001
,
0100
0001
0100
0001
1000
0000
0100
0000
,
0011
0000
0001
1000
0001
0000
1000
0001
,
1000
0100
0001
0100
,
2002
3003
2002
3003
,
2002
3003
2002
3003
,
0220
0000
0000
0000
,
0330
0000
0000
0000
;

//---------------dance-single - ----------------
#NOTES:
     dance-single:
     :
     Hard:
     13:
     0.631077,0.767343,0.589005,0.185428,0.059991,405.000000,351.000000,54.000000,17.000000,0.000000,0.000000,0.631077,0.767343,0.589005,0.185428,0.059991,405.000000,351.000000,54.000000,17.000000,0.000000,0.000000:
// measure 0
0000
0000
0000
0000
,  // measure 1
0000
0000
0000
0000
,  // measure 2
0000
0000
0000
0000
,  // measure 3
0000
0000
0000
0000
,  // measure 4
0000
0000
0000
0000
,  // measure 5
0000
0000
0000
0000
,  // measure 6
0001
0010
0001
1000
0010
1000
0001
0010
,  // measure 7
0001
0100
0010
2000
0000
0000
3001
1000
,  // measure 8
0020
0000
1030
0001
0020
0000
0031
0000
,  // measure 9
1000
0000
0001
0100
0001
0100
0001
0000
0000
0000
1001
0000
0000
0000
0000
0000
,  // measure 10
1000
0100
1000
0100
,  // measure 11
1000
0000
0100
0000
1000
0100
0010
0001
,  // measure 12
0100
0010
0100
0010
,  // measure 13
0100
0010
0100
0000
0010
0000
0010
0000
,  // measure 14
1001
0100
0001
0100
,  // measure 15
0001
0010
0100
1000
0001
0000
0001
0000
,  // measure 16
0100
0010
0100
0010
2000
0000
3001
0000
,  // measure 17
0110
0000
0000
0000
0110
0000
0000
0000
0110
0000
1000
0001
1000
0001
1000
0001
,  // measure 18
1000
0100
1000
0010
0100
0010
0010
1000
,  // measure 19
0001
0010
1000
0010
0000
0001
0100
0001
,  // measure 20
1000
0100
0010
0100
1000
0010
0100
0010
,  // measure 21
1000
0001
0000
0011
0000
0100
1000
0010
,  // measure 22
0100
0001
0010
0001
0100
0001
0010
0100
,  // measure 23
1000
0100
0001
0100
0000
1000
0001
0010
,  // measure 24
0100
0010
0001
0100
0010
0100
0001
0000
,  // measure 25
1001
0000
0000
0000
0100
0010
0100
0010
0100
0000
0001
0000
1000
0000
0000
0000
,  // measure 26
0001
0100
1000
0100
0001
0100
1000
0100
,  // measure 27
0002
0000
0010
0003
,  // measure 28
1001
1000
0100
0001
,  // measure 29
0100
0000
1000
0000
0010
1001
0000
0000
,  // measure 30
0202
0000
0303
1000
2020
0000
3030
1001
,  // measure 31
0000
1001
0000
0100
0202
0000
0303
0010
,  // measure 32
0010
0100
0100
1000
1000
0000
0001
0001
,  // measure 33
0000
0001
1000
0100
0010
0001
1000
0000
,  // measure 34
1002
0100
1000
0100
,  // measure 35
2003
0100
0001
3100
,  // measure 36
1001
0000
0010
0011
0000
0100
0110
0000
,  // measure 37
1000
1100
0000
0010
0110
0000
0100
0001
,  // measure 38
1000
0000
0000
1000
0000
0000
1000
0000
0010
0000
0000
0010
0000
0000
0010
0000
,  // measure 39
2002
0000
0000
0000
0000
3003
0000
1001
,  // measure 40
0000
0101
0110
0101
,  // measure 41
0110
0000
0100
0001
1000
0000
0000
1001
,  // measure 42
0000
0010
1000
0100
0010
0100
1000
0000
,  // measure 43
1100
0000
0001
0000
0101
0000
0000
1001
,  // measure 44
0000
0001
1000
0010
0001
0010
1000
0100
,  // measure 45
0001
0100
1000
0010
0100
0010
1000
0100
,  // measure 46
0010
0000
0100
1000
0010
0100
0010
1000
,  // measure 47
1001
0000
1001
0000
0100
0110
0000
1001
,  // measure 48
0000
1100
0110
1100
,  // measure 49
0110
0000
0100
1000
0001
0000
0000
1001
,  // measure 50
0000
0100
0010
1000
0100
0010
0100
0000
,  // measure 51
1001
0000
1000
0001
0010
0100
0000
1010
,  // measure 52
0000
0010
1000
0100
0001
0100
1000
0010
,  // measure 53
0001
0010
1000
0100
0010
0100
1000
0001
,  // measure 54
0010
0000
0100
1000
0001
0010
1000
0010
,  // measure 55
0011
0011
1001
1001
,  // measure 56
1010
0000
1010
0000
1010
1000
0001
0010
,  // measure 57
0100
0010
0001
1000
0000
1000
0001
0010
,  // measure 58
1000
0010
0001
0100
1000
0100
0001
1000
,  // measure 59
0010
0010
0100
0100
0010
0010
0100
0100
,  // measure 60
0101
0000
0101
0000
0101
0001
1000
0100
,  // measure 61
0010
0100
1000
0001
0000
0001
0100
0010
,  // measure 62
1000
0100
0001
0100
1000
0010
0001
0010
,  // measure 63
1000
0001
1000
0000
0100
0000
0000
0000
0011
0000
0000
0000
1001
0000
0000
0000
,  // measure 64
0100
0000
0100
0000
,  // measure 65
0100
0000
0000
0000
0000
0000
0000
0000
0100
0000
1000
0001
1000
0000
0100
0000
,  // measure 66
0220
0000
0000
0000
,  // measure 67
0330
0000
0000
0000
;

//---------------dance-single - ----------------
#NOTES:
     dance-single:
     :
     Beginner:
     2:
     0.124657,0.179974,0.054538,0.000000,0.000000,80.000000,75.000000,5.000000,0.000000,0.000000,0.000000,0.124657,0.179974,0.054538,0.000000,0.000000,80.000000,75.000000,5.000000,0.000000,0.000000,0.000000:
0000
0000
0000
0000
,
0000
0000
0000
0000
,
0000
0000
0000
0000
,
0000
0000
0000
0000
,
0000
0000
0000
0000
,
0000
0000
0000
0000
,
1000
0000
0100
0000
,
1000
0000
0000
0000
,
0001
0000
0010
0000
,
0001
0000
0000
0000
,
0100
0000
0000
0000
,
0100
0000
0000
0000
,
0010
0000
0000
0000
,
0010
0000
0000
0000
,
0100
0000
0000
0000
,
0100
0000
0000
0000
,
0010
0000
0010
0000
,
0010
0000
0000
0000
,
1000
0000
0100
0000
,
1000
0000
0000
0000
,
0001
0000
1000
0000
,
0001
0000
0000
0000
,
0010
0000
0001
0000
,
0010
0000
0000
0000
,
0100
0000
0010
0000
,
0100
0000
0000
0000
,
1001
0000
0000
0000
,
0000
0000
0000
0000
,
1000
0000
0000
0000
,
0000
0000
0000
0000
,
1001
0000
0000
0000
,
0000
0000
0000
0000
,
0010
0000
0000
0000
,
0010
0000
0000
0000
,
0100
0000
0000
0000
,
0100
0000
0000
0000
,
1001
0000
0000
0000
,
0000
0000
0000
0000
,
0001
0000
0010
0000
,
0100
0000
0000
0000
0000
0000
0000
1000
,
0000
0000
0001
0000
,
0001
0000
0000
0000
0000
0000
0000
1000
,
0000
0000
0100
0000
,
0100
0000
0000
0000
0000
0000
0000
1000
,
0000
0000
0000
0000
0000
0000
0000
0001
,
0000
0000
0000
0000
0000
0000
0000
0100
,
0000
0000
0000
0000
,
1001
0000
0000
0000
0000
0000
0000
0001
,
0000
0000
1000
0000
,
1000
0000
0000
0000
0000
0000
0000
0001
,
0000
0000
0010
0000
,
0010
0000
0000
0000
0000
0000
0000
0001
,
0000
0000
0000
0000
0000
0000
0000
1000
,
0000
0000
0000
0000
,
0001
0000
0001
0000
,
0100
0000
0000
0000
,
0010
0000
0010
0000
,
0010
0000
0000
0000
,
0100
0000
0100
0000
,
0100
0000
0000
0000
,
0001
0000
0001
0000
,
0001
0000
0000
0000
,
1000
0000
1000
0000
,
1001
0000
0000
0000
,
0001
0000
0001
0000
,
0001
0000
0000
0000
,
0100
0000
0000
0000
;
