#VERSION:0.83;
#TITLE:第1ステージ;
#SUBTITLE:;
#ARTIST:DJ Sharpnel;
#TITLETRANSLIT:DAI 1 STAGE;
#SUBTITLETRANSLIT:;
#ARTISTTRANSLIT:;
#GENRE:;
#ORIGIN:;
#CREDIT:DigiMindAxel;
#BANNER:DAI 1 STAGE.png;
#BACKGROUND:DAI 1 STAGE-bg.png;
#PREVIEWVID:;
#JACKET:DAI 1 STAGE-jacket.png;
#CDIMAGE:;
#DISCIMAGE:;
#LYRICSPATH:;
#CDTITLE:DigiMindAxel original simfile.png;
#MUSIC:DAI 1 STAGE.ogg;
#OFFSET:0.209000;
#SAMPLESTART:70.068932;
#SAMPLELENGTH:12.000000;
#SELECTABLE:YES;
#BPMS:0.000=179.300;
#STOPS:;
#DELAYS:;
#WARPS:;
#TIMESIGNATURES:0.000=4=4;
#TICKCOUNTS:0.000=4;
#COMBOS:0.000=1;
#SPEEDS:0.000=1.000=0.000=0;
#SCROLLS:0.000=1.000;
#FAKES:;
#LABELS:0.000=Song Start;
#BGCHANGES:;
#KEYSOUNDS:;
#ATTACKS:
;

//---------------dance-single - ----------------
#NOTEDATA:;
#CHARTNAME:;
#STEPSTYPE:dance-single;
#DESCRIPTION:;
#CHARTSTYLE:;
#DIFFICULTY:Hard;
#METER:13;
#RADARVALUES:0.532963,0.665599,0.348084,0.178504,0.196355,418.000000,379.000000,39.000000,20.000000,0.000000,0.000000,0.000000,0.000000,0.000000,0.532963,0.665599,0.348084,0.178504,0.196355,418.000000,379.000000,39.000000,20.000000,0.000000,0.000000,0.000000,0.000000,0.000000;
#CREDIT:;
#NOTES:
// measure 0
0000
0000
0000
0000
,  // measure 1
0000
0000
0000
0000
,  // measure 2
0000
0000
0000
0000
,  // measure 3
0000
0000
0000
0000
,  // measure 4
1000
0000
0000
1000
0000
0000
1000
0000
0001
0000
0100
0000
0001
0000
0100
0000
,  // measure 5
1000
0100
1000
0100
0001
0010
0001
0010
,  // measure 6
1000
0010
0001
0000
1000
0010
0100
0001
,  // measure 7
1000
0100
0001
0100
2000
0000
3002
0000
,  // measure 8
0103
0101
1001
0010
,  // measure 9
1010
0000
0100
0001
1000
0000
1001
0000
,  // measure 10
0001
0010
0100
1000
1001
0000
0010
0000
,  // measure 11
0011
0000
0100
1000
0001
0000
1001
0000
,  // measure 12
1000
0010
0100
0001
1000
0000
1100
0000
,  // measure 13
1001
0000
0010
0001
1000
0000
1001
0000
,  // measure 14
0100
1000
0010
0100
0001
0000
0101
0000
,  // measure 15
1001
0000
0100
0001
1000
0000
0000
0000
,  // measure 16
0000
0000
0001
0001
1001
0000
0000
1100
,  // measure 17
0000
0000
0010
0001
1001
0000
0000
0011
,  // measure 18
0000
0000
0010
1000
1001
0000
0000
1010
,  // measure 19
0000
0000
0100
0001
1001
0000
0000
0101
,  // measure 20
0000
0000
0010
0000
1001
0000
0000
1100
,  // measure 21
0000
0000
0010
0001
1001
0000
0000
0011
,  // measure 22
0000
0000
0100
1000
1001
0000
0000
1100
,  // measure 23
0000
0000
0100
0001
1001
0000
0000
0101
,  // measure 24
0000
0000
0010
1000
0001
0010
0100
0010
,  // measure 25
0001
1000
0010
0010
1000
0100
0010
0100
,  // measure 26
1000
0001
0100
0100
0001
1000
0100
1000
,  // measure 27
0001
0100
0010
0010
1000
0001
0010
0001
,  // measure 28
1000
0010
0100
0100
0001
0100
1000
0100
,  // measure 29
0001
0000
1000
0000
0100
1000
0100
0000
1000
0000
0010
0000
0001
0000
0010
0000
,  // measure 30
1000
0000
0001
0000
0010
0001
0010
0000
0001
0000
0100
0000
1000
0000
0100
0000
,  // measure 31
0001
0000
1000
0000
0100
0010
0100
0000
1000
0000
0000
0000
0000
0000
0000
0000
,  // measure 32
1000
0100
1001
0000
,  // measure 33
0000
0000
0000
0000
0000
0000
0000
0000
0000
0000
1000
0000
0000
1000
0000
0000
,  // measure 34
0010
0000
0000
0010
0000
0000
0100
0000
1001
0000
0000
0000
0000
0000
0000
0000
,  // measure 35
0000
0000
0000
0000
0000
0000
0000
0000
0000
0000
0001
0000
0000
0001
0000
0000
,  // measure 36
0100
0000
0000
0100
0000
0000
0010
0000
1001
0000
0000
0000
0000
0000
0000
0000
,  // measure 37
0000
0000
0000
0000
0000
0000
0000
0000
0000
0000
0010
0000
0000
0010
0000
0000
,  // measure 38
0100
0000
0000
0100
0000
0000
0010
0000
1001
0000
0000
0000
0000
0000
0000
0000
,  // measure 39
0000
0000
0000
0000
0000
0000
0000
0000
0000
0000
0100
0000
0000
0100
0000
0000
,  // measure 40
0010
0000
0000
0010
0000
0000
0100
0000
0001
0000
1000
0000
0000
1000
0000
0000
,  // measure 41
0010
0000
0000
0010
0000
0000
0100
0000
0000
0000
0001
0000
0000
0001
0000
0000
,  // measure 42
0010
0000
0000
0010
0000
0000
0100
0000
1000
0000
0001
0000
0000
0001
0000
0000
,  // measure 43
0100
0000
0000
0100
0000
0000
0010
0000
0000
0000
1000
0000
0000
1000
0000
0000
,  // measure 44
0100
0000
0000
0100
0000
0000
0010
0000
0001
0000
1000
0000
0000
1000
0000
0000
,  // measure 45
0010
0000
0000
0010
0000
0000
0100
0000
0000
0000
0001
0000
0000
0001
0000
0000
,  // measure 46
0100
0000
0000
0100
0000
0000
0010
0000
1000
0000
0001
0000
0000
0001
0000
0000
,  // measure 47
0010
0000
0000
0010
0000
0000
0100
0000
1000
0000
0001
0000
0010
0000
0001
0000
,  // measure 48
1000
0001
0010
0000
1001
0000
0000
0000
,  // measure 49
0000
0000
0000
0000
,  // measure 50
0000
0000
0000
0000
,  // measure 51
0000
0000
1001
0000
,  // measure 52
0000
0000
0000
0000
0001
0100
1000
0100
,  // measure 53
0010
1000
0000
1000
0010
1000
0002
0000
,  // measure 54
0000
0013
0100
1000
0001
0100
0001
0000
,  // measure 55
0100
0000
0010
0000
1000
0000
0100
0000
0010
0000
0001
1000
0000
0001
1000
0000
,  // measure 56
0100
0001
0100
1000
0001
0100
1000
0100
,  // measure 57
0010
1000
0000
1000
0010
0100
0002
0000
,  // measure 58
0000
0103
0010
1000
0100
0010
0000
0010
,  // measure 59
0001
0000
0010
0000
0000
0000
0010
0000
0002
0000
0000
0200
0000
0000
0000
0000
,  // measure 60
0000
0000
0000
0000
0303
0000
0000
0000
1000
0000
0000
0001
0000
0000
0202
0000
,  // measure 61
0000
0000
0000
0000
0303
0000
0000
0000
0010
0000
0000
1000
0000
0000
2002
0000
,  // measure 62
0000
0000
0000
0000
3003
0000
0000
0000
0001
0000
0000
0100
0000
0000
0010
0000
,  // measure 63
1000
0000
0000
0100
0000
0000
0010
0000
0001
0000
0000
0100
0000
0000
0010
0000
,  // measure 64
1000
0000
0000
0100
0000
0000
0020
0000
0000
0000
0000
0000
0000
0000
0000
0000
,  // measure 65
0002
0000
0033
0000
0001
0100
1000
0100
,  // measure 66
0010
1000
0000
1000
0010
0100
0010
1000
,  // measure 67
0100
0001
0100
1000
0001
0010
0100
1000
,  // measure 68
0000
0000
1000
0000
0010
0000
0100
0000
0010
0000
1000
0001
0000
1000
0001
0000
,  // measure 69
1000
0100
0010
0001
1000
0010
0001
0010
,  // measure 70
0100
0001
0000
0001
0100
0010
0001
0010
,  // measure 71
0100
0001
0100
1000
0100
0001
0000
0001
,  // measure 72
0100
0000
0001
0000
0000
0000
0001
0000
2000
0000
0000
0020
0000
0000
0000
0000
,  // measure 73
0000
0000
0000
0000
3030
0000
0000
0000
0100
0000
0000
0001
0000
0000
2002
0000
,  // measure 74
0000
0000
0000
0000
0000
0000
3003
0000
0100
0000
0000
1000
0000
0000
2200
0000
,  // measure 75
0000
0000
0000
0000
0000
0000
3300
0000
1000
0000
0000
0010
0000
0000
0100
0000
,  // measure 76
0001
0000
0000
0010
0000
0000
0100
0000
1000
0000
0000
0100
0000
0000
0010
0000
,  // measure 77
0001
0000
0000
0100
0000
0000
0020
0000
0000
0000
0000
0000
0000
0000
0000
0000
,  // measure 78
2000
3030
1001
0000
;

//---------------dance-single - ----------------
#NOTEDATA:;
#CHARTNAME:;
#STEPSTYPE:dance-single;
#DESCRIPTION:;
#CHARTSTYLE:;
#DIFFICULTY:Medium;
#METER:11;
#RADARVALUES:0.386335,0.525473,0.285607,0.098177,0.000000,303.000000,271.000000,32.000000,11.000000,0.000000,0.000000,0.000000,0.000000,0.000000,0.386335,0.525473,0.285607,0.098177,0.000000,303.000000,271.000000,32.000000,11.000000,0.000000,0.000000,0.000000,0.000000,0.000000;
#CREDIT:;
#NOTES:
0000
0000
0000
0000
,
0000
0000
0000
0000
,
0000
0000
0000
0000
,
0000
0000
0000
0000
,
1001
0000
1000
1000
,
0001
0000
0001
1000
0010
0000
0010
0000
,
0100
0000
0100
0001
1000
0000
1000
0000
,
0001
0000
0001
0010
0200
0000
2300
0000
,
3002
1003
1001
0001
,
1000
0000
0001
0100
0001
0000
0010
0000
,
0100
1000
0100
0010
0001
0000
1000
0000
,
0001
0000
1000
0100
1000
0000
0010
0000
,
0100
0001
0010
0100
1000
0000
0001
0000
,
1000
0000
0001
0100
0001
0000
0010
0000
,
0100
1000
0100
0010
0001
0000
1000
0000
,
0001
0000
1000
0010
1000
0000
0000
0000
,
0000
0000
0100
0100
,
0100
1000
0100
0010
,
0001
0100
0010
0010
,
0010
1000
0100
0010
,
0001
0100
0010
0010
,
0010
0000
1000
0100
0010
0000
0001
0000
,
0100
0000
0010
1000
0100
0000
0010
0000
,
0001
0000
1000
0100
0010
0000
0100
0000
,
1000
0000
0010
0000
0100
0010
0100
0000
,
0001
0010
0100
0000
1000
0010
1000
0000
,
0010
0100
0001
0000
0100
0010
0100
0000
,
0001
0010
0100
0000
0010
0001
0010
0000
,
0100
1000
0010
0000
1000
0001
1000
0000
,
0010
0100
0001
0000
0010
0100
0010
0000
,
0001
0100
0010
0000
1000
0001
1000
0001
,
1000
0001
1000
0001
0010
0000
0000
0000
,
0000
0000
0101
0000
,
0000
0000
0000
0000
,
0000
0000
1010
0000
,
0000
0000
0000
0000
,
0000
0000
0011
0000
,
0000
0000
0000
0000
,
0000
0000
1100
0000
,
0000
0000
0000
0000
,
0000
0000
0011
0000
,
0000
0000
0000
0000
,
0000
0000
1001
0000
,
0000
0000
0000
0000
,
0000
0000
1010
0000
,
0000
0000
0000
0000
,
0000
0000
1001
0100
,
0010
0001
1000
1000
,
1000
0010
0110
0000
,
0000
0000
0000
0000
,
0000
0000
0000
0000
,
0000
0000
1001
0000
,
0000
0000
0000
0000
1000
0001
0100
0000
,
0001
0100
0010
0000
1000
0100
1000
0100
,
0010
0001
1000
0000
0001
0100
0010
0000
,
0100
0001
0010
0000
0100
1000
0001
0010
,
0100
1000
0001
0000
0100
0001
0010
0000
,
0100
1000
0001
0000
0100
0001
0010
0100
,
1000
0001
1000
0000
0100
0010
0001
0000
,
0010
0100
1000
0000
2002
0000
0000
0000
,
0000
0000
3003
0000
1100
0000
0000
1100
,
0000
0000
0010
0000
0101
0000
0000
0101
,
0000
0000
1001
0000
,
0110
0000
1001
0000
,
0110
0000
2001
0000
,
3002
0000
0000
0000
1003
0001
0010
0000
,
0100
1000
0001
0000
1000
0100
0010
0001
,
0010
0100
1000
0000
0010
0100
0001
0000
,
0100
0010
1000
0000
0001
0100
0010
1000
,
0010
0100
0001
0000
0010
0100
1000
0000
,
0100
0010
0001
0000
0010
0001
0100
0010
,
1000
0100
0010
0000
0001
0100
0010
0000
,
1000
0010
0100
0000
2002
0000
0000
0000
,
0000
0000
3003
0000
0011
0000
0000
0011
,
0000
0000
0100
0000
1010
0000
0000
1010
,
0000
0000
1001
0000
,
0110
0000
1001
0000
,
0110
0000
2001
0000
,
3002
0000
0103
0000
;

//---------------dance-single - ----------------
#NOTEDATA:;
#CHARTNAME:;
#STEPSTYPE:dance-single;
#DESCRIPTION:;
#CHARTSTYLE:;
#DIFFICULTY:Easy;
#METER:7;
#RADARVALUES:0.266482,0.350315,0.142804,0.008925,0.000000,209.000000,193.000000,16.000000,1.000000,0.000000,0.000000,0.000000,0.000000,0.000000,0.266482,0.350315,0.142804,0.008925,0.000000,209.000000,193.000000,16.000000,1.000000,0.000000,0.000000,0.000000,0.000000,0.000000;
#CREDIT:;
#NOTES:
0000
0000
0000
0000
,
0000
0000
0000
0000
,
0000
0000
0000
0000
,
0000
0000
0000
0000
,
1001
0000
1000
1000
,
0100
0100
0010
0010
,
0001
0001
0100
1000
,
0100
0010
1000
0000
,
0000
0000
0001
0100
,
0001
0100
0010
1000
,
0001
1000
0001
0010
,
0001
0010
0100
1000
,
0001
1000
0001
0100
,
0001
0100
0010
1000
,
0001
0100
0010
0100
,
0010
0100
1001
0000
,
0000
0000
1000
0010
,
1000
0010
0100
0001
,
0100
0001
0010
0100
,
0010
0100
1000
0001
,
1000
0001
0100
0010
,
0100
0010
1000
0100
,
1000
0100
0010
0001
,
0010
0001
0100
0010
,
0100
0010
1000
0010
,
0001
0010
1000
0100
,
0001
0100
1000
0010
,
0001
0010
1000
0100
,
0001
0100
1000
0010
,
0001
0010
1000
0100
,
0001
0100
1000
0001
,
1000
0001
1001
0000
,
0000
0000
0100
0000
,
0000
0000
0000
0000
,
0000
0000
0100
0000
,
0000
0000
0000
0000
,
0000
0000
0100
0000
,
0000
0000
0000
0000
,
0000
0000
0100
0000
,
0000
0000
0000
0000
,
0000
0000
0100
0000
,
0000
0000
0000
0000
,
0000
0000
0100
0000
,
0000
0000
0000
0000
,
0000
0000
0100
0000
,
0000
0000
0000
0000
,
0000
0000
0100
0000
,
0100
0000
0100
0100
,
0100
0100
0110
0000
,
0000
0000
0000
0000
,
0000
0000
0000
0000
,
0000
0000
0110
0000
,
0000
0000
1000
0010
,
0100
0100
0001
0010
,
0100
1000
0100
0100
,
0100
1000
0001
0100
,
0010
1000
1000
1000
,
1000
0001
0010
0100
,
1000
0001
0100
0010
,
0100
0001
2000
0000
,
0000
3000
0110
0000
,
0000
0000
1001
0000
,
0000
0000
0110
0000
,
0010
0000
0110
0000
,
0100
0000
0110
0000
,
0000
0000
0010
1000
,
0001
1000
0010
0100
,
0001
0001
0100
1000
,
0100
0001
0010
1000
,
0010
0001
1000
0100
,
1000
0001
1000
0100
,
0010
0001
1000
1000
,
0010
0010
0100
0000
,
0000
0000
0110
0000
,
0000
0000
0110
0000
,
0000
0000
0110
0000
,
0010
0000
0110
0000
,
0100
0000
0110
0000
,
0010
0000
1001
0000
;

//---------------dance-single - ----------------
#NOTEDATA:;
#CHARTNAME:;
#STEPSTYPE:dance-single;
#DESCRIPTION:;
#CHARTSTYLE:;
#DIFFICULTY:Challenge;
#METER:16;
#RADARVALUES:0.827496,1.156040,0.606915,0.205280,0.789882,649.000000,581.000000,68.000000,23.000000,0.000000,0.000000,0.000000,0.000000,0.000000,0.827496,1.156040,0.606915,0.205280,0.789882,649.000000,581.000000,68.000000,23.000000,0.000000,0.000000,0.000000,0.000000,0.000000;
#CREDIT:;
#NOTES:
0000
0000
0000
0000
,
0000
0000
0000
0000
,
0000
0000
0000
0000
,
0000
0000
0000
0000
,
0110
0000
0000
0110
0000
0000
0110
0000
0001
0000
0010
0000
0001
0000
1000
0000
,
0001
0000
0010
0000
0001
0000
1000
0010
0100
0000
0001
0000
0100
0000
0010
0000
,
0100
0000
0001
1000
0100
1000
0100
0010
0001
1000
0001
1000
0001
1000
0001
1000
,
0100
0010
0100
0010
0100
0010
0100
0010
0200
0000
0000
0000
2300
0000
0000
0000
,
3002
0103
1001
1100
,
0011
0000
1100
0010
0101
0000
0101
0000
,
1001
0010
0100
1000
1100
0000
0011
0000
,
1100
0000
0011
1000
1010
0000
1010
0000
,
0011
0100
1000
0100
0101
0000
1010
0000
,
0101
0000
1010
0001
0011
0000
0011
0000
,
1001
0010
0100
1000
1010
0000
0101
0000
,
1010
0000
0000
0000
0101
0000
1000
0000
1001
0000
0010
0100
0010
0100
0010
0100
,
0010
0000
0000
0000
0100
0010
1000
0010
0100
0000
0001
0000
0010
0000
1100
0000
,
0000
0010
0100
0100
0001
0010
0100
1010
,
0000
0100
0001
0001
1000
0100
0010
0101
,
0000
0010
0001
0001
0010
0100
1000
0101
,
0000
0000
0010
0000
1000
0000
0100
0010
0002
0000
0100
0000
1003
0000
1100
0000
,
0000
0010
0001
0001
2000
0100
3001
0101
,
0000
0001
1000
1000
0002
0010
1003
1010
,
0000
1000
0001
0001
2000
0010
3001
0011
,
0000
0000
1000
0000
0001
0100
0001
0100
0010
0000
1000
0000
0100
0000
0001
0000
,
0100
0000
1000
0000
0100
0010
0100
0010
0001
0000
1000
0000
0010
0000
0001
0000
,
0010
0000
1000
0000
0010
0100
0010
0100
0001
0000
1000
0000
0100
0000
0001
0000
,
0100
0000
1000
0000
0100
0010
0100
0010
0001
0000
1000
0000
0010
0000
0001
0000
,
0010
0000
1000
0000
0010
0100
0010
0100
0001
0000
0100
0000
1000
0000
0100
0000
,
0010
0000
1000
0000
0100
0010
0100
0010
0001
0000
0100
0000
1000
0000
0100
0000
,
0010
0000
1000
0000
0001
0010
0001
0010
0100
1000
0100
1000
0100
1000
0100
1000
,
0010
0100
0010
0100
0010
0100
0010
0100
0010
0000
1000
0100
0010
0000
0010
0000
,
0001
0100
0010
0000
0100
0000
0100
0000
1001
0000
0000
0000
0000
0000
0000
0000
,
0000
0000
0000
0000
0000
0000
0000
0000
0000
0000
1000
0000
0000
0100
0000
0000
,
0001
0000
0000
0010
0000
0000
1000
0000
1001
0000
0000
0000
0000
0000
0000
0000
,
0000
0000
0000
0000
0000
0000
0000
0000
0000
0000
0001
0000
0000
0100
0000
0000
,
1000
0000
0000
0010
0000
0000
0001
0000
1001
0000
0000
0000
0000
0000
0000
0000
,
0000
0000
0000
0000
0000
0000
0000
0000
0000
0000
0001
0000
0000
0100
0000
0000
,
1000
0000
0000
0010
0000
0000
0001
0000
1001
0000
0000
0000
0000
0000
0000
0000
,
0000
0000
0000
0000
0000
0000
0000
0000
0000
0000
1000
0000
0000
0100
0000
0000
,
0001
0000
0000
0010
0000
0000
1000
0000
1001
0000
0010
0000
0000
0100
0000
0000
,
1000
0000
0000
0100
0000
0000
0011
0000
0000
0000
1000
0000
0000
0010
0000
0000
,
0001
0000
0000
0100
0000
0000
1000
0000
1001
0000
0010
0000
0000
0100
0000
0000
,
1000
0000
0000
0100
0000
0000
0011
0000
0000
0000
1000
0000
0000
0100
0000
0000
,
0001
0000
0000
0010
0000
0000
1000
0000
1001
0000
0010
0000
0000
0100
0000
0000
,
1000
0000
0000
0100
0000
0000
0011
0000
0000
0000
1000
0000
0000
0010
0000
0000
,
0001
0000
0000
0100
0000
0000
1000
0000
0001
0100
0001
0100
0001
0100
0001
0100
,
0001
1000
0001
1000
0001
1000
0001
1000
0001
0010
0001
0010
0100
1000
0100
1000
,
0001
0100
0010
0100
0001
0010
0100
1000
0001
0000
0000
0000
0000
0000
0001
0000
,
0000
0000
0001
0000
1000
0000
0000
1000
,
0000
0000
1000
0000
0001
0000
0000
0001
,
0000
0001
0101
0000
,
0010
0000
0100
0010
0100
0010
0100
0010
1000
0000
0000
1000
0100
0000
0000
0100
,
0010
0000
0002
0000
0000
0000
0103
0000
0010
1000
0100
1000
0010
0000
0100
0000
,
0001
0010
0100
0010
0001
0100
0010
1000
0100
0000
0000
0100
1000
0000
0000
1000
,
0010
0000
0000
0010
0100
0001
0010
0100
0010
0000
0001
0100
0000
0010
1000
0000
,
0100
0010
0001
1000
0100
0010
0001
1000
0010
0000
0000
0010
0100
0000
0000
0100
,
0001
0000
2000
0000
0000
0000
3010
0000
1000
0100
0010
0100
1000
0000
0010
0000
,
0100
0001
0010
0001
1000
0100
0010
0001
0010
0000
0001
0100
0001
0000
1000
0000
,
0100
0010
0100
0000
1000
0000
0001
0010
0100
0000
2000
0020
0000
0000
0000
0000
,
0000
0000
0000
0000
3030
0000
0000
0000
1001
0000
0000
0100
0000
0000
0202
0000
,
0000
0000
0303
0000
0010
0100
0010
0000
1001
0000
0000
0100
0000
0000
2200
0000
,
0000
0000
0000
0000
3300
0000
0000
0000
1100
0000
0000
0110
0000
0000
0001
1000
,
0010
0000
0000
1010
0000
0000
0100
0001
1000
0000
0000
1001
0000
0000
0100
0010
,
0001
0000
0000
0011
0000
0000
1002
0000
0000
0000
0000
0000
0000
0000
0000
0000
,
1003
0100
1000
0100
0010
0001
0010
0001
1000
0010
0100
0010
1000
0000
0001
0000
,
0010
0100
1000
0100
0010
0000
0001
0000
0100
0001
1000
0001
0100
0000
0010
0000
,
1000
0001
0010
0001
1000
0100
0010
0001
1000
0010
0100
1000
0100
0000
0010
0000
,
1000
0001
0010
0100
0010
0001
0100
0010
1000
0000
0100
0010
0000
0001
0100
0000
,
0001
0010
0100
1000
0100
0010
0001
0010
0100
1000
0001
1000
0100
0000
0010
0000
,
0001
0100
0010
0100
0001
0000
1000
0000
0100
0010
0001
0010
0100
0000
1000
0000
,
0001
0100
0010
0100
0001
0010
0100
1000
0001
0000
0100
0010
0100
0000
0001
0000
,
1000
0100
1000
0000
0001
0000
1000
0100
0010
0000
0002
0200
0000
0000
0000
0000
,
0000
0000
0000
0000
0303
0000
0000
0000
1001
0000
0000
0010
0000
0000
2020
0000
,
0000
0000
3030
0000
0100
0010
0100
0000
1001
0000
0000
0010
0000
0000
0022
0000
,
0000
0000
0000
0000
0033
0000
0000
0000
1100
0000
0000
0110
0000
0000
0001
1000
,
0010
0000
0000
1010
0000
0000
0100
0001
1000
0000
0000
1001
0000
0000
0100
0010
,
0001
0000
0000
0011
0000
0000
1002
0000
0000
0000
0000
0000
0000
0000
0000
0000
,
0013
0100
0010
0100
1000
0001
1000
0001
0100
0000
0000
0000
0000
0000
0000
0000
;

//---------------dance-single - ----------------
#NOTEDATA:;
#CHARTNAME:;
#STEPSTYPE:dance-single;
#DESCRIPTION:;
#CHARTSTYLE:;
#DIFFICULTY:Beginner;
#METER:3;
#RADARVALUES:0.124953,0.245221,0.107103,0.000000,0.000000,98.000000,86.000000,12.000000,0.000000,0.000000,0.000000,0.000000,0.000000,0.000000,0.124953,0.245221,0.107103,0.000000,0.000000,98.000000,86.000000,12.000000,0.000000,0.000000,0.000000,0.000000,0.000000,0.000000;
#CREDIT:;
#NOTES:
0000
0000
0000
0000
,
0000
0000
0000
0000
,
0000
0000
0000
0000
,
0000
0000
0000
0000
,
0000
0000
1000
0000
,
0000
0000
1000
0000
,
0000
0000
0001
0000
,
0000
0000
0001
0000
,
0000
0000
0010
0000
,
0010
0000
0010
0000
,
0000
0000
0100
0000
,
0100
0000
0100
0000
,
0000
0000
0010
0000
,
0010
0000
0010
0000
,
0000
0000
0100
0000
,
0100
0000
0100
0000
,
0000
0000
1000
0000
,
0000
0000
0001
0000
,
0000
0000
0010
0000
,
0000
0000
0100
0000
,
0000
0000
1000
0000
,
0000
0000
0010
0000
,
0000
0000
0100
0000
,
0000
0000
0010
0000
,
0000
0000
1000
0000
,
0000
0000
0001
0000
,
0000
0000
1000
0000
,
0000
0000
0100
0000
,
0000
0000
0010
0000
,
0000
0000
0001
0000
,
0000
0000
0100
0000
,
0000
0000
0110
0000
,
0000
0000
1001
0000
,
0000
0000
0000
0000
,
0000
0000
1001
0000
,
0000
0000
0000
0000
,
0000
0000
1001
0000
,
0000
0000
0000
0000
,
0000
0000
1001
0000
,
0000
0000
0000
0000
,
0000
0000
1001
0000
,
0000
0000
0000
0000
,
0000
0000
1001
0000
,
0000
0000
0000
0000
,
0000
0000
1001
0000
,
0000
0000
0000
0000
,
0000
0000
1001
0000
,
1000
0000
1000
0000
,
1000
0000
1001
0000
,
0000
0000
0000
0000
,
0000
0000
0000
0000
,
0000
0000
0110
0000
,
0000
0000
0010
0000
,
0100
0000
0010
0000
,
0000
0000
1000
0000
,
0010
0000
1000
0000
,
0000
0000
0001
0000
,
0100
0000
0001
0000
,
0000
0000
1000
0000
,
0001
0000
0010
0000
,
0000
0000
0100
0000
,
0000
0000
1000
0000
,
0000
0000
0010
0000
,
0100
0000
0010
0000
,
0100
0000
0001
0000
,
0000
0000
1000
0000
,
1000
0000
0100
0000
,
0010
0000
0001
0000
,
0001
0000
0100
0000
,
0010
0000
1000
0000
,
1000
0000
0010
0000
,
0100
0000
0001
0000
,
0001
0000
1000
0000
,
0000
0000
0100
0000
,
0000
0000
0010
0000
,
0000
0000
0001
0000
,
0100
0000
0010
0000
,
1000
0000
0000
0000
,
0000
0000
1001
0000
;
