#TITLE:DADDY! DADDY! DO! feat. 鈴木愛理;
#SUBTITLE:;
#ARTIST:鈴木雅之;
#TITLETRANSLIT:DADDY! DADDY! DO! feat. SUZUKI AIRI;
#SUBTITLETRANSLIT:;
#ARTISTTRANSLIT:MASAYUKI SUZUKI;
#GENRE:;
#CREDIT:DigiMindAxel;
#BANNER:DADDY! DADDY! DO! feat. SUZUKI AIRI.png;
#BACKGROUND:DADDY! DADDY! DO! feat. SUZUKI AIRI-bg.png;
#LYRICSPATH:DADDY! DADDY! DO! feat. SUZUKI AIRI.lrc;
#CDTITLE:DigiMindAxel original simfile.png;
#MUSIC:DADDY! DADDY! DO! feat. SUZUKI AIRI.ogg;
#OFFSET:0.193000;
#SAMPLESTART:57.820972;
#SAMPLELENGTH:12.000000;
#SELECTABLE:YES;
#BPMS:0.000000=138.000000
;
#STOPS:
;
#BGCHANGES:0.000=DADDY! DADDY! DO! feat. SUZUKI AIRI.avi=1.000=1=0=0=StretchNoLoop==CrossFade==,
99999=-nosongbg-=1.000=0=0=0 // don't automatically add -songbackground-
;
#KEYSOUNDS:;
#ATTACKS:;

//---------------dance-single - ----------------
#NOTES:
     dance-single:
     :
     Easy:
     3:
     0.183076,0.251377,0.087626,0.065720,0.000000,117.000000,109.000000,8.000000,6.000000,0.000000,0.000000,0.183076,0.251377,0.087626,0.065720,0.000000,117.000000,109.000000,8.000000,6.000000,0.000000,0.000000:
0000
0000
0000
0000
,
0000
0000
0000
0000
,
0000
0000
0000
0000
,
0000
0000
0000
0000
,
0000
0000
0000
0000
,
0000
0001
0000
0100
,
0000
0001
0000
0001
0000
1000
0000
1000
,
0000
0001
0000
0010
0000
0100
0000
1000
,
0000
0000
0000
0010
,
0020
0000
0030
0100
,
0200
0000
0300
0001
,
0001
1000
0000
0100
,
0000
1000
0000
0000
,
0000
0000
0000
0000
1001
0000
0000
1001
,
0000
0000
0001
0000
,
1000
0000
0000
0100
0000
0000
0000
0000
,
0010
0010
0001
0000
,
0000
0000
0000
0000
1001
0000
0000
1001
,
0000
0000
0000
0010
0000
0000
0000
0010
,
0000
0000
0000
0100
0000
0000
0000
0000
,
0000
0000
1000
0000
,
1000
0000
0001
0000
,
0001
0000
0010
0000
,
0010
0000
0000
0000
0001
0000
0000
1000
,
0000
0000
0000
0000
0001
0000
0000
1001
,
0000
0000
0000
0000
1000
0000
0000
1001
,
0000
0000
0010
0000
,
0001
0000
0010
0000
,
0001
0000
1000
1000
,
1000
1000
0001
0001
,
0001
0001
0010
0100
,
0010
0100
0000
0000
,
0000
0000
0000
1000
0000
0100
0000
0010
,
0000
0000
0000
0001
0000
0000
0001
0000
,
0100
0000
0000
0010
0000
0000
0010
0000
,
1000
0000
0000
0100
0000
0000
0100
0000
,
0010
0000
0000
0002
0000
0000
0000
0000
,
0000
1003
0000
0010
,
0000
0000
0000
0100
0000
0000
0000
0110
,
0000
0000
0000
0001
0000
0000
0100
0000
,
0010
0100
0000
0000
,
0000
0000
0000
0001
0000
0000
0001
0000
,
0010
0000
0000
0100
0000
0000
0100
0000
,
1000
0000
0000
0010
0000
0000
0010
0000
,
0100
0000
0000
0002
0000
0000
0000
0000
,
0000
1003
0000
0100
,
0000
1000
0000
1000
0000
0001
0000
0001
,
0000
1000
0000
0100
0000
0010
0000
0001
,
0000
0000
1000
0010
,
1000
0010
0100
0001
,
1000
0000
2002
0000
,
3003
0000
0000
0000
;

//---------------dance-single - ----------------
#NOTES:
     dance-single:
     :
     Medium:
     9:
     0.363022,0.474824,0.405271,0.416224,0.010953,232.000000,195.000000,37.000000,38.000000,0.000000,0.000000,0.363022,0.474824,0.405271,0.416224,0.010953,232.000000,195.000000,37.000000,38.000000,0.000000,0.000000:
0000
0000
0000
0000
,
0000
0000
0000
0000
,
0000
0000
0000
0000
,
0000
0000
0000
0000
,
0000
0000
0000
0000
,
0000
0001
0010
0001
0000
1000
0100
1000
,
0000
0020
0000
1030
0000
0020
0000
1030
,
0000
0002
0000
0013
0000
0011
0000
0011
,
0000
1001
1000
0010
,
0010
0010
1000
0001
0000
0000
0100
0000
,
0100
0100
0001
1000
0000
0000
0010
0000
,
0010
0010
1000
0001
0000
0010
0000
0100
,
0000
1000
1000
0000
0001
0000
0100
0000
,
0001
0000
1000
0000
0100
0000
0000
0000
1001
0000
0000
0001
0000
0000
2002
0000
,
0000
3003
1000
0010
,
1000
0001
0000
0202
0000
0000
0303
0000
,
1001
1001
0001
0100
,
0001
0000
1000
0000
0010
0000
0000
0000
1001
0000
0000
1000
0000
0000
2002
0000
,
0000
3003
0000
0022
0000
0033
0000
0220
,
0000
0330
0000
2200
0000
3300
0000
0000
,
0000
1000
0100
1000
0001
0000
0100
0002
,
0000
0000
0103
0000
0010
0000
1000
0200
,
0000
0000
1300
0000
0010
0000
0001
0200
,
0000
0000
0310
0000
1010
0000
0000
0202
,
0000
0000
0303
0000
0001
0001
0000
2002
,
0000
0000
3003
0000
1000
1000
0000
2002
,
0000
3003
0001
0100
,
1000
0100
0001
0010
,
0100
1000
0100
1000
0001
0001
0001
0001
,
0000
0200
0000
0000
0301
0001
0001
0001
,
0000
0200
0000
0000
0301
0010
0000
0100
,
0000
1000
0000
2002
0000
0000
0000
0000
,
0000
3003
0000
1100
0000
0110
0000
0011
,
0000
0100
1000
0002
0000
1003
0100
1000
,
0001
0000
0000
2000
0000
3001
0010
0001
,
1000
0000
0000
0002
0000
1003
0010
1000
,
0001
0010
0100
2000
0000
0000
0000
3000
,
0000
0001
0100
0001
0000
1000
0010
1000
,
0000
0001
0010
0100
0000
0000
1000
0001
,
0000
0010
0000
1100
0000
0000
0001
0100
,
0001
0000
0000
0101
0000
0110
0000
1010
,
0000
0100
0001
2000
0000
3001
0010
0001
,
1000
0000
0000
0002
0000
1003
0100
1000
,
0001
0000
0000
2000
0000
3001
0100
0001
,
1000
0100
0010
0002
0000
0000
0000
0003
,
0000
1000
0010
1000
0000
0001
0100
0001
,
0000
1001
0000
1001
0000
1100
0000
1100
,
0000
0011
0000
0011
0000
0110
0000
0110
,
0000
0000
0000
0000
1000
0100
0010
0001
,
0000
1000
0000
1010
0000
0001
0000
0101
,
0000
0101
0000
0000
2002
0000
0000
0000
,
3003
0000
0000
0000
;

//---------------dance-single - ----------------
#NOTES:
     dance-single:
     :
     Hard:
     11:
     0.502285,0.530686,0.701009,0.514803,0.060243,321.000000,257.000000,64.000000,47.000000,0.000000,0.000000,0.502285,0.530686,0.701009,0.514803,0.060243,321.000000,257.000000,64.000000,47.000000,0.000000,0.000000:
// measure 0
0000
0000
0000
0000
,  // measure 1
0000
0000
0000
0000
,  // measure 2
0000
0000
0000
0000
,  // measure 3
0000
0000
0000
0000
,  // measure 4
0000
0000
0000
0000
,  // measure 5
0000
1000
0100
0001
0000
0001
0100
1000
,  // measure 6
0000
1200
0000
0310
0000
1200
0000
0310
,  // measure 7
0000
0201
0000
0310
0000
0110
0000
0110
,  // measure 8
0000
1000
1001
0000
0001
0010
0001
1000
,  // measure 9
0010
0010
0100
0001
0000
0000
1000
0001
,  // measure 10
0100
0100
0010
1000
0000
0000
0001
1000
,  // measure 11
0100
0100
0010
0002
0000
0010
0000
0100
,  // measure 12
0000
0000
1000
0000
1003
0000
0000
0000
0001
0000
0000
0000
0001
0000
1000
0001
,  // measure 13
1000
0000
0100
0000
0010
0100
0010
0000
0101
0000
0000
0110
0000
0000
2020
0000
,  // measure 14
0000
0000
0000
0000
3030
0000
0000
0000
1000
0000
0000
0000
1000
0000
0001
1000
,  // measure 15
0001
0010
0001
2002
0000
0000
3003
0000
,  // measure 16
0110
0000
0000
0000
0110
0000
0000
0000
1000
0000
0000
0000
1000
0000
0001
1000
,  // measure 17
0001
0000
0010
0000
0100
0010
0100
0000
1010
0000
0000
0110
0000
0000
0202
0000
,  // measure 18
0000
0303
1000
2200
0000
3300
0100
0220
,  // measure 19
0000
0000
0330
0000
0010
0000
0022
0000
0000
0000
0033
0000
0001
1000
0001
0000
,  // measure 20
1000
0000
0100
0010
0100
0000
1000
0000
0001
0000
0010
0000
0100
0000
2000
0000
,  // measure 21
0000
0001
3001
0000
1000
0100
0010
0002
,  // measure 22
0000
1000
1003
0000
0001
0100
0010
2000
,  // measure 23
0000
0000
0001
0000
3001
0000
0000
0000
1100
0000
0000
0110
0000
0000
0012
0000
,  // measure 24
0000
1003
0010
0100
0001
0101
0000
2002
,  // measure 25
0000
0000
3003
0000
1000
1100
0000
2002
,  // measure 26
0000
0000
3003
0000
1001
0000
0001
0100
,  // measure 27
0001
1000
0100
1000
0010
0100
0010
1000
,  // measure 28
0100
0000
0010
0000
0001
0100
0001
0000
1000
0000
1000
0000
1000
0000
1100
0000
,  // measure 29
0000
0220
0000
0330
0001
0001
0001
0011
,  // measure 30
0000
0220
0000
0330
1000
1010
0000
0101
,  // measure 31
0000
1010
0000
0202
0000
0000
0000
0000
,  // measure 32
0000
0303
0000
1001
0000
1100
0000
0011
,  // measure 33
0000
0100
1000
1002
0000
1003
0010
1000
,  // measure 34
0001
0010
0010
2001
0000
3001
0100
0001
,  // measure 35
1000
0100
0100
2001
0000
3001
0010
1000
,  // measure 36
0010
0001
0100
0120
0000
0000
1030
0100
,  // measure 37
0010
0001
0100
1000
0000
1000
0100
0001
,  // measure 38
0000
1000
0100
0101
0000
0001
0100
1100
,  // measure 39
0000
1010
0000
1002
0000
0000
0013
0100
,  // measure 40
1000
0010
1000
1001
0000
1100
0000
0011
,  // measure 41
0000
0100
1000
1002
0000
1003
0100
1000
,  // measure 42
0010
0100
0100
2001
0000
3001
0010
0001
,  // measure 43
0100
0010
0010
1002
0000
1003
0100
0001
,  // measure 44
0100
1000
0010
2001
0000
3001
0010
0100
,  // measure 45
1000
0001
0100
1000
0000
1000
0100
0001
,  // measure 46
0000
0201
0000
0310
0000
0201
0000
0310
,  // measure 47
0000
1200
0000
0310
0000
0110
0000
0210
,  // measure 48
0000
0001
0301
0000
1000
0010
0100
0101
,  // measure 49
0000
1100
0001
1001
0000
0101
1000
1001
,  // measure 50
0000
0220
0000
0330
2002
0000
0000
0000
,  // measure 51
3003
0000
0000
0000
;

//---------------dance-single - ----------------
#NOTES:
     dance-single:
     :
     Beginner:
     1:
     0.090756,0.165942,0.120486,0.000000,0.000000,58.000000,47.000000,11.000000,0.000000,0.000000,0.000000,0.090756,0.165942,0.120486,0.000000,0.000000,58.000000,47.000000,11.000000,0.000000,0.000000,0.000000:
0000
0000
0000
0000
,
0000
0000
0000
0000
,
0000
0000
0000
0000
,
0000
0000
0000
0000
,
0000
0000
0000
0000
,
0000
0000
0000
1001
0000
0000
0000
0000
,
0000
0010
0000
0000
0000
0010
0000
0000
,
0000
0110
0000
0000
0000
0000
0000
0000
,
0000
0000
0000
0001
,
0000
0000
0000
0010
,
0000
0000
0000
0100
,
0000
0000
0000
1000
0000
0000
0000
0000
,
0000
0000
0010
0000
,
0000
0000
0110
0000
,
0000
0000
0100
0000
,
0000
0000
0000
0000
,
0110
0000
0010
0000
,
0000
0000
0110
0000
,
0000
0000
0000
1000
0000
0000
0000
0001
,
0000
0000
0000
1000
0000
0000
0000
0000
,
0000
0000
0100
0000
,
0000
0000
0010
0000
,
0000
0000
0001
0000
,
0000
0000
1000
0000
,
0000
0000
1001
0000
,
0000
0000
1001
0000
,
0000
0000
0001
0000
,
0000
0000
0000
0000
,
0000
0000
0100
0000
,
0000
0000
0100
0000
,
0000
0000
0100
0000
,
0000
0000
0000
0110
0000
0000
0000
0000
,
0000
0000
0000
0000
,
0000
0000
0000
1000
0000
0000
0000
0000
,
0000
0000
0000
0100
0000
0000
0000
0000
,
0000
0000
0000
1000
0000
0000
0000
0000
,
0000
0000
0000
0001
0000
0000
0000
0000
,
0000
0000
0000
0000
,
0000
0000
0000
0000
,
0000
0000
0000
0100
0000
0000
0000
0000
,
0000
0000
0000
0010
0000
0000
0000
0000
,
0000
0000
0000
1000
0000
0000
0000
0000
,
0000
0000
0000
0001
0000
0000
0000
0000
,
0000
0000
0000
1000
0000
0000
0000
0000
,
0000
0000
0000
0100
0000
0000
0000
0000
,
0000
0000
0000
1000
0000
0000
0000
0000
,
0000
0010
0000
0000
0000
0010
0000
0000
,
0000
0010
0000
0000
0000
0000
0000
0110
,
0000
0000
1001
0000
,
0001
0000
0001
0000
,
0000
0000
1001
0000
;
