#TITLE:Central Station;
#SUBTITLE:;
#ARTIST:Recycle;
#TITLETRANSLIT:;
#SUBTITLETRANSLIT:;
#ARTISTTRANSLIT:;
#GENRE:;
#CREDIT:DigiMindAxel;
#BANNER:Central Station.png;
#BACKGROUND:Central Station-bg.png;
#LYRICSPATH:;
#CDTITLE:beatmania IIDX.png;
#MUSIC:Central Station.ogg;
#OFFSET:-0.805000;
#SAMPLESTART:25.074989;
#SAMPLELENGTH:12.000000;
#SELECTABLE:YES;
#BPMS:0.000000=158.000000
;
#STOPS:
;
#BGCHANGES:;
#KEYSOUNDS:;
#ATTACKS:;

//---------------dance-single - ----------------
#NOTES:
     dance-single:
     :
     Easy:
     5:
     0.229957,0.314586,0.122566,0.261474,0.000000,197.000000,182.000000,15.000000,32.000000,0.000000,0.000000,0.229957,0.314586,0.122566,0.261474,0.000000,197.000000,182.000000,15.000000,32.000000,0.000000,0.000000:
0000
0000
0000
0000
,
0000
0000
0000
0000
,
0000
0000
0000
0000
,
0000
0000
0000
0000
,
0001
0000
0100
0000
,
0010
0000
1000
0000
,
0220
0000
0000
0330
,
2002
0000
0000
3003
,
0001
1000
0100
0000
,
0010
0001
0100
0000
,
0010
0100
0010
0000
,
1000
0100
0010
0000
,
0001
0010
0100
0000
,
0010
0001
0010
0000
,
0001
1000
0010
0000
,
1000
0010
0100
0000
,
0002
0000
1003
0000
,
0010
0000
0000
0110
,
2000
0000
3100
0000
,
0010
0000
0000
1001
,
0002
0000
0103
0000
,
0010
0000
0000
0110
,
2000
0000
3100
0000
,
0010
0000
0000
1001
,
0001
0100
0001
0000
,
1000
0001
1000
0000
,
0100
1000
0100
0000
,
0010
0001
0010
0001
,
0100
0010
0100
0000
,
0010
1000
0010
0000
,
1000
0001
1000
0000
,
0100
0000
1000
0000
0100
0000
0000
0020
,
0000
0000
0000
0130
0000
0000
0000
0000
,
2000
0000
0000
0000
,
3002
0000
0000
0000
,
2003
0000
0000
0000
,
3002
0000
0000
0000
,
2003
0000
0000
0000
,
3002
0000
0000
0000
,
2003
0000
0000
0000
,
3002
0000
0000
0000
0000
0000
0000
0203
,
0000
0000
0000
0310
0000
0000
0000
0000
,
2001
0000
0000
3100
,
0020
0000
0000
0031
,
0200
0000
0000
0310
,
2000
0000
3001
1001
,
1000
0100
1000
0001
,
1000
0100
1000
0001
,
0220
0000
0330
0110
,
2002
0000
3003
1001
,
0001
0100
0010
0000
,
1000
0010
0100
0000
,
0001
0010
0100
0000
,
1000
0100
0010
0000
,
0001
1000
0010
0000
,
1000
0001
0100
0000
,
0001
0010
0100
0000
,
2001
0000
0000
3001
,
1000
0100
0010
0001
,
2000
0000
3010
0000
,
0100
0001
0010
0100
,
2000
0000
3001
0000
,
0010
0001
0100
0010
,
2000
0000
3100
0000
,
0010
0100
1000
0010
,
0100
0000
0000
0100
0000
0000
0110
0000
,
0001
0010
0100
1000
,
0001
0001
0001
0000
,
1000
0100
0010
0001
,
1000
1000
1000
0000
,
0010
0100
0001
1000
,
0100
0100
0100
0000
,
1000
0000
0000
1000
0000
0000
0000
0000
,
0001
0000
0000
0001
0000
0000
0000
0000
,
0100
0000
0000
0100
0000
0000
0000
0000
,
0010
0000
0000
0010
0000
0000
0220
0000
,
0000
0000
0000
0000
,
0330
0000
0000
0000
;

//---------------dance-single - ----------------
#NOTES:
     dance-single:
     :
     Medium:
     11:
     0.487930,0.566255,0.424896,0.212448,0.032684,418.000000,366.000000,52.000000,26.000000,0.000000,0.000000,0.487930,0.566255,0.424896,0.212448,0.032684,418.000000,366.000000,52.000000,26.000000,0.000000,0.000000:
0000
0000
0000
0000
,
0000
0000
0000
0000
,
0000
0000
0000
0000
,
0000
0000
0000
0000
,
0100
0100
0100
0100
,
0010
0010
0010
0010
,
1001
0000
0000
1001
0000
0000
1001
0000
,
0110
0000
0000
0110
0000
0000
0101
0000
,
0010
1000
0010
1000
0001
0000
0010
0000
,
0200
0000
0000
1300
0000
0010
0100
0000
,
0001
1000
0001
1000
0100
0000
1000
0001
,
0000
0010
0000
0100
0000
1000
1000
0000
,
0010
0100
0010
0100
0001
0000
1000
0000
,
0020
0000
0000
0130
0000
0000
1001
0000
,
0001
0010
0001
0010
0000
0100
1000
0010
,
0000
0010
0000
0010
0000
0000
0110
0000
,
1001
0000
0100
0000
0010
0000
0001
0100
,
0000
0010
0000
0010
0000
1000
0001
0000
,
1000
0000
0000
0000
0100
0000
0000
0000
0010
0000
0000
0010
0000
0000
0102
0000
,
0000
0000
0000
0103
0000
0010
1000
0000
,
0100
0000
0010
0001
1000
0000
0010
1000
,
0000
0001
0000
0001
0000
0100
0010
0000
,
1000
0000
0000
0000
0100
0000
0000
0000
0010
0000
0000
0010
0000
0000
0102
0000
,
0000
0000
0000
0103
0000
0000
1001
0000
,
0001
0100
0001
0000
1000
0010
0100
0001
,
1000
0010
1000
0000
0001
0010
0100
1000
,
0001
0010
0001
0000
1000
0100
0010
0001
,
1000
0100
1000
0000
0010
0100
0001
1000
,
0010
0100
0010
0000
0100
0001
0010
0100
,
1000
0001
1000
0000
0010
1000
0100
0010
,
0001
1000
0001
1000
0100
0010
0100
1000
,
0001
1000
0001
0100
0010
0100
0010
1000
,
0000
1000
0000
1001
0000
0000
1100
0000
,
0010
0010
0010
0010
,
0001
0001
0001
0001
,
0100
0100
0100
0100
,
0010
0100
0010
0000
0010
0100
0010
1000
,
0001
0001
0001
0001
,
1000
0000
1000
0001
1000
0000
1000
0001
,
0100
0000
0100
0010
0100
0000
0100
0010
,
1000
0000
1000
0000
1000
0000
1000
0010
,
0000
0010
0000
0010
0000
0100
0110
0000
,
1001
0000
0000
1100
0000
0000
0011
0000
,
1001
0000
0000
0101
0000
0000
1010
0000
,
1001
0000
0000
0011
0000
0000
1100
0000
,
1001
0000
0000
0110
0000
0000
0110
0000
,
0010
0100
0001
0100
0010
1000
0001
0000
,
0010
0100
1000
0100
0010
0001
0100
0000
,
0101
0000
0000
1010
0000
0000
1001
0000
,
0110
0000
0000
0110
0000
0000
1001
0000
,
0010
0100
0010
0100
0001
1000
0001
1000
,
0100
0010
0100
0010
0001
0100
0101
0000
,
0010
0100
0010
0100
1000
0010
1000
0010
,
0100
0001
0100
0001
1000
0100
1100
0000
,
0010
0100
0010
0100
0001
1000
0001
1000
,
0100
0010
0100
0010
0001
0100
0101
0000
,
1000
0100
1000
0100
0010
0001
0010
0001
,
0100
0010
0100
0010
1000
0001
1001
0000
,
0002
0023
0230
2300
,
3010
0000
0000
0100
0000
0000
0001
0000
1000
0000
0100
0000
0010
0000
0000
0000
,
0002
0203
0320
2030
,
3001
0000
0000
0010
0000
0000
0200
0000
0000
0000
0000
0000
1300
0000
0000
0000
,
0020
2030
3200
0320
,
0031
0000
0000
1000
0000
0000
0100
0000
0010
0000
0001
0000
0100
0000
0000
0000
,
1002
0023
0230
2300
,
3001
0000
0000
1000
0000
0000
0001
0000
0000
1000
0000
0000
1001
0000
0000
0000
,
0001
0010
0100
1000
0001
0000
0100
0010
,
0200
0000
0000
0320
0000
0000
1030
0000
,
0001
0010
0100
1000
0001
0000
0100
0001
,
0000
1000
0000
0100
0000
0010
0110
0000
,
1000
0010
0100
0001
1000
0000
0100
1000
,
0200
0000
0000
0310
0000
0000
1001
0000
,
0101
0000
0000
1010
0000
0000
1001
0000
,
1100
0000
0000
0011
0000
0000
1001
0000
,
0101
0000
0000
1010
0000
0000
1001
0000
,
0110
0000
0000
0010
0000
0000
0100
0000
0000
0000
0000
0000
2002
0000
0000
0000
,
0000
0000
0000
0000
,
3003
0000
0000
0000
;

//---------------dance-single - ----------------
#NOTES:
     dance-single:
     :
     Hard:
     13:
     0.640845,0.692090,0.686370,0.196106,0.379955,549.000000,465.000000,84.000000,24.000000,0.000000,0.000000,0.640845,0.692090,0.686370,0.196106,0.379955,549.000000,465.000000,84.000000,24.000000,0.000000,0.000000:
// measure 0
0000
0000
0000
0000
,  // measure 1
0000
0000
0000
0000
,  // measure 2
0000
0000
0000
0000
,  // measure 3
0000
0000
0000
0000
,  // measure 4
0001
0000
0000
0100
0000
0000
0001
0000
0000
0100
0000
0000
0001
0000
1000
0000
,  // measure 5
0100
0000
0000
0010
0000
0000
0100
0000
0000
0010
0000
0000
0100
0000
0000
0000
,  // measure 6
1001
0000
0000
0001
0000
0000
1001
0000
0000
1000
0000
0000
1100
0000
0010
0000
,  // measure 7
1001
0000
0000
0001
0000
0000
0101
0000
0000
0000
0100
0000
1001
0000
0000
0000
,  // measure 8
0001
0010
0100
2000
0000
3010
1000
0001
,  // measure 9
0100
0010
0100
0002
0000
1000
1003
0000
,  // measure 10
0001
0100
0010
2000
0000
3100
0010
0101
,  // measure 11
0000
1010
0000
0101
0000
0100
1001
0000
,  // measure 12
1000
0100
0010
0002
0000
0103
0010
0100
,  // measure 13
0001
0000
0000
1000
0000
0000
0100
0000
0000
1000
0000
0000
0010
0000
0100
0000
0010
0000
1000
0000
0000
0000
0000
0000
,  // measure 14
0001
0010
0100
2000
0000
3001
0100
1010
,  // measure 15
0000
0101
0000
1010
0000
0010
1001
0000
,  // measure 16
0001
0000
0100
0000
0001
1000
0100
0000
0020
0000
0000
0000
0031
0000
0110
0000
,  // measure 17
0000
1100
0000
0011
0000
0100
0110
0000
,  // measure 18
1001
0000
0000
0000
1001
0000
0000
0000
1100
0000
0000
0110
0000
0000
0012
0000
,  // measure 19
0000
0000
0000
2003
0000
3010
0110
0000
,  // measure 20
1000
0000
0100
0000
1000
0001
0100
0000
0010
0000
1000
0000
0100
0000
0011
0000
,  // measure 21
0000
1100
0000
0011
0000
0100
0110
0000
,  // measure 22
1001
0000
0000
0000
1001
0000
0000
0000
1010
0000
0000
0110
0000
0000
0102
0000
,  // measure 23
0000
0000
0000
0000
0000
0000
1003
0000
0000
0000
0010
0100
0010
0000
0000
0000
,  // measure 24
1000
0001
0000
1000
0001
0000
0010
0000
0100
1000
0000
0100
1000
0000
0010
0000
,  // measure 25
0100
0001
0100
0000
0001
0000
1000
0100
0000
1000
0100
0000
0010
0000
0001
0000
,  // measure 26
1000
0010
0000
1000
0010
0000
0100
0000
0001
1000
0000
0001
1000
0000
0100
0000
,  // measure 27
0010
0001
0010
0000
0100
0000
1000
0010
0000
1000
0010
0000
0100
0000
0001
0000
,  // measure 28
1000
0100
0000
0100
0010
0000
0001
0000
0100
0010
0000
0010
1000
0000
0100
0010
,  // measure 29
0100
0000
1000
0000
0010
0000
0100
0001
0000
0001
1000
0000
0100
0000
0010
0001
,  // measure 30
0000
0001
0010
0000
0100
0000
1000
0001
0000
0001
1000
0000
0010
0000
0100
0001
,  // measure 31
0000
0001
0100
0000
0010
0000
1000
0001
0000
0001
1000
0000
0001
0000
0110
0000
,  // measure 32
0000
0000
0110
0000
0000
0000
0110
0000
0000
0000
1000
0001
2000
0000
0000
0000
,  // measure 33
3001
0000
0000
0000
0001
0000
0000
0000
0001
0000
0000
0001
0000
0000
0001
0000
,  // measure 34
0000
0100
0000
0100
0010
0000
0010
0000
,  // measure 35
1000
0000
0000
0000
1000
0000
0000
0000
1000
0000
0000
1000
0000
0000
1000
0000
,  // measure 36
0000
0010
0000
0010
1000
0100
0010
0001
,  // measure 37
1000
0000
1000
0000
1000
0010
0100
0001
,  // measure 38
0000
0001
0010
0100
0000
0100
1000
0002
,  // measure 39
0000
0000
0000
0203
0000
0000
0000
0320
,  // measure 40
0000
0000
0000
0000
1030
0100
0010
1001
,  // measure 41
0000
0000
1001
0000
0000
0000
1001
0000
0000
0000
1000
0001
1000
0000
0000
0000
,  // measure 42
1001
0000
0000
0001
0000
0000
0101
0000
0000
0100
0000
0000
0110
0000
0000
0000
,  // measure 43
1001
0000
0000
1000
0000
0000
1100
0000
0000
0100
0000
0000
0110
0000
0000
0000
,  // measure 44
1001
0000
0000
0001
0000
0000
0011
0000
0000
0010
0000
0000
0110
0000
0000
0000
,  // measure 45
1010
0000
0000
0000
0000
0000
0000
0000
0000
0110
0000
0000
0000
0000
0000
0000
0000
0000
0010
0000
0000
0000
0000
0000
1000
0000
0000
0000
0100
0000
0000
0000
1000
0000
0000
0000
0001
0000
0000
0000
0000
0000
0000
0000
0000
0000
0000
0000
,  // measure 46
0100
0001
0000
0100
0001
0000
1000
0000
0100
0000
0010
0000
0100
0000
1000
0000
,  // measure 47
0001
0100
0000
0001
0100
0000
0010
0000
1000
0000
0100
0000
0011
0000
0000
0000
,  // measure 48
1001
0000
0000
1000
0000
0000
1100
0000
0000
0100
0000
0000
0110
0000
0000
0000
,  // measure 49
1001
0000
0000
0001
0000
0000
0101
0000
0000
0000
0000
0000
1001
0000
0000
0000
,  // measure 50
1000
0100
0000
0100
0010
0000
0001
0000
0010
0000
0100
0000
1000
0000
0001
0000
,  // measure 51
0100
0001
0000
0001
1000
0000
0100
0000
0010
0000
0001
0000
0110
0000
0000
0000
,  // measure 52
0010
1000
0000
1000
0001
0000
0010
0000
0100
0000
0010
0000
0001
0000
1000
0000
,  // measure 53
0010
0100
0000
0100
0001
0000
0010
0000
0100
0000
1000
0000
0110
0000
0000
0000
,  // measure 54
0010
0100
0000
0100
0001
0000
1000
0000
0100
0000
1000
0000
0001
0000
0100
0000
,  // measure 55
0010
1000
0000
1000
0001
0000
0010
0000
0100
0000
0010
0000
1001
0000
0000
0000
,  // measure 56
1000
0100
0000
0100
0010
0000
0001
0000
0100
0000
0010
0000
1000
0000
0100
0000
,  // measure 57
0010
0001
0000
0001
1000
0000
0010
0000
0100
0000
0001
0000
1001
0000
0000
0000
,  // measure 58
0001
0100
1000
0100
0001
0100
1000
0100
,  // measure 59
0001
0000
0000
0010
0000
0000
0200
0000
0000
1300
0010
0000
1001
0000
0000
0000
,  // measure 60
1000
0010
0001
0010
1000
0010
0001
0010
,  // measure 61
1000
0000
0000
0100
0000
0000
0020
0000
0000
0000
0000
0000
0130
0000
0000
0000
,  // measure 62
1000
0100
0001
0100
1000
0100
0001
0100
,  // measure 63
1000
0000
0000
0100
0000
0000
0020
0000
0000
0031
0100
0000
1001
0000
0000
0000
,  // measure 64
0001
0100
1000
0100
0001
0100
1000
0100
,  // measure 65
0001
0000
0000
0101
0000
0000
1010
0000
0000
0110
0000
0000
1001
0000
0000
0000
,  // measure 66
0001
0010
0100
2000
0000
0000
3010
0100
,  // measure 67
0002
0000
0000
2000
0000
3003
1001
0000
,  // measure 68
1000
0100
0010
0002
0000
0000
1003
0010
,  // measure 69
0000
0101
0000
1010
0000
0010
1001
0000
,  // measure 70
1000
0010
0100
0002
0000
0000
0013
0100
,  // measure 71
2000
0000
0000
0000
0000
0000
0000
0000
0000
3010
0000
0000
0100
0000
0001
0000
0100
0000
0010
0000
0000
0000
0000
0000
,  // measure 72
1001
0000
0100
0000
0010
0000
0101
0000
0000
0100
0000
0000
1010
0000
0000
0000
,  // measure 73
1001
0000
0010
0000
0100
0000
1010
0000
0000
0010
0000
0000
0110
0000
0000
0000
,  // measure 74
1001
0000
0010
0000
0100
0000
0011
0000
0000
0010
0000
0000
0110
0000
0000
0000
,  // measure 75
1001
0000
0000
1100
0000
0000
0011
0000
0000
0100
0000
0000
2002
0000
0000
0000
,  // measure 76
0000
0000
0000
0000
,  // measure 77
3003
0000
0000
0000
;

//---------------dance-single - ----------------
#NOTES:
     dance-single:
     :
     Challenge:
     16:
     0.856795,0.943758,0.645514,0.392211,0.947844,734.000000,655.000000,79.000000,48.000000,0.000000,0.000000,0.856795,0.943758,0.645514,0.392211,0.947844,734.000000,655.000000,79.000000,48.000000,0.000000,0.000000:
// measure 0
0000
0000
0000
0000
,  // measure 1
0000
0000
0000
0000
,  // measure 2
0000
0000
0000
0000
,  // measure 3
0000
0000
0000
0000
,  // measure 4
1000
0000
0000
0100
0000
0000
1000
0000
0000
0100
0000
0000
1000
0000
0010
0100
,  // measure 5
0001
0000
0000
0100
0000
0000
0001
0000
0000
0100
0000
0000
0001
0000
0000
0000
,  // measure 6
1001
0000
0000
0011
0000
0000
1001
0000
0000
0011
0000
0000
1001
0000
0010
0100
,  // measure 7
0001
0000
0000
0101
0000
0000
2010
0000
0000
0000
3001
0000
1001
0000
0000
0000
,  // measure 8
1000
0000
0100
0000
0010
0000
0001
0000
0000
1000
0010
0000
0100
0000
0010
1000
,  // measure 9
0100
0000
0010
0000
0001
0000
1000
0000
0000
0010
0100
0000
0020
0000
0000
0000
,  // measure 10
1030
0000
0100
0000
0010
0000
0001
0000
0000
1000
0010
0000
1000
0000
0001
0010
,  // measure 11
0001
0101
0000
1010
0000
0100
2001
0000
,  // measure 12
3001
0000
0010
0000
0100
0000
1000
0000
0000
0001
0100
0000
0010
0000
0100
0010
,  // measure 13
1000
0000
0000
0100
0000
0000
0010
0000
0000
0001
0000
0000
0100
0000
0010
0000
0100
0000
2001
0000
0000
0000
0000
0000
,  // measure 14
3001
0000
0010
0000
0100
0000
1000
0000
0000
0010
0100
0000
0010
0000
1000
0010
,  // measure 15
1000
0000
0002
0000
0000
0000
1003
0001
0000
1000
0001
0010
0100
0000
0000
0000
,  // measure 16
1001
0000
0001
0000
1000
0010
0100
0000
0101
0000
0010
0100
0000
1000
0001
0000
,  // measure 17
0000
0000
1001
0000
0000
0000
0010
0100
0010
0000
0100
0001
1000
0000
0000
0000
,  // measure 18
1001
0000
0000
0000
1001
0000
0000
0000
0011
0000
0000
1100
0000
0000
0010
0100
,  // measure 19
0010
0100
0010
0100
0010
0000
1000
0100
0000
1000
0001
0000
1001
0000
0000
0000
,  // measure 20
1000
0000
1000
0000
0001
0010
0100
1000
0001
0000
0100
0001
0100
0000
1001
0000
,  // measure 21
0000
0000
0110
0000
0000
0000
0001
0100
0000
0001
1000
0000
1001
0000
0000
0000
,  // measure 22
0110
0000
0000
0000
0110
0000
0000
0000
1010
0000
0000
0101
0000
0000
0010
0100
,  // measure 23
0010
0100
0010
0100
0010
0000
1000
0100
0010
0000
0001
1000
0002
0000
0000
0000
,  // measure 24
0013
0100
0000
0100
1000
0000
0001
0100
0010
1000
0000
1000
0001
0000
1000
0100
,  // measure 25
0001
0100
1000
0010
1000
0100
0010
0001
0000
0001
1000
0010
1000
0001
0010
0100
,  // measure 26
1000
0010
0000
0010
0100
0000
0001
0010
0100
1000
0000
1000
0001
0010
1000
0010
,  // measure 27
0001
0100
0010
0001
0010
0100
0001
1000
0000
1000
0001
0010
0100
0010
0001
1000
,  // measure 28
0100
0010
0000
0010
0001
0000
0010
0100
1000
0001
0000
0001
0100
0000
0010
1000
,  // measure 29
0100
0001
0100
1000
0001
0010
0100
1000
0000
1000
0010
0000
0100
0001
1000
0100
,  // measure 30
0001
0100
1000
0100
0000
0010
0001
0100
1000
0100
0001
0100
0000
0010
1000
0100
,  // measure 31
0001
0100
1000
0100
0000
0010
0001
0100
1000
0100
0001
0010
0100
0000
2002
0000
,  // measure 32
3003
0000
2002
0000
3003
0000
2002
0000
3003
0000
1000
0001
2000
0000
3000
0000
,  // measure 33
0020
0000
0030
0000
0020
0000
0030
0000
0020
0030
0000
0020
0030
0000
0020
0000
,  // measure 34
0000
0130
0001
0010
0100
1000
0001
0100
,  // measure 35
0020
0000
0030
0000
0020
0000
0030
0000
0020
0030
0000
0020
0030
0000
0020
0000
,  // measure 36
0000
0130
0001
0010
0100
0010
0001
1000
,  // measure 37
0020
0030
0020
0030
0010
0100
0001
0020
,  // measure 38
0000
0130
1000
0001
0100
1000
0100
0002
,  // measure 39
0000
0100
0000
2003
0000
0100
0000
3002
,  // measure 40
0000
0100
0100
0000
0103
0010
1000
2002
,  // measure 41
3003
0000
2002
0000
3003
0000
2002
0000
3003
0000
0001
1000
0001
0000
0000
0000
,  // measure 42
0101
0000
0000
0110
0000
0000
1010
0000
0000
0110
0000
0000
1001
0000
0000
0000
,  // measure 43
1100
0000
0000
0110
0000
0000
0011
0000
0000
0110
0000
0000
1001
0000
0000
0000
,  // measure 44
1010
0000
0000
0101
0000
0000
1010
0000
0000
0101
0000
0000
1001
0000
0000
0000
,  // measure 45
1100
0000
0000
0000
0000
0000
0000
0000
0000
0011
0000
0000
0000
0000
0000
0000
0000
0000
1001
0000
0000
0000
0000
0000
0010
0000
0000
0000
0100
0000
0000
0000
0010
0000
0000
0000
1001
0000
0000
0000
0000
0000
0000
0000
0000
0000
0000
0000
,  // measure 46
0001
0010
0100
0010
0001
0100
0010
0100
0001
0000
1000
0100
0010
0001
1000
0000
,  // measure 47
0001
0100
0010
0100
0001
1000
0100
0010
0100
0000
1000
0001
0100
0000
0000
0000
,  // measure 48
1001
0000
0000
1100
0000
0000
0011
0000
0000
0110
0000
0000
1001
0000
1000
0001
,  // measure 49
0100
0000
0000
1010
0000
0000
0101
0000
0000
0010
0000
0000
1001
0000
0000
0000
,  // measure 50
0001
1000
0000
0001
1000
0100
0010
0100
1000
0001
0100
0001
1000
0000
0100
0010
,  // measure 51
0001
0010
1000
0010
0001
0010
0100
0010
0001
1000
0010
1000
0002
0000
0003
0000
,  // measure 52
1000
0100
0000
1000
0001
0100
0010
0100
0001
1000
0100
0010
0100
0000
1000
0010
,  // measure 53
0100
0001
0100
1000
0100
0001
1000
0100
0010
0100
1000
0001
0200
0000
0300
0000
,  // measure 54
0001
1000
0000
0100
1000
0001
0100
0010
0100
0001
0010
0100
0010
0000
0001
1000
,  // measure 55
0010
0100
0001
1000
0100
0001
0100
1000
0001
0100
0001
1000
0020
0000
0030
0000
,  // measure 56
1000
0001
0000
0100
0001
0010
0100
0010
0001
1000
0010
1000
0001
0010
0100
1000
,  // measure 57
0001
0100
0000
0001
1000
0100
0010
0001
1000
0010
1000
0000
2002
0000
3003
0000
,  // measure 58
1000
0100
0001
0100
1000
0010
0001
0010
,  // measure 59
1000
0000
0100
1000
0000
0100
0020
0000
0000
0031
0100
0010
2000
0000
3000
0000
,  // measure 60
0001
0100
1000
0100
0001
0010
1000
0010
,  // measure 61
0001
0000
0100
0001
0000
0010
0200
0000
0000
0000
1300
0000
0110
0000
0000
0000
,  // measure 62
0001
0010
1000
0010
0001
0100
1000
0100
,  // measure 63
0001
0000
0010
0100
0000
1000
0020
0000
0000
0130
0001
1000
0200
0000
0300
0000
,  // measure 64
1001
0000
0010
0000
0011
0000
0100
0000
1100
0000
0000
1001
0000
0000
0001
1000
,  // measure 65
0100
0000
0000
0011
0000
0000
1100
0000
0000
0110
0000
0000
1001
0000
0000
0000
,  // measure 66
0001
0000
0100
0001
0100
0001
1000
0000
0010
0000
0100
0001
0000
0100
0001
0000
,  // measure 67
0010
0100
0010
0000
0100
0000
1000
0001
1000
0000
0100
0000
1001
0000
0000
0000
,  // measure 68
1000
0000
0100
1000
0100
1000
0001
0000
0010
0001
0010
0001
1000
0000
0010
0000
,  // measure 69
0100
0001
0100
0000
0001
1000
0100
1000
0001
1000
0100
1000
0002
0000
0003
0000
,  // measure 70
1000
0000
0010
1000
0010
0000
0100
0000
0001
1000
0001
0000
1000
0100
1000
0000
,  // measure 71
0001
0000
0000
0100
0000
0000
0010
0000
0000
0100
0000
0000
0001
0000
0000
0000
0000
0000
0100
0000
0000
0000
0000
0000
0010
0000
0000
0000
0100
0000
0000
0000
0010
0000
0000
0000
1001
0000
0000
0000
0000
0000
0000
0000
0000
0000
0000
0000
,  // measure 72
1100
0000
0010
0001
1000
0000
1001
0000
0001
0100
0010
0100
0001
0000
1000
0001
,  // measure 73
1000
0000
0010
0100
0001
0000
1001
0000
1000
0100
0010
0100
1000
0000
0001
1000
,  // measure 74
0001
0000
1000
0100
0010
0000
1001
0000
0001
0100
0010
0100
0001
0000
1000
0001
,  // measure 75
1000
0000
0000
1010
0000
0000
0101
0000
0000
0010
0000
0000
2002
0000
0000
0000
,  // measure 76
0000
0000
0000
0000
,  // measure 77
3003
0000
0000
0000
;

//---------------dance-single - ----------------
#NOTES:
     dance-single:
     :
     Beginner:
     2:
     0.107391,0.154740,0.065369,0.000000,0.000000,92.000000,84.000000,8.000000,0.000000,0.000000,0.000000,0.107391,0.154740,0.065369,0.000000,0.000000,92.000000,84.000000,8.000000,0.000000,0.000000,0.000000:
0000
0000
0000
0000
,
0000
0000
0000
0000
,
0000
0000
0000
0000
,
0000
0000
0000
0000
,
1000
0000
0000
0000
,
1000
0000
0000
0000
,
0001
0000
0000
0000
,
0001
0000
0000
0000
,
0100
0000
0000
0000
,
0010
0000
0000
0000
,
1000
0000
0000
0000
,
0100
0000
0000
0000
,
0010
0000
0000
0000
,
0001
0000
0000
0000
,
1000
0000
0000
0000
,
0010
0000
0000
0000
,
1001
0000
0000
0000
,
0000
0000
0000
0000
,
1000
0000
0000
0000
,
0000
0000
0000
0000
,
1001
0000
0000
0000
,
0000
0000
0000
0000
,
0001
0000
0000
0000
,
0000
0000
0000
0000
,
0010
0000
0100
0000
,
0010
0000
0100
0000
,
1000
0000
0001
0000
,
1000
0000
0001
0000
,
0100
0000
0010
0000
,
0100
0000
0010
0000
,
1000
0000
0001
0000
,
1000
0000
0001
0000
,
1000
0000
0000
0000
,
0100
0000
0000
0000
,
0000
0000
0000
0000
,
0000
0000
0000
0000
,
0000
0000
0000
0000
,
0010
0000
0000
0000
,
0000
0000
0000
0000
,
0001
0000
0000
0000
,
0000
0000
0000
0000
,
1000
0000
0000
0000
,
1001
0000
0000
0000
,
0001
0000
0000
0000
,
1001
0000
0000
0000
,
1000
0000
0000
0000
,
0010
0000
0100
0000
,
0010
0000
0100
0000
,
0010
0000
0000
0000
,
0110
0000
0000
0000
,
0001
0000
0000
0000
,
1000
0000
0000
0000
,
0100
0000
0000
0000
,
0010
0000
0000
0000
,
0001
0000
0000
0000
,
0100
0000
0000
0000
,
0010
0000
0000
0000
,
0110
0000
0000
0000
,
1000
0000
1000
0000
,
1000
0000
0000
0000
,
0001
0000
0001
0000
,
0001
0000
0000
0000
,
1000
0000
1000
0000
,
1000
0000
0000
0000
,
0001
0000
0001
0000
,
0001
0000
0000
0000
,
0010
0000
0001
0000
,
0010
0000
0100
0000
,
1000
0000
0001
0000
,
1000
0000
0010
0000
,
0100
0000
0001
0000
,
0100
0000
0001
0000
,
1000
0000
0000
0000
,
1001
0000
0000
0000
,
0010
0000
0000
0000
,
0110
0000
0000
0100
;
