#VERSION:0.83;
#TITLE:CaptivAte~誓い~;
#SUBTITLE:;
#ARTIST:A/I;
#TITLETRANSLIT:CaptivAte~CHIKAI~;
#SUBTITLETRANSLIT:;
#ARTISTTRANSLIT:;
#GENRE:;
#ORIGIN:;
#CREDIT:DigiMindAxel;
#BANNER:CaptivAte~CHIKAI~.png;
#BACKGROUND:CaptivAte~CHIKAI~-bg.png;
#PREVIEWVID:;
#JACKET:CaptivAte~CHIKAI~-jacket.png;
#CDIMAGE:;
#DISCIMAGE:;
#LYRICSPATH:CaptivAte~CHIKAI~.lrc;
#CDTITLE:beatmania IIDX.png;
#MUSIC:CaptivAte~CHIKAI~.ogg;
#OFFSET:-0.852000;
#SAMPLESTART:38.310741;
#SAMPLELENGTH:12.000000;
#SELECTABLE:YES;
#BPMS:0.000=120.000,
24.000=160.000;
#STOPS:;
#DELAYS:;
#WARPS:;
#TIMESIGNATURES:0.000=4=4;
#TICKCOUNTS:0.000=4;
#COMBOS:0.000=1;
#SPEEDS:0.000=1.000=0.000=0;
#SCROLLS:0.000=1.000;
#FAKES:;
#LABELS:0.000=Song Start;
#BGCHANGES:;
#KEYSOUNDS:;
#ATTACKS:
;

//---------------dance-single - ----------------
#NOTEDATA:;
#CHARTNAME:;
#STEPSTYPE:dance-single;
#DESCRIPTION:;
#CHARTSTYLE:;
#DIFFICULTY:Beginner;
#METER:4;
#RADARVALUES:0.115412,0.184687,0.031073,0.000000,0.000000,104.000000,100.000000,4.000000,0.000000,0.000000,0.000000,0.000000,0.000000,0.000000,0.115412,0.184687,0.031073,0.000000,0.000000,104.000000,100.000000,4.000000,0.000000,0.000000,0.000000,0.000000,0.000000,0.000000;
#CREDIT:;
#NOTES:
0000
0000
0000
0000
,
0000
0000
0000
0000
,
0000
0000
0000
0000
,
0000
0000
0000
0000
,
0000
0000
0000
0000
,
0000
0000
0000
0000
,
0000
0000
0000
0000
,
0010
0000
0000
0000
,
0100
0000
1000
0000
,
0001
0000
0000
0000
,
0100
0000
0000
0000
,
0001
0000
1000
0000
,
0100
0000
0000
0000
,
0010
0000
0000
0000
,
0001
0000
1000
0000
,
1001
0000
0000
0000
,
0010
0000
0000
0000
,
0100
0000
0000
0000
,
1000
0000
0000
0000
,
0001
0000
0000
0000
,
0100
0000
0000
0000
,
0010
0000
0100
0000
,
0110
0000
0000
0000
,
1000
1000
0000
0000
,
1000
0000
1000
0000
,
0001
0000
0001
0000
,
1000
0000
1000
0000
,
0100
0000
0100
0000
,
0100
0000
0100
0000
,
0010
0000
0010
0000
,
0100
0000
0100
0000
,
0010
0000
0001
0000
,
0010
0000
0001
0000
,
1000
0000
0010
0000
,
1000
0000
0010
0000
,
0100
0000
0001
0000
,
0100
0000
0001
0000
,
1000
0000
0100
0000
,
1000
0000
0100
0000
,
0010
0000
0000
0000
,
0001
0000
0000
0000
,
1000
0000
0010
0000
,
1000
0000
0010
0000
,
0100
0000
0000
0000
,
0001
0000
0000
0000
,
0010
0000
0001
0000
,
0010
0000
0001
0000
,
1000
0000
0000
0000
,
0010
0000
0000
0000
,
0100
0000
0000
0000
,
0001
0000
0010
0000
,
1000
0000
0000
0000
,
0010
0000
0000
0000
,
0001
0000
0100
0000
,
1000
0000
0100
0000
,
0010
0010
0000
0000
,
0000
0000
0000
0000
,
0000
0000
0000
0000
,
0000
0000
0000
0000
,
0000
0000
0000
0000
,
0000
0000
0000
0000
,
0000
0000
0000
0000
,
0000
0000
0000
0000
,
0000
0000
0000
0000
,
0000
0000
0000
0000
,
0001
0000
0000
0000
,
0000
0000
0000
0000
,
0100
0100
0000
0000
,
0000
0000
0000
0000
,
0010
0000
0000
0000
,
1001
0000
0000
0000
,
0001
0000
0010
0000
,
0001
0000
0100
0000
,
0010
0000
1000
0000
,
0010
0000
0100
0000
,
0001
0000
1000
0000
,
0100
0000
0001
0000
,
0010
0000
1000
0000
,
1001
0000
0100
0000
,
0010
0010
0000
0000
;

//---------------dance-single - ----------------
#NOTEDATA:;
#CHARTNAME:;
#STEPSTYPE:dance-single;
#DESCRIPTION:;
#CHARTSTYLE:;
#DIFFICULTY:Easy;
#METER:5;
#RADARVALUES:0.199752,0.246250,0.108754,0.147595,0.000000,180.000000,166.000000,14.000000,19.000000,0.000000,0.000000,0.000000,0.000000,0.000000,0.199752,0.246250,0.108754,0.147595,0.000000,180.000000,166.000000,14.000000,19.000000,0.000000,0.000000,0.000000,0.000000,0.000000;
#CREDIT:;
#NOTES:
0000
0000
0000
0000
,
0000
0000
0000
0000
,
0000
0000
0000
0000
,
2000
0000
0000
3002
,
0000
0000
2003
0000
,
0000
3002
0000
0000
,
0003
0000
0000
0000
,
0000
0010
0000
0001
,
0000
1000
0000
0100
,
0000
1000
0000
0001
,
0000
0010
0000
0001
,
1000
0001
0000
0100
,
0000
0010
0000
1000
,
0000
0010
0000
0100
,
0000
0001
1001
0110
,
1000
0000
0010
0000
,
0001
0000
0100
0000
,
1000
0000
0100
0000
,
0001
0000
0010
0000
,
0100
0000
0001
0000
,
1000
0000
0010
0000
,
0100
0000
1000
0000
,
0002
0000
0003
0000
,
0001
1001
0010
0000
,
1000
0100
0001
0000
,
2000
0001
0000
3001
,
0010
0001
0100
0001
,
0020
0000
1030
0000
,
0020
0000
0031
0000
,
0100
0010
1000
0000
,
0100
0010
0001
0000
,
0100
1001
1000
0000
,
0001
0010
1000
0000
,
0002
1000
0000
1003
,
0100
1000
0010
1000
,
0200
0000
0301
0000
,
0200
0000
1300
0000
,
0010
0100
0001
0000
,
0010
0100
2000
0000
,
3001
0000
1000
0000
,
0001
0001
0010
0000
,
1000
0000
0001
0000
,
1000
1000
0010
0100
,
0001
0001
1000
0000
,
0100
0100
0010
0000
,
0001
0000
1000
0000
,
0010
1000
0100
0010
,
0001
0000
0110
0000
,
1000
0000
0110
0000
,
0001
0000
1001
0000
,
1000
0100
0010
0000
,
0001
0000
0100
0000
,
0010
1000
0001
0000
,
0010
0000
0100
0000
,
0220
0000
0330
0000
,
1000
1001
0000
0000
,
0000
0000
0000
0000
,
0010
0000
0000
0000
,
0100
0000
0000
0000
,
1000
0000
0000
0000
,
0000
0000
0000
0000
,
0010
0000
0000
0000
,
0100
0000
0000
0000
,
0001
1001
0000
0000
,
0000
0000
0000
0000
,
0001
0000
0010
0000
,
1000
0000
0010
0000
,
0001
1001
0000
0000
,
0001
0000
0010
0000
,
1000
0000
0100
0000
,
0110
0000
0000
0000
,
0010
0001
0100
0000
,
0010
1000
0100
0000
,
0020
0030
0002
0003
,
2000
3000
0200
0300
,
0010
0001
1000
0000
,
0010
0100
0001
0000
,
1000
0001
1000
0000
,
0110
0000
0200
0000
,
0310
0110
0000
0000
;

//---------------dance-single - ----------------
#NOTEDATA:;
#CHARTNAME:;
#STEPSTYPE:dance-single;
#DESCRIPTION:;
#CHARTSTYLE:;
#DIFFICULTY:Medium;
#METER:8;
#RADARVALUES:0.331810,0.400156,0.240812,0.256348,0.003884,299.000000,268.000000,31.000000,33.000000,0.000000,0.000000,0.000000,0.000000,0.000000,0.331810,0.400156,0.240812,0.256348,0.003884,299.000000,268.000000,31.000000,33.000000,0.000000,0.000000,0.000000,0.000000,0.000000;
#CREDIT:;
#NOTES:
0000
0000
0000
0000
,
0000
0000
0000
0000
,
0000
0000
0000
0000
,
0002
0000
0000
0023
0000
0000
0230
0000
,
0000
0320
0000
0000
0032
0000
0000
0203
,
0000
0000
0320
0000
0000
0230
0000
0000
,
0300
0000
0000
0000
,
0001
1000
0100
0010
,
0001
0000
0000
0010
0100
0000
0000
0010
,
1000
0001
0100
0010
,
1000
0000
0000
0010
0100
0000
0000
0010
,
0001
1000
0100
0010
,
0002
0000
0003
0010
2000
0000
3000
0010
,
0100
0000
0001
0000
1000
0000
0100
0010
,
0001
0000
0100
0010
1000
0000
0010
0000
,
0101
0000
1010
0000
,
1100
0000
0011
0001
,
1001
0000
0110
0000
,
1010
0000
1100
1000
,
1001
0000
0011
0000
,
0101
0000
1100
0010
,
0001
0100
1000
0010
,
0002
0003
0110
0000
,
1001
1001
0010
1000
,
0100
0000
1000
0000
0010
0000
0100
0001
,
0001
1000
0010
0100
,
1000
0000
0100
0000
0001
0000
0010
0100
,
2000
0000
0000
0001
3001
0000
0000
0100
,
0002
0000
0000
1000
1003
0000
0001
0000
,
0010
0010
0100
0100
,
1000
0000
1000
0000
0001
0010
0001
0010
,
0100
1000
0100
0001
,
0010
0000
0001
0000
0100
0000
0010
1000
,
1000
0001
0100
0010
,
0001
0000
0010
0000
1000
0000
0100
0010
,
0002
0000
0000
1000
1003
0000
0000
0010
,
2000
0000
0000
0001
3001
0000
1000
0000
,
0110
0100
0110
0010
,
0001
1000
0001
1000
0020
0000
0030
0000
,
1001
0100
0010
1000
,
0001
1000
0010
0100
,
0001
0010
0100
1000
,
0001
0000
1000
0000
0100
0000
0010
0001
,
0001
1000
0001
0100
,
1000
0100
0001
0010
,
0100
0001
0100
1000
,
0010
0100
0001
1000
,
1002
0000
0003
0001
0001
0000
0010
0000
,
2000
0000
3000
1000
1000
0000
0100
0000
,
0020
0000
0030
0001
0001
0000
0000
1000
,
1000
0010
0001
0010
,
2000
0000
3000
0001
0010
0000
0100
0000
,
1000
0001
1000
0010
,
0200
0300
0001
1000
,
1001
0000
0110
0000
,
0011
2020
0000
0000
,
0000
0000
3030
0000
,
0200
0000
0000
0000
,
0320
0000
0000
0000
,
2030
0000
0000
0000
,
0002
0000
0000
3003
,
0020
0000
0000
0000
,
0230
0000
0000
0300
,
1001
2002
0000
0000
,
0000
0000
0000
3003
,
0001
1000
0000
1000
0000
0001
0000
0001
,
0000
0010
0000
0010
0000
0100
0000
0100
,
0110
1001
1000
1000
,
0010
0010
0100
0100
,
0001
0001
1000
1000
,
2002
0000
0000
3003
,
0010
0001
0010
1000
,
0010
0001
0010
1000
,
0100
0010
0100
0000
0001
0010
0001
0000
,
0010
0100
0010
0000
0100
1000
0100
0000
,
1000
0010
0001
0010
,
1000
0100
0001
0100
,
1000
0010
1000
0000
0001
0010
0001
0000
,
1001
0000
0000
0000
0000
0000
0000
0000
0010
0000
0000
0010
0000
0000
0010
0000
,
0110
1001
0000
0000
;

//---------------dance-single - ----------------
#NOTEDATA:;
#CHARTNAME:;
#STEPSTYPE:dance-single;
#DESCRIPTION:;
#CHARTSTYLE:;
#DIFFICULTY:Hard;
#METER:13;
#RADARVALUES:0.541550,0.683596,0.264117,0.240812,0.318494,488.000000,454.000000,34.000000,31.000000,0.000000,0.000000,0.000000,0.000000,0.000000,0.541550,0.683596,0.264117,0.240812,0.318494,488.000000,454.000000,34.000000,31.000000,0.000000,0.000000,0.000000,0.000000,0.000000;
#CREDIT:;
#NOTES:
0000
0000
0000
0000
,
0000
0000
0000
0000
,
0000
0000
0000
0000
,
0002
0000
0010
0013
0000
0100
2000
0000
,
0010
3010
0000
0100
0002
0000
1000
1003
,
0000
0100
2000
0000
0010
3010
0000
0000
,
0000
0000
0000
0000
,
1000
0002
0000
0000
0100
0000
0000
0000
0013
0000
0000
0000
0011
0000
0000
0000
,
0100
0000
0000
1000
0000
0000
0100
0000
0010
0000
0000
0001
0000
0000
0100
0000
,
0000
0020
0000
0000
0100
0000
0000
0000
1030
0000
0000
0000
1010
0000
0010
0000
,
0100
0000
0000
0001
0000
0000
0100
0000
0010
0000
0000
1000
0000
0000
0001
0000
,
0000
0020
0000
0000
0001
0000
0000
0000
0130
0000
0000
0000
1100
0000
0000
0000
,
1000
0000
0000
0001
0000
0000
0010
0000
0100
0000
0000
0010
0000
0000
0001
0000
,
0000
0200
0000
0000
1000
0000
0000
0000
0310
0000
0000
0000
1010
0000
1000
0000
,
0001
0100
0000
0000
0010
0000
1000
0000
0001
0010
0000
0000
0100
0000
1000
0000
,
0001
0010
0000
0010
1000
0010
0000
0010
,
0100
0010
0000
0010
0001
0010
0100
1000
,
0010
1000
0000
1000
0001
1000
0000
1000
,
0100
0000
1000
0000
0000
0000
1000
0000
0001
0000
0000
0010
0000
0000
0100
0000
,
1000
0100
0000
0100
0001
0100
0000
0100
,
0010
0100
0000
0100
1000
0100
0000
0100
,
0010
0001
1000
0010
0100
0001
1000
0100
,
0220
0000
0000
0000
0000
0000
0330
0000
0110
0000
0000
0110
0000
0000
0110
0000
,
1001
0000
1001
0000
0010
0100
1000
0001
,
0010
0100
1000
0001
0100
1000
0100
0001
,
1000
0000
0010
0000
0100
0000
0000
0000
0001
0000
0010
0000
0100
0000
0000
1000
,
0001
0010
1000
0010
0001
0100
0001
1000
,
0010
0100
0000
0000
0100
0000
0001
0000
1000
0000
0000
0010
0000
0000
0100
0000
,
0001
0000
0000
1000
0000
0000
0010
0000
0100
0000
0000
0001
0000
0000
1000
0000
,
0000
0100
0000
0000
1000
0000
0001
0000
0010
0000
0000
0100
0000
0000
1000
0000
,
0001
0010
0000
0010
0001
0000
0100
0000
0010
1000
0000
1000
0010
0000
0100
0000
,
1001
0000
0100
0000
0001
0100
0010
1000
,
0100
0010
0001
1000
0010
0001
0010
1000
,
0001
0000
0100
0000
0010
0000
0000
0000
1000
0000
0100
0000
0010
0000
0000
0001
,
1000
0100
0001
0100
1000
0010
0100
0001
,
1000
0010
0000
0000
0010
0000
0100
0000
0001
0000
0000
0010
0000
0000
0001
0000
,
1000
0000
0000
0100
0000
0000
0010
0000
0001
0000
0000
0100
0000
0000
0010
0000
,
1000
0001
0000
0000
0010
0000
0100
0000
1000
0001
0000
0000
0100
0000
0010
0000
,
1000
0001
0000
0001
1000
0000
0010
0000
0002
0000
0000
0000
0000
0000
0003
0000
,
0110
0001
1000
0010
0000
0100
0000
0001
,
0010
0100
1000
0001
0000
0001
1000
0000
,
0010
0000
1000
0000
0100
0000
0010
0000
0010
0000
0001
0000
0100
0000
0010
1000
,
0010
0100
0001
0010
0000
0100
0001
0100
,
1000
0010
0100
0001
0000
1000
0000
0100
,
1000
0000
0001
0000
0010
0000
0100
0000
0000
0000
1000
0000
0000
0000
0001
0010
,
0001
1000
0100
0010
0010
0000
0001
0000
,
0100
0000
0010
0000
0100
0000
0001
0000
1000
0000
0100
0010
0100
0000
0010
0000
,
0012
0000
0000
0000
0000
0000
1003
0010
1000
0000
0000
0010
0000
0000
0100
0000
,
0001
0000
0100
0000
0010
0000
1000
0100
1000
0000
0000
0001
0000
0000
0010
0000
,
0200
0000
0000
0000
0000
0000
1300
0100
2000
0000
0000
0000
0000
0000
3001
0010
,
0001
0000
1000
0000
0100
0000
0010
0000
0001
0000
0000
1000
0000
0000
0010
0000
,
0100
0000
0001
0000
1000
0000
0010
0100
0010
0000
0000
1000
0000
0000
0001
0000
,
0010
1000
0010
0002
0000
0000
0103
0000
,
0001
0000
0010
0000
0100
0000
1000
0000
0001
0000
0000
0100
0000
0000
0010
0000
,
2002
0000
0000
0000
0000
0000
3003
0000
1010
0000
0000
0011
0000
0000
1001
0000
,
0110
0220
0000
0000
,
0000
0000
0000
0300
,
2030
0000
0000
0000
,
3200
0000
0000
0000
,
0320
0000
0000
0000
,
0002
0000
0000
0030
,
0203
0000
0000
0000
,
0020
0000
0000
0000
0000
0000
0330
1000
,
1001
0000
0000
0000
0110
0000
0000
0000
0100
0000
0000
0100
0000
0000
0100
0000
,
0010
0000
0000
0010
0000
0000
0010
0000
0100
0000
0000
0100
0000
0000
0100
0000
,
0021
0001
1000
1030
,
0001
0000
0010
0000
1000
0000
0010
0001
,
1001
0000
0000
0000
0110
0000
0000
0000
0010
0000
0000
0010
0000
0000
0010
0000
,
0100
0000
0000
0100
0000
0000
0100
0000
0010
0000
0000
0010
0000
0000
0010
0000
,
0100
0001
1000
0010
0100
0001
1000
0001
,
1001
0000
0000
0000
0000
0000
0000
0000
1100
0000
0000
0110
0000
0000
0011
0000
,
0001
0000
0100
0001
0000
0100
0001
0000
1000
0000
0100
1000
0000
1000
0010
0000
,
0100
0000
0001
0100
0000
0001
0100
0000
0010
0000
1000
0100
0000
0100
0010
0000
,
0001
0000
1000
0001
0000
1000
0001
0000
0010
0000
0001
1000
0000
0001
1000
0000
,
0100
0000
1000
0001
0000
1000
0001
0000
0100
0000
0001
1000
0000
0001
1000
0000
,
0100
0000
1000
0001
0000
0001
0010
0000
0001
0000
1000
0010
0000
0010
1000
0000
,
0010
0000
0100
0001
0000
0100
0001
0000
1000
0000
0010
0100
0000
0100
0001
0000
,
0010
0000
0001
1000
0000
0001
1000
0000
0200
0000
0000
0000
0000
0000
0300
0000
,
2002
0000
0000
0000
0000
0000
3003
0000
0011
0000
0000
1010
0000
0000
1001
0000
,
0110
0220
0000
0000
,
0330
0000
0000
0000
;

//---------------dance-double - ----------------
#NOTEDATA:;
#CHARTNAME:;
#STEPSTYPE:dance-double;
#DESCRIPTION:;
#CHARTSTYLE:;
#DIFFICULTY:Easy;
#METER:5;
#RADARVALUES:0.195313,0.246250,0.100986,0.248580,0.000000,176.000000,163.000000,13.000000,32.000000,0.000000,0.000000,0.000000,0.000000,0.000000,0.195313,0.246250,0.100986,0.248580,0.000000,176.000000,163.000000,13.000000,32.000000,0.000000,0.000000,0.000000,0.000000,0.000000;
#CREDIT:;
#NOTES:
00000000
00000000
00000000
00000000
,
00000000
00000000
00000000
00000000
,
00000000
00000000
00000000
00000000
,
20000000
00000000
00000000
30200000
,
00000000
00000000
02300000
00000000
,
00000000
03002000
00000000
00000000
,
00003000
00000000
00000000
00000000
,
00011000
00000000
00010000
00000000
,
01000000
00000000
10000000
00000000
,
01000000
00000000
00010000
00000000
,
00100000
00000000
00001000
00010000
,
00001000
00000000
00000010
00000000
,
00000001
00000000
00000100
00000000
,
00001000
00000000
00010000
00000000
,
01000000
00000000
10000000
00010000
,
10020000
00030000
02000000
03000000
,
00200000
00300000
00010000
00000000
,
00002000
00003000
00000020
00000030
,
00000002
00000003
00001000
00000000
,
00000020
00000030
00000200
00000300
,
00002000
00003000
00010000
00000000
,
00200000
00300000
20000000
30000000
,
00020000
00030000
10000000
00000000
,
01000000
10010000
01000000
00000000
,
00010000
00000000
00001000
00000000
,
00000100
00000010
00000100
00000000
,
00000001
00001000
00000001
00000100
,
00002000
00000000
00013000
00000000
,
00020000
00000000
00031000
00000000
,
00001000
00100000
00010000
00000000
,
10000000
01000000
00100000
00000000
,
00100000
10010000
00100000
00000000
,
00010000
00000000
00001000
00000000
,
00000010
00000100
00001000
00000000
,
00000100
00010000
00001000
00000000
,
02000000
00000000
03100000
00000000
,
20000000
00000000
30010000
00000000
,
00100000
01000000
10000000
00000000
,
01000000
00010000
00002000
00000000
,
00013000
00000000
00000100
00000000
,
00001000
00000001
00000001
00000000
,
00000100
00000000
00001000
00000000
,
00010000
00100000
01000000
00100000
,
10000000
00000000
01000000
00000000
,
00010000
00000000
00001000
00000000
,
00000100
00000000
00000001
00000000
,
00000010
00000000
00001000
00000000
,
00011000
00000000
00100000
00000000
,
00011000
00000000
00000100
00000000
,
00011000
00000000
01000000
00000000
,
00100000
10000000
00010000
10000000
,
00010000
00000000
00100000
00000000
,
00001000
00010000
00001000
00000000
,
00000100
00000000
00000001
00000000
,
00002000
00000000
00003000
00000000
,
00000100
00000110
00000000
00000000
,
00000000
00000000
00000000
00000000
,
00002000
00000000
00000000
00000000
,
00023000
00000000
00000000
00000000
,
00032000
00000000
00000000
00000000
,
00003000
00000000
00000000
00000000
,
00200000
00000000
00000000
00000000
,
02300000
00000000
00000000
00000000
,
03100000
01100000
00000000
00000000
,
00010000
00000000
00000000
00000000
,
00001000
00000000
00010000
00000000
,
00100000
00000000
00010000
00000000
,
00001000
00011000
00010000
00000000
,
01000000
00000000
10000000
00000000
,
01000000
00000000
00010000
00000000
,
00011000
00000000
00000000
00000000
,
00001000
00000100
00000001
00000000
,
00000001
00000100
00001000
00000000
,
00020000
00030000
02000000
03000000
,
20000000
30000000
00200000
00300000
,
01000000
00010000
00100000
00000000
,
00001000
00010000
00000010
00000000
,
00001000
00000001
00000100
00000000
,
00000110
00000000
00002000
00000000
,
00013000
00011000
00000000
00000000
;

//---------------dance-double - ----------------
#NOTEDATA:;
#CHARTNAME:;
#STEPSTYPE:dance-double;
#DESCRIPTION:;
#CHARTSTYLE:;
#DIFFICULTY:Medium;
#METER:8;
#RADARVALUES:0.329591,0.430937,0.233044,0.279653,0.003884,297.000000,267.000000,30.000000,36.000000,0.000000,0.000000,0.000000,0.000000,0.000000,0.329591,0.430937,0.233044,0.279653,0.003884,297.000000,267.000000,30.000000,36.000000,0.000000,0.000000,0.000000,0.000000,0.000000;
#CREDIT:;
#NOTES:
00000000
00000000
00000000
00000000
,
00000000
00000000
00000000
00000000
,
00000000
00000000
00000000
00000000
,
20000000
00000000
00000000
30200000
00000000
00000000
02300000
00000000
,
00000000
03002000
00000000
00000000
00023000
00000000
00000000
00030200
,
00000000
00000000
00002300
00000000
00000000
00003002
00000000
00000000
,
00001003
00000000
00000000
00000000
,
00000010
00000100
00000001
00000100
,
00002000
00000000
00023000
00000000
,
01030000
00100000
00010000
10000000
,
00200000
00000000
02300000
00000000
,
03001000
00010000
00000100
00000010
,
00000002
00000000
00002003
00000000
,
00003100
00000010
00000100
00010000
,
00001000
00100000
00010000
01000000
00100000
00000000
01100000
00000000
,
10000000
00000000
00110000
00000000
,
01010000
00000000
00011000
00010000
,
00000100
00000000
00000110
00000000
,
00000011
00000000
00000101
00000100
,
00001000
00000000
00011000
00000000
,
01010000
00000000
11000000
01000000
,
10000000
00100000
00010000
00001000
,
00011000
00000000
00001100
00000000
,
00000110
00000110
00000001
00000010
,
00000001
00000000
00000100
00000000
00001000
00000000
00010000
00001000
,
00010000
01000000
10000000
00100000
,
01000000
00000000
00010000
00000000
00100000
00000000
00010000
01000000
,
00002000
00000000
00000000
00100000
00103000
00000000
00000000
00001000
,
00020000
00000000
00000000
00000010
00030010
00000000
00001000
00000000
,
00000100
00010000
00001000
01000000
,
00010000
00000000
00100000
00000000
00001000
00010000
00001000
00010000
,
00000010
00001000
00000001
00000100
,
00000001
00000000
00000010
00000000
00001000
00000000
00010000
00001000
,
00010000
00100000
10000000
01000000
,
00100000
00000000
00010000
00000000
01000000
00000000
00010000
00100000
,
00002000
00000000
00000000
01000000
01003000
00000000
00000000
00001000
,
00020000
00000000
00000000
00000100
00030100
00000000
00001000
00000000
,
00001001
00000001
00001001
00000100
,
00001000
00010000
00001000
00010000
02000000
00000000
03000000
00000000
,
10000000
00010000
00100000
01000000
,
10000000
00100000
00010000
00001000
,
00000100
00001000
00010000
01000000
,
00010000
00000000
00001000
00000000
00000010
00000000
00000001
00001000
,
00000001
00000010
00000100
00000001
,
00000100
00001000
00010000
00100000
,
01000000
00010000
10000000
00100000
,
00010000
00001000
00000010
00000001
,
00002001
00000000
00003000
00000100
00000100
00000000
00010000
00000000
,
00002000
00000000
00003000
01000000
01000000
00000000
00010000
00000000
,
20000000
00000000
30000000
00100000
00100000
00000000
00000000
01000000
,
01000000
10000000
01000000
00100000
,
00020000
00000000
00030000
00001000
00001000
00000000
00000010
00000000
,
00000100
00001000
00000010
00001000
,
00000200
00000300
00010000
00000100
,
00010100
00000000
00101000
00000000
,
00011000
00022000
00000000
00000000
,
00000000
00000000
00000000
00033000
,
00002000
00000000
02003000
00000000
,
03002000
00000000
02003000
00000000
,
00200000
00000000
00000000
00000000
,
00000000
00000000
00000000
03300000
,
20000000
00000000
32000000
00000000
,
23000000
00000000
30001000
01001000
,
02002000
00000000
00000000
00000000
,
00000000
00000000
00000000
03003000
,
00100000
00100000
01000000
01000000
,
00100000
00100000
01000000
01000000
,
01100000
10010000
00100000
00100000
,
00010000
00010000
00001000
00001000
,
00000100
00000100
00000010
00000010
,
00001001
00000000
00000110
00000000
,
00000001
00000100
00000010
00001000
,
00000100
00010000
00001000
01000000
,
00100000
10000000
00100000
00000000
01000000
00010000
01000000
00000000
,
00001000
00010000
00001000
00000000
00000100
00001000
00000100
00000010
,
00000001
00000010
00001000
00000010
,
00000001
00000100
00001000
00010000
,
01000000
10000000
01000000
00000000
00100000
00010000
00100000
00000000
,
10010000
00000000
00000000
00000000
00000000
00000000
00000000
00000000
01000000
00000000
00000000
01000000
00000000
00000000
01000000
00000000
,
01100000
10010000
00000000
00000000
;

//---------------dance-double - ----------------
#NOTEDATA:;
#CHARTNAME:;
#STEPSTYPE:dance-double;
#DESCRIPTION:;
#CHARTSTYLE:;
#DIFFICULTY:Hard;
#METER:13;
#RADARVALUES:0.534892,0.683596,0.256348,0.186435,0.268001,482.000000,449.000000,33.000000,24.000000,0.000000,0.000000,0.000000,0.000000,0.000000,0.534892,0.683596,0.256348,0.186435,0.268001,482.000000,449.000000,33.000000,24.000000,0.000000,0.000000,0.000000,0.000000,0.000000;
#CREDIT:;
#NOTES:
00000000
00000000
00000000
00000000
,
00000000
00000000
00000000
00000000
,
00000000
00000000
00000000
00000000
,
00000001
00000000
00000001
00000010
00000000
00000010
00000100
00000000
,
00000100
00010000
00000000
00001000
01000000
00000000
01000000
00100000
,
00000000
00100000
10000000
00000000
10000000
00020000
00000000
00000000
,
00030000
00000000
00000000
00000000
,
10000000
00000000
00000000
00000000
01000000
00000000
00010000
00000000
01000000
00000000
00000000
10000000
00000000
00000000
00100000
00000000
,
00010000
00000000
00000000
00001000
00000000
00000000
00100000
00000000
00001000
00000000
00000000
00010000
00000000
00000000
00000010
00000000
,
00000000
00010000
00000000
00000000
00001000
00000000
00000100
00000000
00000001
00000000
00000000
00000100
00000000
00000000
00001000
00000000
,
00010000
00000000
00000000
00100000
00000000
00000000
00010000
00000000
00001000
00000000
00000000
00000010
00000000
00000000
00001000
00000000
,
00000000
00010000
00000000
00000000
01000000
00000000
10000000
00000000
00100000
00000000
00000000
10000000
00000000
00000000
01000000
00000000
,
00010000
00000000
00000000
00001000
00000000
00000000
00000100
00000000
00000001
00000000
00000000
00000010
00000000
00000000
00000001
00000000
,
00000000
00000100
00000000
00000000
00001000
00000000
00010000
00000000
01000000
00000000
00000000
10000000
00000000
00000000
01000000
00000000
,
00000000
00010000
00000000
00000000
00001000
00000000
00000100
00000000
00000001
00000000
00000000
00000100
00000000
00000000
00010000
00000000
,
00002000
01000000
00000000
01003000
00200000
10000000
00000000
10300000
,
02000000
00100000
00000000
03100000
00020000
00001000
00000000
00031000
,
00000200
00000010
00000000
00000310
00000002
00000100
00000000
00000103
,
00000001
00000100
00000010
00010000
00001000
00100000
00010000
00000000
,
02000000
00100000
00000000
03100000
20000000
01000000
00000000
31000000
,
00200000
00001000
00000000
00301000
00020000
00000010
00000000
00030010
,
00000100
00000001
00000010
00000100
00010000
00001000
01000000
00100000
,
20000000
00000000
00000000
00000000
00000000
00000000
30000000
00000000
10100000
00000000
00000000
01010000
00000000
00000000
10010000
00000000
,
01000000
00000000
01100000
00100000
01000000
00010000
10000000
00100000
,
01000000
00000000
00000000
00001000
00000000
00000000
00010000
00000000
00000100
00000000
00000000
00000010
00000000
00000000
00001000
00000000
,
00000010
00000000
00000001
00000000
00000100
00000000
00000000
00000000
00000010
00000000
00001000
00000000
00000100
00000000
00000000
00010000
,
00001000
00000100
00001000
00010000
00000000
01000000
00000000
10000000
,
00100000
01000000
00100000
10000000
00010000
00000000
00100000
00001000
,
00010000
00000010
00000100
00000010
00001000
00000000
00000001
00000000
,
00000100
00001000
00010000
00000000
01000000
00010000
00001000
00000000
,
00100000
00010000
10000000
00010000
01000000
00100000
01000000
00100000
,
01100000
00000000
00000000
00000000
10100000
00000000
00000000
00000000
11000000
00000000
00000000
00000000
01010000
00000000
00000000
00100000
,
00010000
00000000
00000000
01000000
00000000
00000000
00100000
00000000
00010000
00000000
00000000
00001000
00000000
00000000
00000100
00000000
,
00000110
00000000
00000000
00000000
00000101
00000000
00000000
00000000
00000011
00000000
00000000
00000000
00001010
00000000
00000000
00000100
,
00001000
00000010
00010000
00001000
01000000
00010000
10000000
01000000
,
00100000
00010000
00010000
00000000
01000000
00100000
00100000
00000000
,
00010000
00001000
00000100
00001000
00010000
01000000
00010000
00001000
,
00000010
00000001
00000001
00000000
00001000
00000010
00000010
00000000
,
00000001
00000010
00001000
00010000
02000000
00000000
00000000
00000000
,
13000000
01000000
00010000
00100000
00000000
01000000
00000000
10000000
,
01000000
00010000
00001000
00000100
00000000
00000100
00000010
00000000
,
00000001
00000000
00001000
00000000
00000010
00000000
00000100
00000000
00000100
00000000
00000000
00000000
00001000
00000000
00010000
00001000
,
00010000
01000000
10000000
00010000
00000000
01000000
00100000
01000000
,
00010000
00100000
01000000
00010000
00000000
00001000
00000000
00010000
,
00001000
00000000
00000010
00000000
00000100
00000000
00001000
00000000
00000010
00000000
00000000
00000000
00000000
00000000
00000100
00000001
,
00000100
00001000
00010000
00100000
00100000
00000000
10000000
00000000
,
00010000
01000000
00010000
00100000
00001000
00100000
00001000
00010000
,
00011000
00000000
00000000
00000000
00000000
00000000
00000100
00001000
00000100
00000000
00000000
00000010
00000000
00000000
00000001
00000000
,
00001000
00000000
00000010
00000000
00010000
00000000
00001000
00010000
00001000
00000000
00000000
00100000
00000000
00000000
01000000
00000000
,
10000000
00000000
00000000
00000000
00000000
00000000
00100000
01000000
00100000
00000000
00000000
00000000
00000000
00000000
00010000
00001000
,
00010000
00000000
00000100
00000000
00000010
00000000
00000001
00000000
00001000
00000000
00000000
00000100
00000000
00000000
00000010
00000000
,
00000100
00000000
00010000
00000000
00001000
00000000
01000000
00100000
01000000
00000000
00000000
00010000
00000000
00000000
10000000
00000000
,
01000000
00100000
00010000
02000000
00000000
00000000
03001000
00000000
,
00100000
00000000
00001000
00000000
00010000
00000000
00000010
00000000
00000100
00000000
00000000
00001000
00000000
00000000
00010000
00000000
,
00011000
00000000
00000000
00000000
00000000
00000000
00000000
00000000
10100000
00000000
00000000
01010000
00000000
00000000
00101000
00000000
,
00010000
00022000
00000000
00000000
,
00000000
00000000
00000000
00033000
,
00010000
00010000
00000100
00000100
,
00001000
00001000
00000010
00000010
,
00000220
00000000
00000000
00000000
,
00000000
00000000
00000000
00000330
,
00000001
00000001
00000100
00000100
,
00000010
00000000
00000010
00000000
00010000
00000000
00010000
00001000
,
00011000
00022000
00000000
00000000
,
00000000
00000000
00000000
00033000
,
00010000
00001000
00000100
00000001
,
00000010
00000000
00000001
00000000
00000100
00000000
00000010
00010000
,
00010010
00000000
00000000
00000000
01001000
00000000
00000000
00000000
00010000
00000000
00000000
00100000
00000000
00000000
00010000
00000000
,
01000000
00000000
00000000
00100000
00000000
00000000
10000000
00000000
01000000
00000000
00000000
00100000
00000000
00000000
01000000
00000000
,
10000000
00100000
00010000
00001000
00000010
00000001
00000100
00000010
,
00001000
00000000
00000001
00001000
00000000
00000001
00001000
00000000
00001001
00000000
00000000
00010010
00000000
00000000
00101000
00000000
,
00001000
00000000
00100000
00001000
00000000
00100000
00001000
00000000
00010000
00000000
00001000
00010000
00000000
00001000
01000000
00000000
,
00010000
00000000
10000000
00010000
00000000
10000000
00010000
00000000
00100000
00000000
00010000
00100000
00000000
00100000
00001000
00000000
,
00010000
00000000
00000100
00001000
00000000
00001000
00000100
00000000
00010000
00000000
00001000
01000000
00000000
01000000
00001000
00000000
,
00010000
00000000
00001000
00100000
00000000
00100000
00001000
00000000
00010000
00000000
00000010
00001000
00000000
00001000
00000001
00000000
,
00000001
00000000
00000010
00000001
00000000
00000001
00000010
00000000
00000010
00000000
00000100
00010000
00000000
00010000
00001000
00000000
,
01000000
00000000
00010000
10000000
00000000
00010000
10000000
00000000
00100000
00000000
10000000
00010000
00000000
10000000
01000000
00000000
,
00100000
00000000
00001000
00010000
00000000
00010000
00001000
00000000
00022000
00000000
00000000
00000000
00000000
00000000
00033000
00000000
,
00011000
00000000
00000000
00000000
00000000
00000000
00000000
00000000
00010100
00000000
00000000
01001000
00000000
00000000
00010100
00000000
,
00011000
00022000
00000000
00000000
,
00033000
00000000
00000000
00000000
;

//---------------dance-single - ----------------
#NOTEDATA:;
#CHARTNAME:;
#STEPSTYPE:dance-single;
#DESCRIPTION:;
#CHARTSTYLE:;
#DIFFICULTY:Challenge;
#METER:15;
#RADARVALUES:0.710230,0.932176,0.466088,0.349566,0.636987,640.000000,580.000000,60.000000,45.000000,0.000000,0.000000,0.000000,0.000000,0.000000,0.710230,0.932176,0.466088,0.349566,0.636987,640.000000,580.000000,60.000000,45.000000,0.000000,0.000000,0.000000,0.000000,0.000000;
#CREDIT:;
#NOTES:
// measure 0
0000
0000
0000
0000
,  // measure 1
0000
0000
0000
0000
,  // measure 2
0000
0000
0000
0000
,  // measure 3
0001
0100
0001
1001
0000
1000
1100
0000
,  // measure 4
0001
0101
0000
1000
0001
0010
0001
1001
,  // measure 5
0000
0010
1010
0000
0100
0220
0000
0000
,  // measure 6
0330
0000
0000
0000
,  // measure 7
0001
0100
0000
0000
0100
0000
0001
0000
0010
0000
0000
0100
0000
0000
1000
0001
,  // measure 8
2000
0000
0000
0100
0000
0000
3100
0000
0020
0000
0000
0001
0000
0000
0031
0000
,  // measure 9
0000
0100
0000
0000
0100
0000
0010
0000
1000
0000
0000
0100
0000
0000
1000
0001
,  // measure 10
2000
0000
0000
0100
0000
0000
3100
0000
0020
0000
0000
0001
0000
0000
0031
0000
,  // measure 11
0000
1000
0000
0000
0001
0000
0010
0000
1000
0000
0000
0010
0000
0000
0001
1000
,  // measure 12
0002
0000
0000
0010
0000
0000
0013
0000
0200
0000
0000
1000
0000
0000
1300
0000
,  // measure 13
0000
0001
0000
0000
1000
0000
0100
0000
0001
0000
0000
0100
0000
0000
1000
0001
,  // measure 14
0000
0100
0001
0000
1000
0000
0010
0000
0001
0000
0000
0010
0000
0000
1000
0000
,  // measure 15
1002
0000
0013
0100
2000
0000
3100
0010
,  // measure 16
0002
0000
0103
0010
2000
0000
3010
0100
,  // measure 17
0002
0000
0013
0100
2000
0000
3100
0010
,  // measure 18
0002
0000
0000
0000
0103
0000
0010
0000
1000
0000
0000
0100
0000
0000
0010
0000
,  // measure 19
1002
0000
0013
0100
2001
0000
3100
0010
,  // measure 20
1002
0000
0000
0000
0103
0000
0010
0000
1000
0000
0000
0100
0000
0000
0010
0000
,  // measure 21
0001
1000
0001
1000
0100
1000
0100
1000
0001
0100
0001
0100
0001
1000
0001
1000
,  // measure 22
0002
0000
0000
0000
0000
0000
0003
0000
0110
0000
0000
0110
0000
0000
0110
0000
,  // measure 23
0101
0000
0000
0000
1001
0000
1000
0000
0001
0000
0100
0000
0001
0000
1000
0100
,  // measure 24
0010
0000
0001
0000
0100
0000
1000
0000
0100
0000
0001
0000
1000
0000
0010
0100
,  // measure 25
0001
0000
1000
0000
0100
0000
0010
0000
0100
0000
1000
0000
0001
0000
0100
0010
,  // measure 26
1000
0001
0100
1000
0100
0001
0010
0100
,  // measure 27
1000
0010
1000
0000
0001
0000
0100
0000
0010
0000
1000
0001
0000
1000
0001
0000
,  // measure 28
0100
0000
0010
0000
0001
0000
0010
0000
0100
0000
0001
1000
0000
0001
1000
0010
,  // measure 29
0100
0000
0001
0000
0010
0000
1000
0000
0010
0000
0001
1000
0000
0010
1000
0000
,  // measure 30
0001
0010
0000
0001
1000
0000
0100
0000
0010
0001
0010
0001
0100
0010
0100
0010
,  // measure 31
1000
0001
0000
0001
0010
0000
0100
0000
1010
0000
0000
0011
0000
0000
0001
1000
,  // measure 32
0001
0000
0100
0000
1000
0000
0100
0000
0001
0010
0000
0010
0100
0000
1000
0000
,  // measure 33
0001
0000
0010
0000
1000
0000
0010
0000
0011
0000
0000
1010
0000
0000
1000
0001
,  // measure 34
1000
0100
0001
0100
1000
0010
0100
0010
,  // measure 35
1000
0001
0000
0001
0100
0000
0010
0000
1010
0000
0000
0011
0000
0000
0001
1000
,  // measure 36
0001
0000
0000
0101
0000
0000
1100
0000
0001
0000
0000
0101
0000
0000
1010
0000
,  // measure 37
0001
0010
0001
0010
0001
1000
0001
1000
0010
1000
0010
1000
0001
0010
0001
0010
,  // measure 38
0100
1000
0001
1000
0100
1000
0001
1000
0200
0000
0000
0000
0000
0000
0300
0000
,  // measure 39
1001
0010
0100
2000
0000
3020
0000
0031
,  // measure 40
0010
1000
0001
0200
0000
0000
0301
0000
,  // measure 41
1000
0000
0100
0000
0010
0000
0001
0000
0002
0000
0000
0000
1003
0000
0010
0100
,  // measure 42
0010
1000
0100
0002
0000
0103
0000
1000
,  // measure 43
1001
0100
0010
0002
0000
0103
0000
1000
,  // measure 44
0100
0000
0001
0000
0010
0000
0200
0000
0000
0000
0000
0000
0310
0000
0001
1000
,  // measure 45
0001
0100
0010
1000
2000
0000
3001
0000
,  // measure 46
1000
0001
0100
1000
0100
0001
0010
0100
,  // measure 47
1002
0000
0000
0000
0000
0000
0103
0010
0100
0000
0000
0101
0000
0000
1010
0000
,  // measure 48
1000
0000
0100
0000
0010
0000
0001
1000
0001
0000
0000
0011
0000
0000
1100
0000
,  // measure 49
1000
0000
0010
0000
0100
0000
0001
1000
0002
0000
0000
0000
0000
0000
0103
0010
,  // measure 50
0100
0000
0001
0000
0010
0000
0100
0000
1010
0000
0000
0110
0000
0000
0101
0000
,  // measure 51
1000
0000
0100
0000
0010
0000
0001
0100
0001
0000
0000
0101
0000
0000
1010
0000
,  // measure 52
0001
0010
0100
2000
0000
0000
3001
0000
,  // measure 53
0010
0001
0010
0001
0100
0010
0100
0010
1000
0001
0000
0001
0100
0000
0110
0000
,  // measure 54
2002
0000
0000
0000
0000
0000
3003
0000
0110
0000
0000
0110
0000
0000
0110
0000
,  // measure 55
1001
0022
0000
0000
,  // measure 56
0000
0000
0000
0033
,  // measure 57
0100
0000
0000
0100
0000
0000
0100
0000
1000
0000
0000
1000
0000
0000
1000
0000
,  // measure 58
0001
0000
0000
0001
0000
0000
0001
0000
0100
0000
0000
0100
0000
0000
0100
0000
,  // measure 59
0020
0000
2000
3000
,  // measure 60
0200
0300
2000
3030
,  // measure 61
0100
0000
0000
0100
0000
0000
0100
0000
0001
0000
0000
0001
0000
0000
0001
0000
,  // measure 62
1000
0000
0000
1000
0000
0000
1000
0000
0010
0000
0000
0010
0000
0000
0110
0000
,  // measure 63
0101
0000
0000
0000
1001
0000
0000
0000
1000
0000
0100
0010
0000
0010
0100
0000
,  // measure 64
1000
0000
0001
0100
0000
0100
0001
0000
2000
0000
0000
0000
3002
0000
0000
0000
,  // measure 65
1003
0000
0001
0100
0000
0001
0100
0000
0010
1000
0000
0100
0010
0000
0001
0000
,  // measure 66
1000
0000
0010
0100
0000
0010
0100
0000
0001
0010
0000
0100
1000
0000
0110
0000
,  // measure 67
1010
0000
0000
0000
1001
0000
0000
0000
0001
0000
1000
0100
0000
0100
1000
0000
,  // measure 68
0001
0000
0100
0010
0000
0010
0100
0000
0001
1000
0001
0000
1000
0100
1000
0000
,  // measure 69
0001
1000
0001
1000
0001
1000
0001
1000
0010
0100
0001
0010
0100
0010
0001
0100
,  // measure 70
0002
0000
0000
0000
0000
0000
0003
0000
0110
0000
0000
0110
0000
0000
0110
0000
,  // measure 71
1000
0001
1000
0100
1000
0001
1000
0100
0010
0000
0001
0100
0000
0100
1000
0000
,  // measure 72
0001
1000
0001
0100
0001
1000
0001
0100
0010
0000
1000
0100
0000
0100
0001
0000
,  // measure 73
1000
0000
0010
0100
0000
1000
0100
0000
0010
0000
1000
0100
0000
0010
0001
0000
,  // measure 74
1000
0000
0100
0010
0000
1000
0010
0000
0100
0000
1000
0010
0000
0100
0001
0000
,  // measure 75
1001
0000
1000
0100
0000
0100
0001
0000
1000
0000
0001
0010
0000
0010
1000
0000
,  // measure 76
1001
0000
1000
0100
0010
0100
1000
0000
0001
0000
0100
0001
0010
0001
0100
0000
,  // measure 77
0001
1000
0100
1000
0001
1000
0100
0010
0001
0100
0010
0100
0001
0100
0010
0100
,  // measure 78
0002
0000
0000
0000
0000
0000
0003
0000
0110
0000
0000
0110
0000
0000
0110
0000
,  // measure 79
1001
2200
0000
0000
,  // measure 80
3300
0000
0000
0000
;

//---------------dance-double - ----------------
#NOTEDATA:;
#CHARTNAME:;
#STEPSTYPE:dance-double;
#DESCRIPTION:;
#CHARTSTYLE:;
#DIFFICULTY:Challenge;
#METER:15;
#RADARVALUES:0.701352,0.932176,0.403943,0.287421,0.644755,632.000000,580.000000,52.000000,37.000000,0.000000,0.000000,0.000000,0.000000,0.000000,0.701352,0.932176,0.403943,0.287421,0.644755,632.000000,580.000000,52.000000,37.000000,0.000000,0.000000,0.000000,0.000000,0.000000;
#CREDIT:;
#NOTES:
00000000
00000000
00000000
00000000
,
00000000
00000000
00000000
00000000
,
00000000
00000000
00000000
00000000
,
10000000
00100000
01000000
00100000
00000000
01000000
00001000
00000000
,
00001000
00010000
00000000
00010000
00000100
00000010
00000001
00001000
,
00000000
00000010
00010000
00000000
00010000
00002000
00000000
00000000
,
00003000
00000000
00000000
00000000
,
01000000
00100000
00000000
00000000
10000000
00000000
01000000
00000000
00010000
00000000
00000000
00000100
00000000
00000000
00010000
00001000
,
00010000
00000000
00000000
00000010
00000000
00000000
00000100
00000000
00000001
00000000
00000000
00000010
00000000
00000000
00000100
00000000
,
00000000
00001000
00000000
00000000
00000001
00000000
00000100
00000000
00001000
00000000
00000000
01000000
00000000
00000000
00001000
00010000
,
00001000
00000000
00000000
00100000
00000000
00000000
01000000
00000000
10000000
00000000
00000000
00100000
00000000
00000000
01100000
00000000
,
00000000
01010000
00000000
00000000
10000000
00000000
01000000
00000000
00010000
00000000
00000000
00000100
00000000
00000000
00010000
00001000
,
00010000
00000000
00000000
00000010
00000000
00000000
00000100
00000000
00000001
00000000
00000000
00000010
00000000
00000000
00000100
00000000
,
00000000
00001000
00000000
00000000
00000001
00000000
00000100
00000000
00001000
00000000
00000000
01000000
00000000
00000000
00010000
10000000
,
00000000
00100000
10000000
00000000
01000000
00000000
00100000
00000000
00001000
00000000
00000000
00010000
00000000
00000000
00000010
00000000
,
00020000
00000000
00030100
00000010
00000002
00000000
00000013
00000100
,
00020000
00000000
00030100
00000010
00000002
00000000
00010003
00000000
,
00002000
00000000
00103000
01000000
20000000
00000000
31000000
00100000
,
00002000
00000000
00103000
01000000
20000000
00000000
30001000
00000000
,
00020000
00000000
00030010
00000100
00000002
00000000
00000103
00000010
,
00020000
00000000
00030010
00000100
00000002
00000000
00010003
00000000
,
00000010
00010000
00000010
00010000
00001000
00010000
00001000
00010000
00100000
01000000
00100000
01000000
00010000
01000000
00010000
01000000
,
00002000
00000000
00000000
00000000
00000000
00000000
00003000
00000000
00011000
00000000
00000000
00011000
00000000
00000000
00011000
00000000
,
00010010
00000000
00000000
00000000
00000110
00000000
00000001
00000000
00000010
00000000
00000100
00000000
00000010
00000000
00000001
00000100
,
00000010
00000000
00001000
00000000
00000100
00000000
00000001
00000000
00000100
00000000
00001000
00000000
00000010
00000000
00000100
00000001
,
00000010
00000000
00000001
00000000
00000100
00000000
00001000
00000000
00000100
00000000
00000001
00000000
00001000
00000000
00000001
00000010
,
00000100
00010000
00001000
00100000
01000000
10000000
01000000
00100000
,
00010000
01000000
00010000
00000000
10000000
00000000
01000000
00000000
00100000
00000000
00001000
00010000
00000000
00001000
00010000
00000100
,
00000010
00000001
00000010
00000000
00000001
00000000
00000100
00000000
00000010
00000000
00010000
00001000
00000000
00010000
00001000
00100000
,
01000000
00000000
10000000
00000000
00100000
00000000
00010000
00000000
00100000
00000000
10000000
01000000
00000000
01000000
00001000
00000000
,
00001000
00010000
00000000
00010000
00000010
00000000
00000100
00000000
00000001
00000010
00000001
00000010
00000100
00010000
00000100
00010000
,
00001000
01000000
00000000
00100000
01000000
00000000
00100000
00000000
11000000
00000000
00000000
01100000
00000000
00000000
00001000
00010000
,
00000100
00000000
00000010
00000000
00000001
00000000
00000100
00000000
00000010
00000100
00000000
00000001
00000010
00000000
00000100
00000000
,
00010000
00000010
00000000
00000100
00000010
00000000
00000100
00000000
00000011
00000000
00000000
00000110
00000000
00000000
00010000
00001000
,
00100000
01000000
10000000
00100000
01000000
10000000
01000000
00100000
,
10000000
00010000
00000000
10000000
00100000
00000000
01000000
00000000
01001000
00000000
00000000
00011000
00000000
00000000
00010000
00000010
,
00000100
00000000
00000000
00000011
00000000
00000000
00000110
00000000
00010000
00000000
00000000
00011000
00000000
00000000
01001000
00000000
,
00100000
01000000
00100000
01000000
00001000
00010000
00001000
00010000
00000100
00000010
00000100
00000010
00000001
00000100
00000001
00000100
,
00000010
00010000
00000100
00010000
00000010
00010000
00000100
00010000
00000020
00000000
00000000
00000000
00000000
00000000
00000030
00000000
,
00001001
00000010
00000100
00002000
00000000
00003020
00000000
00000031
,
00000010
00010000
00001000
02000000
00000000
00000000
03010000
00000000
,
10000000
00000000
01000000
00000000
10000000
00000000
00001000
00000000
00002000
00000000
00000000
00000000
01003000
00000000
00100000
01000000
,
00100000
10000000
01000000
00002000
00000000
02003000
00000000
13000000
,
10010000
01000000
00100000
00020000
00000000
01030000
00000000
10000000
,
01000000
00000000
00001000
00000000
00010000
00000000
00000020
00000000
00000000
00000000
00000000
00000000
00000130
00000000
00000001
00000010
,
00000001
00000100
00000010
00010000
00020000
00000000
00031000
00000000
,
00100000
01000000
10000000
00100000
01000000
00010000
00100000
01000000
,
00102000
00000000
00000000
00000000
00000000
00000000
00013000
00000100
00000010
00000000
00000000
00000110
00000000
00000000
00000011
00000000
,
00001000
00000000
00000100
00000000
00000010
00000000
00000001
00000100
00000010
00000000
00000000
00010010
00000000
00000000
00011000
00000000
,
00100000
00000000
01000000
00000000
10000000
00000000
00010000
01000000
00020000
00000000
00000000
00000000
00000000
00000000
01030000
00100000
,
01000000
00000000
00010000
00000000
00100000
00000000
01000000
00000000
10100000
00000000
00000000
01100000
00000000
00000000
01001000
00000000
,
00100000
00000000
01000000
00000000
10000000
00000000
00001000
01000000
00001000
00000000
00000000
00011000
00000000
00000000
00010010
00000000
,
00000100
00000010
00000001
00000200
00000000
00000000
00000310
00000000
,
00000100
00000001
00000100
00000001
00010000
00001000
00010000
00001000
00100000
01000000
00000000
10000000
00100000
00000000
01100000
00000000
,
20020000
00000000
00000000
00000000
00000000
00000000
30030000
00000000
01100000
00000000
00000000
01100000
00000000
00000000
01100000
00000000
,
01001000
00022000
00000000
00000000
,
00000000
00000000
00000000
00033000
,
00000010
00000000
00000000
00000010
00000000
00000000
00000010
00000000
00000100
00000000
00000000
00000100
00000000
00000000
00000100
00000000
,
00000001
00000000
00000000
00000001
00000000
00000000
00000001
00000000
00000010
00000000
00000000
00000010
00000000
00000000
00000010
00000000
,
00020000
00000000
00001000
00000000
,
00001000
00000000
00002000
00033000
,
01000000
00000000
00000000
01000000
00000000
00000000
01000000
00000000
00100000
00000000
00000000
00100000
00000000
00000000
00100000
00000000
,
10000000
00000000
00000000
10000000
00000000
00000000
10000000
00000000
01000000
00000000
00000000
01000000
00000000
00000000
01100000
00000000
,
01001000
00000000
00000000
00000000
00011000
00000000
00000000
00000000
00010000
00000000
00000010
00000100
00000000
00000010
00000100
00000000
,
00000001
00000000
00001000
00000010
00000000
00001000
00000010
00000000
00010000
00000000
00000000
00000000
00001000
00000000
00000000
00000000
,
01000000
00000000
00100000
10000000
00000000
00100000
10000000
00000000
01000000
00100000
00000000
00001000
00100000
00000000
00001000
00000000
,
00010000
00000000
00000100
00000010
00000000
00000100
00000010
00000000
00000001
00000100
00000000
00000010
00010000
00000000
00010010
00000000
,
00011000
00000000
00000000
00000000
01001000
00000000
00000000
00000000
00100000
00000000
10000000
01000000
00000000
10000000
01000000
00000000
,
00100000
00000000
00001000
00010000
00000000
00001000
00010000
00000000
00000010
00000100
00000010
00000000
00000100
00000010
00000100
00000000
,
00000001
00000010
00000001
00000010
00000100
00010000
00000100
00010000
00000010
00001000
00000010
00010000
00000010
00001000
00000010
00010000
,
00000020
00000000
00000000
00000000
00000000
00000000
00000030
00000000
00010010
00000000
00000000
00011000
00000000
00000000
01001000
00000000
,
00100000
10000000
01000000
10000000
00100000
10000000
01000000
00100000
00001000
00000000
00010000
00001000
00000000
00010000
00000100
00000000
,
00000010
00000001
00000100
00000001
00000010
00000001
00000100
00000010
00010000
00000000
00001000
00010000
00000000
00001000
00100000
00000000
,
01000000
00000000
10000000
00100000
00000000
00100000
01000000
00000000
00001000
00000000
00010000
00000010
00000000
00000010
00000100
00000000
,
00000001
00000000
00000010
00000100
00000000
00000100
00010000
00000000
00001000
00000000
00100000
01000000
00000000
01000000
10000000
00000000
,
10010000
00000000
00010000
01000000
00000000
01000000
00100000
00000000
10000000
00000000
01000000
00100000
00000000
00100000
00001000
00000000
,
00011000
00000000
00010000
00000010
00000100
00000010
00010000
00000000
00000100
00000000
00000010
00000001
00001000
00000001
00000010
00000000
,
00010000
00000100
00010000
00000100
00001000
00010000
00001000
00010000
00100000
01000000
10000000
00010000
01000000
00010000
10000000
01000000
,
00200000
00000000
00000000
00000000
00000000
00000000
00300000
00000000
01100000
00000000
00000000
01100000
00000000
00000000
01100000
00000000
,
01001000
00022000
00000000
00000000
,
00033000
00000000
00000000
00000000
;
