#VERSION:0.83;
#TITLE:超妻賢母宣言;
#SUBTITLE:;
#ARTIST:MOSAIC.WAV;
#TITLETRANSLIT:CHOUSAI KENBO SENGEN;
#SUBTITLETRANSLIT:;
#ARTISTTRANSLIT:;
#GENRE:;
#ORIGIN:;
#CREDIT:DigiMindAxel;
#BANNER:CHOUSAI KENBO SENGEN.png;
#BACKGROUND:CHOUSAI KENBO SENGEN-bg.png;
#PREVIEWVID:;
#JACKET:CHOUSAI KENBO SENGEN-jacket.png;
#CDIMAGE:;
#DISCIMAGE:;
#LYRICSPATH:CHOUSAI KENBO SENGEN.lrc;
#CDTITLE:DigiMindAxel original simfile.png;
#MUSIC:CHOUSAI KENBO SENGEN.ogg;
#OFFSET:-0.565000;
#SAMPLESTART:53.680676;
#SAMPLELENGTH:12.000000;
#SELECTABLE:YES;
#BPMS:0.000=202.000;
#STOPS:;
#DELAYS:;
#WARPS:;
#TIMESIGNATURES:0.000=4=4;
#TICKCOUNTS:0.000=4;
#COMBOS:0.000=1;
#SPEEDS:0.000=1.000=0.000=0;
#SCROLLS:0.000=1.000;
#FAKES:;
#LABELS:0.000=Song Start;
#BGCHANGES:-2.000=CHOUSAI KENBO SENGEN.avi=1.000=1=0=0=StretchNoLoop==CrossFade==,
99999=-nosongbg-=1.000=0=0=0 // don't automatically add -songbackground-
;
#KEYSOUNDS:;
#ATTACKS:
;

//---------------dance-single - ----------------
#NOTEDATA:;
#CHARTNAME:;
#STEPSTYPE:dance-single;
#DESCRIPTION:;
#CHARTSTYLE:;
#DIFFICULTY:Easy;
#METER:5;
#RADARVALUES:0.267678,0.357991,0.118455,0.000000,0.000000,174.000000,163.000000,11.000000,0.000000,0.000000,0.000000,0.000000,0.000000,0.000000,0.267678,0.357991,0.118455,0.000000,0.000000,174.000000,163.000000,11.000000,0.000000,0.000000,0.000000,0.000000,0.000000,0.000000;
#CREDIT:;
#NOTES:
0000
0000
0000
0000
,
0000
0000
0000
0000
,
0000
0000
0000
0000
,
0000
0000
0000
0000
,
0000
0000
0000
0000
,
1000
0000
1000
0000
,
0001
0000
0001
0000
,
1000
0000
1000
0000
,
0001
0000
0001
0000
,
0010
0000
0100
0000
,
0010
0000
0100
0000
,
1000
0000
0001
0000
,
1000
0000
0001
0000
,
1001
0000
0000
0000
,
1001
0000
0000
0000
,
1001
0000
0000
0000
,
1001
0000
0000
0000
,
1000
0000
0100
0000
,
1000
0000
0001
0000
,
1000
0000
0100
0000
,
1000
0000
0001
0000
,
1001
0000
1000
0000
,
0001
0000
0100
0000
,
0010
0000
0100
0000
,
0001
0000
0010
0000
,
0100
0000
1000
0000
,
0100
0000
1000
0000
,
0001
0000
0001
0000
,
0100
0010
0100
0000
,
1001
0000
0001
0000
,
1000
0000
0100
0000
,
0010
0001
0010
0000
,
0001
1000
0001
0000
,
1000
0000
0010
0000
,
0100
0000
0001
0000
,
1000
0100
1000
0000
,
0001
1000
0001
0000
,
1000
0000
0010
0000
,
0100
0000
0001
0000
,
1000
0100
1000
0000
,
0001
1000
0001
0000
,
0010
0000
0100
0000
,
1000
0001
1000
0000
,
0001
0000
0100
0000
,
1001
1000
0000
0000
,
1001
0000
0010
0100
,
0010
0000
0100
0010
,
0100
0000
0001
0000
,
1000
0000
0100
0010
,
0100
0000
1000
0001
,
1000
0000
0001
1000
,
0001
0000
0010
0000
,
0100
0000
1000
0000
,
0010
0100
0010
0000
,
0100
0001
0100
0000
,
0010
0100
0010
0100
,
0010
1000
0001
0000
,
1000
0001
1000
0000
,
0100
1000
0100
0000
,
0010
0001
0010
0000
,
0001
1000
0001
0000
,
0100
0010
0100
0000
,
0001
0100
0001
0000
,
1000
0010
1000
0000
,
0001
0000
0010
0000
,
1001
0000
1000
0000
,
0001
0000
0001
0000
,
1000
0000
1000
0000
,
0001
0000
0001
0000
,
0010
0000
0100
0000
,
0010
0000
0100
0000
,
1000
0001
1000
0000
,
0001
0100
0001
1000
,
0110
0000
0000
0000
0000
0010
0000
0110
;

//---------------dance-single - ----------------
#NOTEDATA:;
#CHARTNAME:;
#STEPSTYPE:dance-single;
#DESCRIPTION:;
#CHARTSTYLE:;
#DIFFICULTY:Medium;
#METER:12;
#RADARVALUES:0.558432,0.636428,0.527665,0.032306,0.000000,363.000000,314.000000,49.000000,3.000000,0.000000,0.000000,0.000000,0.000000,0.000000,0.558432,0.636428,0.527665,0.032306,0.000000,363.000000,314.000000,49.000000,3.000000,0.000000,0.000000,0.000000,0.000000,0.000000;
#CREDIT:;
#NOTES:
0000
0000
0000
0000
,
0000
0000
0000
0000
,
0000
0000
0000
0000
,
0000
0000
0000
0000
,
0000
0000
0000
0000
,
0010
0000
0100
0000
1000
0001
1000
0000
,
0100
0000
0010
0000
0001
1000
0001
0000
,
0010
0000
0100
0000
1000
0001
1000
0000
,
0100
0000
0010
0000
0001
1000
0001
0000
,
0100
0000
0010
0000
1000
0001
1000
0000
,
0010
0000
0100
0000
0001
1000
0001
0000
,
0100
0010
0100
0000
0001
1000
0001
0000
,
1001
0000
0000
0100
0000
0000
0100
0000
,
1001
1001
0000
0000
,
1001
1001
0000
0000
,
0110
0110
0000
0000
,
1001
1001
0000
0000
,
0110
0110
0000
0000
,
1010
1010
0000
0000
,
0110
0110
0000
0000
,
0101
0101
0000
0000
,
1001
0001
0010
0100
,
1000
0010
1000
0000
0001
1000
0001
0000
,
1000
0100
0010
0100
,
1000
0001
0000
0100
0000
0000
0001
0000
,
0100
1001
1001
1000
,
0100
1001
1001
0000
,
1000
0000
0001
0010
0001
0000
1000
0010
,
1000
0001
0010
0100
1000
0000
0010
0000
,
0100
0001
0100
0000
0100
0010
0100
0000
,
0100
0001
0100
0000
0100
0010
0100
0000
,
0001
0100
0010
1000
,
0001
0010
0100
1000
0000
0001
0000
0000
,
0010
0001
0010
0000
0010
0100
0010
0000
,
0010
0001
0010
0000
0010
0100
0010
0000
,
0001
0100
0010
1000
,
0001
0010
0100
1000
0000
0000
0000
0000
,
0010
0100
0010
0000
0010
1000
0010
0000
,
0010
0100
0010
0000
0010
1000
0010
0000
,
1000
0100
0010
0001
,
1000
0010
0100
0001
0000
1000
0000
0000
,
0100
1000
0100
0000
0100
0010
0100
0000
,
0100
1000
0100
0000
0100
0010
0100
0000
,
1000
0000
0010
0000
0100
0000
0001
1000
,
0000
1000
0001
0000
0000
0000
0000
0000
,
1001
0000
1001
0000
0100
0010
0100
0000
,
0110
0110
1000
0001
,
0200
0001
0302
1000
,
1003
0000
0001
1000
0000
0000
0010
0000
,
1001
0000
1001
0000
0010
0100
0010
0000
,
0110
0110
0001
0100
,
0010
0000
1000
0001
0000
0000
0000
2000
,
0000
3001
0010
0000
1100
0000
0110
0000
,
1001
0000
1001
0000
0100
0010
0100
0000
,
0110
0110
0001
0010
,
0100
1100
0010
0011
,
0100
0110
0001
0101
,
1001
0000
1001
0000
0010
0100
0010
0000
,
0110
0000
0110
0000
1000
0001
1000
0000
,
0100
1000
0100
0000
1100
0000
0010
0000
,
0001
1000
0001
1000
0001
1000
0001
0000
,
0100
0001
0000
0001
1000
0000
1001
0000
,
0100
1000
0000
1000
0001
0000
0000
0000
,
0100
0001
0000
0001
1000
0000
1001
0000
,
0010
0000
0000
0010
0000
0000
0110
0000
,
1001
0000
0001
0000
1000
0100
1000
0000
,
0001
0000
0001
0000
1000
0010
1000
0000
,
0001
0000
0001
0000
1000
0100
1000
0000
,
0001
0000
0001
0000
1000
0010
1000
0000
,
0100
0010
0100
0000
1000
0010
1000
0000
,
0010
0100
0010
0000
1000
0100
1000
0000
,
0100
0010
0100
0000
1000
0010
1000
0000
,
0001
1000
0001
0000
1000
0010
0100
0000
,
0001
1000
0001
1000
0000
0010
0100
0001
;

//---------------dance-single - ----------------
#NOTEDATA:;
#CHARTNAME:;
#STEPSTYPE:dance-single;
#DESCRIPTION:;
#CHARTSTYLE:;
#DIFFICULTY:Hard;
#METER:15;
#RADARVALUES:0.844571,1.073973,0.721501,0.096918,0.263832,549.000000,482.000000,67.000000,9.000000,0.000000,0.000000,0.000000,0.000000,0.000000,0.844571,1.073973,0.721501,0.096918,0.263832,549.000000,482.000000,67.000000,9.000000,0.000000,0.000000,0.000000,0.000000,0.000000;
#CREDIT:;
#NOTES:
// measure 0
0000
0000
0000
0000
,  // measure 1
0000
0000
0000
0000
,  // measure 2
0000
0000
0000
0000
,  // measure 3
0000
0000
0000
0000
,  // measure 4
0000
0000
0000
0000
,  // measure 5
1000
0100
1000
0001
1000
1000
0001
0001
,  // measure 6
1000
0010
1000
0001
1000
1000
0001
0001
,  // measure 7
0010
0100
0010
0001
1000
1000
0001
0001
,  // measure 8
0100
0010
0100
0001
1000
1000
0001
0001
,  // measure 9
1000
0100
0001
0100
1000
1000
0001
0001
,  // measure 10
1000
0010
0001
0010
1000
1000
0001
0001
,  // measure 11
0100
1000
0100
0001
0010
0010
0100
0100
,  // measure 12
1001
0000
0100
0101
0000
1000
1100
0000
,  // measure 13
1001
0010
0100
1000
0000
0000
0000
0000
,  // measure 14
1001
0100
0010
0001
0000
0000
0000
0000
,  // measure 15
1001
0010
0100
1000
0000
0000
0000
0000
,  // measure 16
1001
0100
0010
0001
0000
0000
1000
0000
,  // measure 17
1001
1100
0101
0001
,  // measure 18
1001
0101
1100
0000
,  // measure 19
1001
0010
0100
1000
0000
0000
0000
0000
,  // measure 20
1001
0000
0100
0000
0010
0000
0001
0000
0000
0000
1000
0001
1000
0001
1000
0000
,  // measure 21
0001
0001
1000
1000
0001
0100
1000
0100
,  // measure 22
0010
1000
1001
0000
0001
1000
0010
0000
,  // measure 23
1000
1000
0001
0001
1000
0010
0100
1000
,  // measure 24
0100
0001
0000
1100
0000
0010
0001
1000
,  // measure 25
1001
0000
0101
0000
1100
0000
0010
0001
,  // measure 26
1001
1100
0101
0000
,  // measure 27
0001
0001
1000
1000
0001
0100
1000
0100
,  // measure 28
0010
1000
0001
0001
0010
0010
0100
0100
,  // measure 29
1000
0001
1000
0000
0100
0000
0000
0000
0010
0001
0010
0000
0100
0000
1000
0000
,  // measure 30
0001
1000
0001
0000
0100
0001
0100
0000
0001
1000
0001
0000
1000
0000
0010
0000
,  // measure 31
1000
0100
0010
0002
0000
0103
0000
0001
,  // measure 32
1000
0100
0010
0002
0000
0103
0000
0000
,  // measure 33
0010
0100
0010
0000
1000
0000
0000
0000
0100
1000
0100
0000
1000
0001
1000
0000
,  // measure 34
0001
0010
0001
0000
0100
0000
0010
0000
1000
0001
1000
0001
1000
0000
0000
0000
,  // measure 35
0001
0100
0001
2000
0000
3100
0000
1000
,  // measure 36
0001
0000
0010
0000
0100
0000
1000
0000
0001
0100
0001
0000
1000
0001
1000
0000
,  // measure 37
0001
0010
0001
0000
1000
0000
0000
0000
0010
1000
0010
0000
1000
0001
1000
0000
,  // measure 38
0001
0010
0001
0000
0100
0000
0010
0000
1000
0001
1000
0001
1000
0000
0010
0000
,  // measure 39
1000
0100
0010
0002
0000
0103
0000
0001
,  // measure 40
1000
0010
0100
0002
0000
1003
0000
0001
,  // measure 41
0100
0010
0100
0000
0001
0000
1000
0000
0001
1000
0001
1000
0001
0000
0000
0000
,  // measure 42
0010
0100
0010
0000
0001
0000
1000
0000
0001
1000
0001
1000
0001
0000
0100
0000
,  // measure 43
0001
0010
0100
1000
0001
0100
0001
1001
,  // measure 44
0000
1000
1001
0000
0000
0000
0010
0000
,  // measure 45
0110
0000
0000
0000
1000
0001
1000
0000
0100
0000
0010
0000
0001
0000
0100
0000
,  // measure 46
0110
0000
0000
0000
0001
1000
0001
0000
0010
0000
0100
0000
1000
0000
0010
0000
,  // measure 47
0110
0000
0000
0000
1000
0001
1000
0000
0100
0000
0010
0000
0100
0000
1000
0000
,  // measure 48
0001
0100
1000
0100
0000
0000
0010
0000
,  // measure 49
0110
0000
0000
0000
1000
0001
1000
0000
0010
0000
0100
0000
0001
0000
0010
0000
,  // measure 50
0110
0000
0000
0000
0001
1000
0001
0000
0100
0000
0010
0000
1000
0000
0100
0000
,  // measure 51
0010
0000
0001
0100
0010
0100
0001
2000
,  // measure 52
0000
0100
3100
0000
0011
0000
1100
0000
,  // measure 53
0110
1001
1100
0110
,  // measure 54
0011
1001
0101
0110
,  // measure 55
1010
0101
1010
0101
,  // measure 56
1001
0010
0100
1000
0000
0001
0101
0000
,  // measure 57
0110
1001
1100
0110
,  // measure 58
0011
1001
0101
0110
,  // measure 59
1010
0101
1010
0101
,  // measure 60
1001
1000
0001
0001
0010
0100
1000
0010
,  // measure 61
0200
0001
0000
0310
1000
0000
1001
0000
,  // measure 62
0020
1000
0000
0130
0001
0000
0000
0000
,  // measure 63
0200
0001
0000
0310
1000
0000
1001
0000
,  // measure 64
0101
0000
0010
0110
0000
1000
1010
0000
,  // measure 65
1001
0000
0001
0000
1000
0000
1000
0000
0001
0100
0001
0000
0010
0000
0100
0000
,  // measure 66
1000
0000
1000
0000
0001
0000
0001
0000
1000
0010
1000
0000
0100
0000
0010
0000
,  // measure 67
0001
0000
0001
0000
0100
0000
0100
0000
0001
1000
0100
0000
0001
0000
0100
0000
,  // measure 68
1000
0000
1000
0000
0010
0000
0010
0000
1000
0001
0010
0000
1000
0000
0010
0000
,  // measure 69
0001
0000
0001
0000
0100
0000
0100
0000
0001
1000
0100
0000
1000
0100
1000
0000
,  // measure 70
0001
0000
0001
0000
0010
0000
0010
0000
0001
1000
0010
0000
1000
0010
1000
0000
,  // measure 71
0100
0010
0100
0000
0010
0100
0010
0000
0001
1000
0010
0000
1000
0010
1000
0000
,  // measure 72
0010
0100
0010
0100
0001
1000
0001
0000
1000
0100
0010
0001
1000
0000
0000
0000
,  // measure 73
0100
0100
0100
1100
0000
0100
0100
1001
;

//---------------dance-single - ----------------
#NOTEDATA:;
#CHARTNAME:;
#STEPSTYPE:dance-single;
#DESCRIPTION:;
#CHARTSTYLE:;
#DIFFICULTY:Beginner;
#METER:2;
#RADARVALUES:0.130762,0.238661,0.204605,0.000000,0.000000,85.000000,66.000000,19.000000,0.000000,0.000000,0.000000,0.000000,0.000000,0.000000,0.130762,0.238661,0.204605,0.000000,0.000000,85.000000,66.000000,19.000000,0.000000,0.000000,0.000000,0.000000,0.000000,0.000000;
#CREDIT:;
#NOTES:
0000
0000
0000
0000
,
0000
0000
0000
0000
,
0000
0000
0000
0000
,
0000
0000
0000
0000
,
0000
0000
0000
0000
,
1000
0000
0000
0000
,
0001
0000
0000
0000
,
1000
0000
0000
0000
,
0001
0000
0000
0000
,
0010
0000
0000
0000
,
0100
0000
0000
0000
,
0010
0000
0000
0000
,
0100
0000
0000
0000
,
1001
0000
0000
0000
,
1001
0000
0000
0000
,
1001
0000
0000
0000
,
1001
0000
0000
0000
,
1001
0000
0000
0000
,
1001
0000
0000
0000
,
1001
0000
0000
0000
,
1001
0000
0000
0000
,
1000
0000
0000
0000
,
0010
0000
0000
0000
,
0100
0000
0000
0000
,
0001
0000
0000
0000
,
1000
0000
0000
0000
,
0001
0000
0000
0000
,
0010
0000
0000
0000
,
0001
0000
0000
0000
,
0100
0000
0000
0000
,
0010
0000
0000
0000
,
1000
0000
0000
0000
,
0001
0000
0000
0000
,
1000
0000
0000
0000
,
0100
0000
0000
0000
,
0010
0000
0000
0000
,
0010
0000
0000
0000
,
0100
0000
0000
0000
,
1000
0000
0000
0000
,
0001
0000
0000
0000
,
0001
0000
0000
0000
,
0100
0000
0000
0000
,
0010
0000
0000
0000
,
1000
0000
0000
0000
,
0000
0000
0000
0000
,
0000
1001
0000
0000
,
0000
1001
0000
0000
,
0000
1001
0000
0000
,
0000
0000
0000
0000
,
0000
1001
0000
0000
,
0000
1001
0000
0000
,
0000
0000
0000
0000
,
0000
0000
0000
0000
,
0000
1001
0000
0000
,
0000
1001
0000
0000
,
0001
0000
0000
0000
,
1000
0000
0000
0000
,
0000
1001
0000
0000
,
0000
1001
0000
0000
,
1000
0000
0000
0000
,
0001
0000
0000
0000
,
0100
0000
0000
0000
,
0100
0000
0000
0000
,
0010
0000
0000
0000
,
0110
0000
0000
0000
,
1000
0000
0000
0000
,
0100
0000
0000
0000
,
0010
0000
0000
0000
,
0001
0000
0000
0000
,
1000
0000
0000
0000
,
0010
0000
0000
0000
,
0100
0000
0000
0000
,
0001
0000
0000
0000
,
1001
0000
0000
0000
0000
0000
0000
1000
;
