#VERSION:0.83;
#TITLE:超恋愛☆エクストリーム・ガール;
#SUBTITLE:;
#ARTIST:Music by Ayatsugu_Otowa, Vocal by みゅい;
#TITLETRANSLIT:CHOURENAI☆EXTREME GIRL;
#SUBTITLETRANSLIT:;
#ARTISTTRANSLIT:Music by Ayatsugu_Otowa, Vocal by MYUI;
#GENRE:;
#ORIGIN:;
#CREDIT:DigiMindAxel;
#BANNER:CHOURENAI EXTREME GIRL.png;
#BACKGROUND:CHOURENAI EXTREME GIRL-bg.png;
#PREVIEWVID:;
#JACKET:CHOURENAI EXTREME GIRL-jacket.png;
#CDIMAGE:;
#DISCIMAGE:;
#LYRICSPATH:CHOURENAI EXTREME GIRL.lrc;
#CDTITLE:SOUND VOLTEX.png;
#MUSIC:CHOURENAI EXTREME GIRL.ogg;
#OFFSET:-1.065000;
#SAMPLESTART:31.654003;
#SAMPLELENGTH:12.000000;
#SELECTABLE:YES;
#BPMS:0.000=196.000;
#STOPS:;
#DELAYS:;
#WARPS:;
#TIMESIGNATURES:0.000=4=4;
#TICKCOUNTS:0.000=4;
#COMBOS:0.000=1;
#SPEEDS:0.000=1.000=0.000=0;
#SCROLLS:0.000=1.000;
#FAKES:;
#LABELS:0.000=Song Start;
#BGCHANGES:;
#KEYSOUNDS:;
#ATTACKS:
;

//---------------dance-single - ----------------
#NOTEDATA:;
#CHARTNAME:;
#STEPSTYPE:dance-single;
#DESCRIPTION:;
#CHARTSTYLE:;
#DIFFICULTY:Easy;
#METER:7;
#RADARVALUES:0.302452,0.372548,0.254423,0.081779,0.000000,233.000000,205.000000,28.000000,9.000000,0.000000,0.000000,0.000000,0.000000,0.000000,0.302452,0.372548,0.254423,0.081779,0.000000,233.000000,205.000000,28.000000,9.000000,0.000000,0.000000,0.000000,0.000000,0.000000;
#CREDIT:;
#NOTES:
0000
0000
0000
0000
,
0000
0000
0000
0000
,
0000
0000
0000
0000
,
0000
0000
0000
0000
,
0000
0000
0000
0000
,
0000
0000
0000
0000
,
0000
0000
0000
0000
,
0000
0000
0000
0000
,
0000
0000
0000
0000
,
1000
0100
0010
0100
,
1000
0000
0000
0001
0000
0000
0000
0000
,
0100
0110
0000
0110
,
0000
1001
0000
0000
0000
1001
0000
0000
,
0001
0100
0010
0100
,
0001
0000
0000
1000
0000
0000
0000
0000
,
0010
0110
0000
0110
,
0220
0000
0000
0330
,
0002
0000
1003
0000
,
0010
0100
0010
0000
,
2000
0000
3001
0000
,
0010
0001
0010
0000
,
0002
0000
1003
0000
,
0010
1000
0010
0000
,
2000
0000
3002
0000
,
1003
0100
0010
0000
,
0001
1000
0010
1000
,
0001
0010
0001
1000
,
0000
0110
0000
1001
,
0001
0010
0100
1000
,
0001
1000
0100
1000
,
0001
1000
0100
1000
,
0000
0110
0000
1001
,
1000
0100
0010
0001
,
1000
0001
0010
0001
,
1000
0001
0010
0001
,
0000
1000
0000
1000
0000
1000
0000
1001
,
0000
0010
0000
0100
0000
1000
0000
0000
,
0010
1000
0100
0010
,
0100
1000
0001
0100
,
0000
0110
0000
1001
,
0000
0110
0000
1001
,
1000
0001
1000
0100
,
0010
0000
0001
1000
,
0001
0010
0100
1000
,
0010
0100
0010
1000
,
0100
0010
0001
1000
,
0100
0000
1000
0100
,
1000
0001
0100
0010
,
0100
0100
0100
0000
,
0110
0001
1000
0000
,
0000
0000
0000
0000
,
0110
1000
0001
0000
,
0000
0000
0000
0000
,
0110
0001
1000
0000
,
0000
0000
0000
0000
,
1001
0000
0110
0000
,
1001
0000
1001
0000
,
0010
0000
0000
0000
,
0000
0000
0000
0000
,
0010
0000
0000
0000
,
0000
0000
0000
0000
,
0010
0000
0000
0000
,
0010
0000
0000
0000
,
0010
0000
0010
0000
,
0010
0010
0010
0010
,
1000
0100
0010
0001
,
1000
0100
1000
0001
,
0000
1001
0000
0001
0000
0001
0000
0001
,
0000
0010
0000
0100
0000
1000
0000
0000
,
0010
1000
0100
0010
,
0100
1000
0001
0100
,
0001
1001
0000
0110
,
0000
0000
0000
1001
,
0001
0000
0001
0000
0000
1000
0000
0100
,
0000
1000
0000
0000
0010
0000
0100
0000
,
0001
1000
0010
1000
,
0000
0001
0000
0010
0000
0001
0000
0000
,
1000
0000
1000
0000
0000
0001
0000
0100
,
0000
0001
0000
0000
1000
0000
0100
0000
,
0010
0001
0100
0010
,
0100
0001
1000
0001
,
2002
0000
0000
0000
,
3003
0000
0000
0000
;

//---------------dance-single - ----------------
#NOTEDATA:;
#CHARTNAME:;
#STEPSTYPE:dance-single;
#DESCRIPTION:;
#CHARTSTYLE:;
#DIFFICULTY:Medium;
#METER:11;
#RADARVALUES:0.497163,0.596076,0.726922,0.145384,0.000000,383.000000,303.000000,80.000000,16.000000,0.000000,0.000000,0.000000,0.000000,0.000000,0.497163,0.596076,0.726922,0.145384,0.000000,383.000000,303.000000,80.000000,16.000000,0.000000,0.000000,0.000000,0.000000,0.000000;
#CREDIT:;
#NOTES:
0000
0000
0000
0000
,
0000
0000
0000
0000
,
0000
0000
0000
0000
,
0000
0000
0000
0000
,
0000
0000
0000
0000
,
0000
0000
0000
0000
,
0000
0000
0000
0000
,
0000
0000
0000
0000
,
0000
0000
0000
0000
,
0002
0000
2003
0000
3200
0000
1300
0001
,
0100
0001
0000
0001
0000
0001
0010
0100
,
0000
1000
0010
0100
0000
0010
1000
0100
,
1000
0001
1000
0001
0000
1001
0000
0000
,
2000
0000
3002
0000
0023
0000
0031
1000
,
0010
1000
0000
1000
0000
1000
0100
0010
,
0100
1100
0010
0110
,
1002
1000
1000
1003
,
1010
1010
1010
0000
,
0200
0000
0310
0100
,
0101
0101
0101
0000
,
0020
0000
0130
0010
,
1100
1100
1100
0000
,
0200
0000
0310
0100
,
0011
0000
1100
0000
,
1001
0000
0000
1001
0000
0000
0000
0000
,
1001
0000
1000
0100
1000
0000
0010
0100
,
0000
0001
0000
0001
0000
0100
0010
1000
,
0000
0100
1000
0100
0000
0010
0100
0010
,
0000
1001
0000
1001
0000
0110
0000
0000
,
1001
0000
0001
0100
0001
0000
0010
0100
,
0000
1000
0000
1000
0000
0010
0100
0001
,
0000
0010
0001
0010
0001
0100
0010
0000
,
1010
1010
0110
0110
,
1001
0000
1000
0100
1000
0000
0010
0100
,
0000
0001
0100
0001
0000
1000
0100
0010
,
0000
0001
0000
0001
0000
0100
0000
0100
,
0010
1000
0000
1001
0000
0010
0100
0010
,
1000
0000
0001
0100
0001
0000
0100
0010
,
0000
1000
0010
1000
0000
0100
0010
0001
,
1000
1001
0001
0101
,
0010
0120
0100
0130
,
1001
0000
1001
0000
1001
0000
0001
1000
,
0000
0010
0000
0100
0001
0000
1001
0000
,
0100
1100
0010
0011
,
0000
0110
0000
0100
0000
0110
0000
0000
,
1001
0000
1001
0000
1001
0000
1000
0001
,
0000
0100
0000
0010
1000
0000
1001
0000
,
0100
0101
0010
1010
,
0010
0100
0010
0100
0010
0000
0110
0000
,
1100
1100
1100
0000
,
0000
0000
0000
0000
,
0101
0101
0101
0000
,
0000
0000
0000
0000
,
1010
1010
1010
0000
,
0000
0000
0000
0000
,
0101
0000
0110
0000
,
1001
0000
0000
1001
0000
0000
0000
0000
,
0200
1000
0000
1000
,
0000
1000
0000
1300
,
0000
0010
0000
0010
0000
0010
0000
0010
,
0000
0100
0000
0100
,
0002
1000
0000
1003
,
0001
0010
0100
1000
,
0001
1000
0001
1000
0001
1000
0001
0000
,
1001
0000
0000
1001
0000
0000
0000
0000
,
1001
0000
0001
0100
0001
1000
0100
1000
,
0000
0010
0100
0010
0000
1000
0010
0100
,
0000
0001
0000
0001
0000
1000
0000
1010
,
0000
0010
0000
0110
0000
0000
1001
0000
,
1001
0000
1000
0100
1000
0001
0100
0001
,
0000
0100
0010
0100
0000
0001
0100
0010
,
1000
1001
0001
0101
,
0010
0120
0100
0130
,
1001
0000
0100
0000
1010
0000
0100
0010
,
0000
1000
0000
0010
0100
0000
0110
0000
,
1001
0000
0010
0000
0101
0000
0100
0001
,
0000
1000
0000
0100
0010
0000
0110
0000
,
0011
0000
0001
0010
0100
0000
1000
0001
,
0000
0010
0000
0100
0010
0000
0110
0000
,
1100
0000
1000
0100
0010
0000
0110
0000
,
0001
0100
0010
1000
0010
0100
0001
0000
,
2002
0000
0000
0000
,
3003
0000
0000
0000
;

//---------------dance-single - ----------------
#NOTEDATA:;
#CHARTNAME:;
#STEPSTYPE:dance-single;
#DESCRIPTION:;
#CHARTSTYLE:;
#DIFFICULTY:Hard;
#METER:13;
#RADARVALUES:0.597115,0.745096,0.617884,0.172644,0.109038,460.000000,392.000000,68.000000,19.000000,0.000000,0.000000,0.000000,0.000000,0.000000,0.597115,0.745096,0.617884,0.172644,0.109038,460.000000,392.000000,68.000000,19.000000,0.000000,0.000000,0.000000,0.000000,0.000000;
#CREDIT:;
#NOTES:
0000
0000
0000
0000
,
0000
0000
0000
0000
,
0000
0000
0000
0000
,
0000
0000
0000
0000
,
0000
0000
0000
0000
,
0000
0000
0000
0000
,
0000
0000
0000
0000
,
0000
0000
0000
0000
,
0000
0000
0000
0000
,
1000
0000
0100
0000
0010
0000
0001
1000
,
0010
1000
0000
1000
0000
0100
0010
0001
,
0000
0001
0100
0001
0000
0001
1000
0001
,
1000
0100
0010
0001
0000
1000
1001
0000
,
0001
0000
0100
0000
0010
0000
1000
0001
,
0010
0001
0000
0001
0000
0010
0100
1000
,
0001
0100
0001
1000
0100
1000
0001
0000
,
1000
0100
0010
0001
0010
0100
1000
0000
,
1001
0100
1001
0000
,
1000
0001
1000
0001
,
1001
0010
1001
0000
,
0001
1000
0001
1000
,
1001
0100
1001
0000
,
0001
1000
0001
1000
,
1100
0001
1100
0001
,
0100
0000
0000
0100
0000
0000
0100
0000
1001
0000
0000
0000
0000
0000
0000
0000
,
1001
0000
1000
0100
0010
0100
1000
0001
,
0100
0001
0100
0020
0000
1000
1030
0001
,
0000
1001
1000
1100
,
1000
0001
0010
0100
1000
0001
0010
0100
,
0000
1000
0001
0100
0001
0010
0100
0010
,
0001
1000
0010
0200
0000
0001
0301
1000
,
0100
1000
0100
1000
0100
0000
0000
0000
0010
0100
0010
0100
0010
0000
0000
0000
,
1001
0000
0000
1001
0000
0000
1001
0000
0000
0000
0000
0000
0000
0000
1001
0000
,
1000
0100
1000
0100
1000
0001
0100
0010
,
0100
0001
1000
0200
0000
0010
0310
0100
,
0000
1100
0000
0100
0000
0110
0000
0011
,
0000
0011
0000
1010
0000
0100
0001
1000
,
0000
0100
0010
0100
1000
0001
0100
0001
,
1000
0100
0010
0002
0000
0100
0103
0010
,
1000
0100
1000
0100
1000
0000
0000
0000
0100
0010
0100
0010
0100
0000
0000
0000
,
1000
0010
0100
0000
0010
0010
0010
0000
,
0120
0000
0100
0000
0100
0000
0130
0002
,
0000
1000
0000
1003
0001
0010
0100
0000
,
2001
3100
1002
0103
,
0000
1001
0000
1001
0000
1001
0000
1000
,
0200
0000
0010
0000
0010
0000
0310
0002
,
0000
1000
0000
1003
0000
0001
0001
0000
,
0100
0001
0100
0001
0100
0000
0000
0000
0010
0100
0010
0100
0010
0000
0000
0000
,
1000
1000
0001
0001
1000
0000
1001
0000
,
0011
1100
0011
0000
,
0001
1000
0001
1000
,
1010
0101
1010
0000
,
1000
0001
1000
0001
,
1001
0110
1001
0000
,
0100
0010
0100
0010
,
0110
1001
0110
0000
,
0100
0000
0000
0100
0000
0000
0100
0000
1001
0000
0000
0000
0000
0000
0000
0000
,
2001
0000
0100
0000
0000
0100
3100
0000
,
0020
0000
0001
0000
0000
0001
0001
0031
,
0000
1000
0000
0001
0000
1000
0000
0001
,
0010
0100
2000
0000
0000
0001
3001
0000
,
0000
0100
0100
0100
0000
0010
0000
0010
,
1000
0001
1000
0001
,
1000
0001
0010
0100
1000
0100
0010
0001
,
1001
0000
0000
1001
0000
0000
2002
0000
0000
0000
0000
0000
3003
0000
0000
0000
,
1001
0000
0001
0100
0001
0100
0001
1000
,
0100
0010
0100
2000
0000
0001
3001
0100
,
0000
0101
0000
0100
0000
0110
0000
1010
,
0000
1010
0000
1001
0000
1000
0001
0010
,
0000
0001
0010
0100
0010
0001
0000
1001
,
0000
1000
0001
0200
0000
0001
0301
1000
,
0100
1000
0100
1000
0100
0000
0000
0000
0010
0100
0010
0100
0010
0000
0000
0000
,
0001
1000
0100
0010
0001
0010
0100
0000
,
1001
0000
1001
0000
0000
1100
0000
1100
,
0000
0100
1000
0001
0100
0010
0100
0001
,
0010
0011
0010
0110
,
0000
1100
0000
1001
0000
0000
0110
0000
,
1001
0000
1001
0000
0000
0101
0000
0101
,
0000
0100
0001
1000
0100
0010
0100
1000
,
0001
0100
0001
0100
0001
0000
0000
0000
1000
0100
1000
0100
1000
0000
0000
0000
,
0001
0010
0100
1000
0100
0010
0011
0000
,
2002
0000
0000
0000
,
3003
0000
0000
0000
;

//---------------dance-single - ----------------
#NOTEDATA:;
#CHARTNAME:;
#STEPSTYPE:dance-single;
#DESCRIPTION:;
#CHARTSTYLE:;
#DIFFICULTY:Beginner;
#METER:3;
#RADARVALUES:0.163558,0.294404,0.199904,0.000000,0.000000,126.000000,104.000000,22.000000,0.000000,0.000000,0.000000,0.000000,0.000000,0.000000,0.163558,0.294404,0.199904,0.000000,0.000000,126.000000,104.000000,22.000000,0.000000,0.000000,0.000000,0.000000,0.000000,0.000000;
#CREDIT:;
#NOTES:
0000
0000
0000
0000
,
0000
0000
0000
0000
,
0000
0000
0000
0000
,
0000
0000
0000
0000
,
0000
0000
0000
0000
,
0000
0000
0000
0000
,
0000
0000
0000
0000
,
0000
0000
0000
0000
,
0000
0000
0000
0000
,
0001
0000
0000
0000
0001
0000
0000
1000
,
0000
0000
0000
0000
,
0000
0100
0000
0010
,
0000
0110
0000
0000
,
0001
0000
0000
0000
0001
0000
0000
1000
,
0000
0000
0000
0000
,
0010
0000
0010
0000
,
0110
0000
0000
0000
,
1001
0000
0000
0000
,
0000
0000
0000
0000
,
0110
0000
0000
0000
,
0000
0000
0000
0000
,
1001
0000
0000
0000
,
0000
0000
0000
0000
,
0010
0000
0110
0000
,
0110
0000
0000
0000
,
1001
0000
1000
0000
,
0001
0000
1000
0000
,
0100
0000
1000
0000
,
0010
0000
0100
0000
,
0001
0000
0100
0000
,
0001
0000
1000
0000
,
0001
0000
0001
0000
,
1001
0000
0000
0000
,
0010
0000
0100
0000
,
0010
0000
0100
0000
,
1000
0000
0001
0000
,
1000
0000
0000
0000
,
0001
0000
1000
0000
,
0001
0000
1000
0000
,
0010
0000
0100
0000
,
0010
0000
0000
0000
,
0110
0000
0000
0000
,
0000
0000
0000
0100
,
0000
0010
0000
0100
,
0000
0100
0000
0000
0000
0000
0000
0000
,
0110
0000
0000
0000
,
0000
0000
0010
0000
,
0100
0000
0010
0000
,
0100
0000
0000
0000
,
0110
0000
0000
0000
,
0000
0000
0000
0000
,
1001
0000
0000
0000
,
0000
0000
0000
0000
,
0110
0000
0000
0000
,
0000
0000
0000
0000
,
1001
0000
1000
0000
,
1001
0000
0000
0000
,
0001
0000
0000
0000
,
0000
0000
0000
0000
,
0010
0000
0000
0000
,
0000
0000
0000
0000
,
0100
0000
0000
0000
,
1000
0000
0001
0000
,
1000
0000
0001
0000
,
1001
0000
0000
0000
,
0100
0000
0100
0000
,
1000
0000
0100
0000
,
1000
0000
0001
0000
,
0100
0000
0100
0000
,
0001
0000
0010
0000
,
0100
0000
0010
0000
,
0100
0000
0100
0000
,
1000
0000
0001
0000
,
1001
0000
1000
0000
,
0001
0000
1000
0000
,
0100
0000
0010
0000
,
0001
0000
1000
0000
,
1001
0000
0001
0000
,
0010
0000
0100
0000
,
1000
0000
1000
0000
,
1001
0000
1001
0000
,
1001
0000
0000
0000
;

//---------------dance-single - ----------------
#NOTEDATA:;
#CHARTNAME:;
#STEPSTYPE:dance-single;
#DESCRIPTION:;
#CHARTSTYLE:;
#DIFFICULTY:Challenge;
#METER:15;
#RADARVALUES:0.767163,1.005879,1.217595,0.299856,0.172644,591.000000,457.000000,134.000000,33.000000,0.000000,0.000000,0.000000,0.000000,0.000000,0.767163,1.005879,1.217595,0.299856,0.172644,591.000000,457.000000,134.000000,33.000000,0.000000,0.000000,0.000000,0.000000,0.000000;
#CREDIT:;
#NOTES:
// measure 0
0000
0000
0000
0000
,  // measure 1
0000
0000
0000
0000
,  // measure 2
0000
0000
0000
0000
,  // measure 3
0000
0000
0000
0000
,  // measure 4
0000
0000
0000
0000
,  // measure 5
0000
0000
0000
0000
,  // measure 6
0000
0000
0000
0000
,  // measure 7
0000
0000
0000
0000
,  // measure 8
0000
0000
0000
0000
,  // measure 9
0001
0100
0001
0100
0010
1000
0010
1002
,  // measure 10
0000
0010
0000
0010
0000
0013
0100
1000
,  // measure 11
0000
0001
1100
0001
0000
1000
0101
1000
,  // measure 12
0010
0110
0100
0110
0000
1001
1001
0000
,  // measure 13
1000
0100
1000
0100
0010
0001
0010
2001
,  // measure 14
0000
0010
0000
0010
0000
3010
0100
0001
,  // measure 15
1000
0100
1000
0100
1000
0000
0000
0000
0001
0010
0001
0010
0001
0000
0000
0000
,  // measure 16
2001
3200
0320
0031
,  // measure 17
1001
1001
1001
0120
,  // measure 18
2000
0000
0000
3030
0000
1001
1001
0000
,  // measure 19
0110
0110
0110
1002
,  // measure 20
0200
0000
0000
0303
0000
0110
0110
0000
,  // measure 21
1001
1001
1001
0210
,  // measure 22
0002
0000
0000
0000
0000
0000
0303
0000
0000
0000
1000
0001
1000
0000
0000
0000
,  // measure 23
1100
0101
1100
0101
,  // measure 24
1100
0000
0000
0110
0000
0000
0011
0000
2002
0000
0000
0000
0000
0000
3003
0000
,  // measure 25
1000
0100
0001
0100
1000
0100
1000
1001
,  // measure 26
0000
0010
0100
0002
0000
0103
0110
0110
,  // measure 27
0000
0001
1100
0001
0010
0001
1100
0001
,  // measure 28
0000
0110
0100
0101
0001
1001
1000
1100
,  // measure 29
0000
0001
0010
1000
0010
0001
0100
0101
,  // measure 30
0000
1000
0100
0020
0000
0130
0110
0110
,  // measure 31
1000
0010
1000
0010
1000
0000
0000
0000
0001
0100
0001
0100
0001
0000
0000
0000
,  // measure 32
0011
0000
0000
0110
0000
0000
2100
0000
0000
0000
3100
0000
0010
0000
0001
0000
,  // measure 33
0010
1000
0010
0001
0010
0001
1000
1001
,  // measure 34
0000
0010
0100
0002
0000
0103
0110
0110
,  // measure 35
0000
1000
0100
0001
0100
1000
0100
0101
,  // measure 36
0001
1001
1000
1100
0100
0110
0010
0011
,  // measure 37
0000
0001
1000
0010
0001
0010
1000
1001
,  // measure 38
0000
0010
0100
0002
0000
0103
0110
0110
,  // measure 39
0001
0010
0001
0010
0001
0000
0000
0000
1000
0100
1000
0100
1000
0000
0001
0000
,  // measure 40
1000
0100
0010
0001
1000
1001
1001
0000
,  // measure 41
1100
0000
1100
0000
1100
0000
1100
1001
,  // measure 42
0000
1001
0000
1001
0001
0100
0110
0000
,  // measure 43
1000
0100
1100
0000
0010
0100
0110
0000
,  // measure 44
0000
1001
0000
0101
0000
1010
0010
1001
,  // measure 45
0002
0000
1000
0000
1000
0000
1003
1001
,  // measure 46
0000
0001
0000
0001
1000
0001
0010
0100
,  // measure 47
1000
0001
1000
0001
1000
0000
0000
0000
0100
0010
0100
0010
0100
0000
1000
0000
,  // measure 48
0010
0010
0010
0010
0110
0000
0110
0000
,  // measure 49
1001
1001
1002
0100
,  // measure 50
0000
0000
0103
0000
0000
0110
0110
0000
,  // measure 51
1001
1001
2001
0010
,  // measure 52
0000
0000
3010
0000
0000
0010
0100
0010
,  // measure 53
1001
1001
2001
0100
,  // measure 54
0000
0000
0000
0000
3100
0000
0000
0000
0000
0000
0010
0100
0010
0000
0000
0000
,  // measure 55
2002
0000
0000
0000
3003
0000
1000
0001
0200
0000
0000
0000
0300
0000
0010
0000
,  // measure 56
1010
0000
0000
0110
0000
0000
0101
0000
2002
0000
0000
0000
3003
0000
0000
0000
,  // measure 57
1100
0000
0010
0000
0001
0001
1000
0000
,  // measure 58
0100
0000
0010
0000
0001
1000
1000
1000
,  // measure 59
0000
0010
0000
0010
0000
0010
0000
0010
,  // measure 60
1000
0100
0010
0001
0010
0100
1000
0001
,  // measure 61
0000
0001
1000
0001
0000
0001
0010
0001
,  // measure 62
1000
0010
0100
0001
1000
0010
0100
0001
,  // measure 63
1000
0100
1000
0100
0010
0001
0010
0001
0100
0010
0100
0010
1000
0001
1000
0000
,  // measure 64
1010
0000
0000
0110
0000
0000
0101
0000
2002
0000
0000
0000
3003
0000
0000
0000
,  // measure 65
0001
0010
1000
0010
0001
0100
0010
1010
,  // measure 66
0000
0100
0010
0002
0000
0103
0110
0110
,  // measure 67
0000
1000
0100
0001
0100
1000
0001
1001
,  // measure 68
1000
1100
0100
0110
0010
0011
0001
1001
,  // measure 69
0000
0001
0100
1000
0100
0001
1000
1001
,  // measure 70
0000
0100
0010
0002
0000
0103
0110
0110
,  // measure 71
1000
0010
1000
0010
1000
0000
0001
0000
0100
0010
0100
0010
0100
0000
0001
0000
,  // measure 72
1000
0100
0011
0100
1000
0110
0110
0000
,  // measure 73
1001
0100
1001
0000
0000
1001
0010
1001
,  // measure 74
0000
0010
0010
0100
0100
0010
1001
0010
,  // measure 75
0100
1000
0101
1000
0001
0010
1100
0000
,  // measure 76
0010
0110
0100
0101
0001
1001
1100
0000
,  // measure 77
1001
0100
1001
0000
0000
1001
0010
1001
,  // measure 78
0000
0100
0100
0010
0010
0100
1001
0100
,  // measure 79
0010
0001
0010
0001
0010
0000
0100
0000
1000
0010
1000
0010
1000
0000
0001
0000
,  // measure 80
0011
0010
0110
0100
1100
1000
1010
0000
,  // measure 81
2002
0000
0000
0000
,  // measure 82
3003
0000
0000
0000
;
