#TITLE:Burning Love;
#SUBTITLE:;
#ARTIST:阿部靖広 feat.Luca;
#TITLETRANSLIT:;
#SUBTITLETRANSLIT:;
#ARTISTTRANSLIT:YASUHIRO ABE feat.Luca;
#GENRE:;
#CREDIT:DigiMindAxel;
#BANNER:Burning Love.png;
#BACKGROUND:Burning Love-bg.png;
#LYRICSPATH:Burning Love.lrc;
#CDTITLE:pop'n music.png;
#MUSIC:Burning Love.ogg;
#OFFSET:-1.622000;
#SAMPLESTART:34.229153;
#SAMPLELENGTH:12.000000;
#SELECTABLE:YES;
#BPMS:0.000000=85.000000
,62.000000=170.000000
,95.000000=85.000000
,159.000000=170.000000
;
#STOPS:147.000000=1.058823
;
#BGCHANGES:;
#KEYSOUNDS:;
#ATTACKS:;

//---------------dance-single - ----------------
#NOTES:
     dance-single:
     :
     Easy:
     5:
     0.199325,0.239734,0.270599,0.008456,0.101475,165.000000,133.000000,32.000000,1.000000,0.000000,0.000000,0.199325,0.239734,0.270599,0.008456,0.101475,165.000000,133.000000,32.000000,1.000000,0.000000,0.000000:
// measure 0
0000
0000
0000
0000
,  // measure 1
0000
0000
0000
0000
,  // measure 2
0000
0000
0000
0000
,  // measure 3
0000
1001
0000
0000
0000
0000
0001
0000
0000
0000
0000
0100
0000
0100
0000
0000
,  // measure 4
0000
0000
0001
0000
0000
0000
0001
0000
0000
0000
0000
1000
0000
0000
0000
0100
,  // measure 5
0000
1001
0000
0000
0000
0000
1000
0000
0000
0000
0000
0100
0000
0100
0000
0000
,  // measure 6
0000
0000
1000
0000
0000
0000
1000
0000
0000
0000
0000
0001
0000
0000
0000
0010
,  // measure 7
0000
1001
0000
0000
0000
0110
0000
0000
,  // measure 8
0000
1001
0000
0000
0000
0000
0000
0000
,  // measure 9
0000
1001
0000
0001
0000
1000
0000
1000
,  // measure 10
0000
0000
1001
0000
0000
0000
0000
0000
0000
0000
0000
0010
0000
0100
0000
0010
,  // measure 11
0000
0100
0000
0000
0000
0000
0000
0000
1001
0000
0000
0000
0000
0000
1000
0000
,  // measure 12
0001
0000
0000
0001
0000
1001
0000
1000
,  // measure 13
0001
0000
0000
0001
0000
1001
0000
0001
,  // measure 14
1000
0000
0000
0100
0000
0110
0000
0000
,  // measure 15
0110
0000
0000
0000
0000
1000
0000
0000
,  // measure 16
0000
1000
0000
0001
,  // measure 17
0000
0001
0000
1000
,  // measure 18
0000
1000
0000
0001
,  // measure 19
0000
0001
0000
0100
,  // measure 20
0010
0100
0010
0100
,  // measure 21
0010
0000
1000
0000
0001
0000
0000
1001
,  // measure 22
0000
0000
1001
0000
0000
0110
0000
0000
,  // measure 23
0110
0000
0000
0000
0000
1001
0000
0000
,  // measure 24
0010
0010
0000
1000
,  // measure 25
1000
1000
0000
0001
,  // measure 26
0001
0001
0000
0100
,  // measure 27
0100
0000
0000
0000
0100
0000
0000
0000
0000
0000
0000
1001
0000
0000
0000
0000
,  // measure 28
1000
0010
0010
0100
,  // measure 29
0001
0000
0000
0000
0010
0000
0000
0000
0000
0000
0000
1001
0000
0000
0000
0000
,  // measure 30
0001
0000
0000
0100
0000
0010
0000
0100
0000
0000
0000
0000
0001
0000
0000
0000
,  // measure 31
0001
1000
0000
1001
,  // measure 32
0000
1001
0000
0010
,  // measure 33
0000
0000
0000
0110
,  // measure 34
0100
0100
0100
0110
,  // measure 35
0000
0000
0000
0000
0000
0001
0000
1000
0000
0001
0000
1000
0000
0000
0000
0000
,  // measure 36
0000
0000
0000
0000
0000
0000
0000
0000
0000
0000
0000
0000
1001
0000
0000
0000
0000
0000
0000
0000
0000
0000
0000
0000
0000
0000
0000
0000
0000
0000
0000
0000
1000
0000
0000
0000
0000
0000
0000
0000
0000
0000
0000
0000
0000
0000
0000
0000
0200
0300
0000
0000
0000
0000
0000
0000
1001
0000
0000
0000
0000
0000
0000
0000
,  // measure 37
0000
0001
0000
0010
0000
0000
0000
0001
,  // measure 38
0000
0100
0000
0010
0000
0100
0000
0110
,  // measure 39
0000
0000
0110
0000
0000
0000
0000
1001
,  // measure 40
0000
0000
1000
0000
,  // measure 41
0001
0000
1000
0000
,  // measure 42
0010
0000
0100
0000
,  // measure 43
0010
0000
0100
0000
,  // measure 44
0001
1000
0001
0100
,  // measure 45
0010
0100
0010
0100
,  // measure 46
0000
0110
0000
0000
0110
0000
0000
1001
,  // measure 47
0000
1001
0000
0000
;

//---------------dance-single - ----------------
#NOTES:
     dance-single:
     :
     Medium:
     10:
     0.390195,0.459490,0.482005,0.160668,0.329793,323.000000,266.000000,57.000000,19.000000,0.000000,0.000000,0.390195,0.459490,0.482005,0.160668,0.329793,323.000000,266.000000,57.000000,19.000000,0.000000,0.000000:
// measure 0
0000
0000
0000
0000
,  // measure 1
0000
0000
0000
0000
,  // measure 2
0000
0000
0000
0000
,  // measure 3
0000
1001
0000
1000
0001
0100
0010
0000
0000
0000
0000
1000
0000
1000
0000
0110
,  // measure 4
0000
0000
1001
0000
0001
0000
0100
0000
0000
0000
0000
1001
0000
0000
0000
0100
,  // measure 5
0000
1001
0000
0001
1000
0100
0010
0000
0000
0000
0000
0001
0000
0001
0000
0110
,  // measure 6
0000
0000
1001
0000
1000
0000
0100
0000
0000
0000
0000
1001
0000
0000
0000
0100
,  // measure 7
0000
2002
0000
0000
3003
0220
0000
0000
,  // measure 8
0330
0000
0010
0100
0010
0000
1010
0000
0000
0000
0100
0010
0100
0000
0001
0100
,  // measure 9
0010
1000
1000
1000
1000
1001
0001
0001
,  // measure 10
0001
0000
1001
0000
0000
0000
0010
0000
0000
0000
0000
1001
0000
0010
0000
0100
,  // measure 11
0000
0220
0000
0000
0000
0000
0000
0330
0000
1001
0000
0010
0100
0000
0010
0000
,  // measure 12
0001
0010
0100
0000
1000
0000
0010
0000
0100
0000
0001
0010
0100
0000
0010
0000
,  // measure 13
0001
0010
0100
0000
1000
0000
0001
0000
1000
0000
0100
0000
0010
0000
0001
0100
,  // measure 14
0001
0200
0000
0000
0000
0000
0010
0000
0310
0000
1001
0000
0000
1001
0000
0000
,  // measure 15
0110
0000
0000
0110
0000
0000
0000
0000
0000
0000
1001
0000
0000
0000
0100
0000
,  // measure 16
0010
0000
0001
0000
1000
0100
0010
0000
,  // measure 17
0001
0000
0100
0000
0010
0000
1000
0100
,  // measure 18
0010
0000
0001
0000
1000
0100
0010
0000
,  // measure 19
0001
0000
0100
0000
0010
0000
1000
0001
,  // measure 20
1000
0000
0001
0100
0001
0000
1000
0010
,  // measure 21
1000
0000
0100
0000
0010
0000
0000
1001
,  // measure 22
0000
0000
1001
0000
0000
0110
0000
0000
,  // measure 23
0110
0000
0000
0000
0000
0000
0000
0000
0000
0000
1001
0000
0000
1000
0001
0100
,  // measure 24
0010
0000
0000
0000
0000
1000
0000
0010
0000
1010
0000
0000
0200
0000
0000
0000
,  // measure 25
0310
0000
0000
0000
0000
1001
0000
0100
0010
0100
0000
1001
0000
1000
0001
0100
,  // measure 26
0010
0000
0000
0000
0000
1000
0000
0001
0000
0011
0000
0000
1001
0000
0000
0000
,  // measure 27
0100
0000
0000
0000
0000
1001
0000
0010
0100
0010
0000
1001
0000
0000
0010
0100
,  // measure 28
0001
0000
0010
0000
0100
1000
0001
0000
0100
0001
0100
0000
1001
0000
0000
0000
,  // measure 29
0010
0000
0000
0000
0000
1001
0000
0100
0010
0100
0000
1001
0000
0000
0100
1000
,  // measure 30
0001
0000
0000
0110
0000
0110
0000
0110
0000
2000
0000
0000
3001
0000
0100
0000
,  // measure 31
0001
0000
0000
0000
0000
1001
0000
0000
0000
1100
0000
0000
2002
0000
0000
0000
,  // measure 32
0000
3003
0220
0000
0000
0330
0010
0100
,  // measure 33
0010
0000
1000
0100
0010
0001
1001
1000
,  // measure 34
1000
1000
0001
0001
0001
0001
1001
0000
,  // measure 35
0100
0000
0000
0000
0000
0011
0000
0100
0000
1000
0000
2002
0000
0000
0000
0000
,  // measure 36
0000
0000
0000
0000
3003
0000
0000
0000
0000
0000
0000
0000
1001
0000
0000
0000
0000
0000
0000
0000
0100
0000
0000
0000
0010
0000
0000
0000
0000
0000
0000
0000
0001
0000
0000
0000
0000
0000
0000
0000
1000
0000
0000
0000
0100
0000
0000
0000
0020
0030
0000
0000
0000
0000
0000
0000
0001
0000
0000
0000
0010
0000
0000
0000
,  // measure 37
0100
0000
1000
0000
0001
0010
0100
0000
1000
0000
0010
0000
0100
0000
0001
1000
,  // measure 38
0100
0000
0010
0001
0010
0002
0000
0000
0000
0000
0103
0000
0100
0000
0110
0000
,  // measure 39
0000
0110
0000
0000
1001
0000
0000
2002
0000
0000
0000
3003
0000
0000
1001
0000
,  // measure 40
0000
0010
0100
0000
0010
0000
1000
0010
,  // measure 41
0100
0001
0010
0100
,  // measure 42
1000
0010
0100
0000
0010
0000
1000
0010
,  // measure 43
0100
0001
0010
0100
,  // measure 44
1000
0001
1000
0000
0001
0010
0001
0000
,  // measure 45
1000
0001
1000
0000
0100
1000
0100
0000
,  // measure 46
0000
1001
0000
0000
1001
0000
0000
0110
,  // measure 47
0000
0110
0000
0000
;

//---------------dance-single - ----------------
#NOTES:
     dance-single:
     :
     Hard:
     13:
     0.561735,0.639291,0.532743,0.397443,0.676498,465.000000,402.000000,63.000000,47.000000,0.000000,0.000000,0.561735,0.639291,0.532743,0.397443,0.676498,465.000000,402.000000,63.000000,47.000000,0.000000,0.000000:
// measure 0
0000
0000
0000
0000
,  // measure 1
0000
0000
0000
0000
,  // measure 2
0000
0000
0000
0000
,  // measure 3
0000
0000
1001
0000
0000
0000
0001
0000
1000
0100
0010
0001
0100
0000
0000
0000
0000
0000
0000
0000
0000
0000
0110
0000
0000
0000
0110
0000
0000
0000
0010
0100
,  // measure 4
0010
0000
0000
0000
1001
0000
0000
0001
0000
0000
0001
0000
0110
0000
0000
0000
0000
0000
0000
0000
0000
0000
1001
0000
0000
0000
0100
0000
1000
0000
0001
0000
,  // measure 5
0000
0000
1001
0000
0000
0000
1000
0000
0001
0010
0100
1000
0010
0000
0000
0000
0000
0000
0000
0000
0000
0000
0110
0000
0000
0000
0110
0000
0000
0000
0100
0010
,  // measure 6
0100
0000
0000
0000
1001
0000
0000
1000
0000
0000
1000
0000
0110
0000
0000
0000
0000
0000
0000
0000
0000
0000
1001
0000
0000
0000
0010
0000
0001
0000
1000
0000
,  // measure 7
0000
0000
0000
0000
1001
0000
0000
1001
0000
0000
0200
0000
0000
0000
0010
0000
0310
0000
0000
0000
1001
0000
0000
1001
0000
0000
0020
0000
0000
0000
0100
0000
,  // measure 8
0130
0000
0001
0010
1000
0010
0001
1000
0000
0000
0001
0100
1000
0100
0001
0010
,  // measure 9
0100
1000
0002
0000
1003
0010
0100
0010
1000
0000
0002
0000
1003
0100
0010
0100
,  // measure 10
1000
0000
1002
0000
0000
0103
0010
0000
0000
0100
0001
1001
0000
0101
0000
0110
,  // measure 11
0000
2020
0000
0000
0000
0000
0000
3030
0000
2001
0000
0001
3001
0000
0100
0000
,  // measure 12
0002
1000
1003
0001
0100
1000
0200
0000
0301
0000
2000
0001
3001
0000
0010
0000
,  // measure 13
0002
1000
1003
0001
0010
1000
0020
0000
0031
0000
1000
0010
0100
0002
0000
0013
,  // measure 14
0100
0000
2000
0000
0000
0000
0000
0000
0000
0000
0000
0000
3010
0000
0000
0000
0010
0000
0000
0000
1001
0000
0000
0001
0000
0000
0101
0000
0000
0000
0000
0000
,  // measure 15
1001
0000
0000
1000
0000
0000
2200
0000
0000
0000
0000
0000
0000
0000
3300
0000
0000
0000
0000
0000
1002
0000
0000
0000
0000
0000
0000
0000
1000
0000
0000
0000
,  // measure 16
1003
0010
0100
0000
0002
1000
1003
0001
,  // measure 17
0100
1000
0100
0001
0010
0000
0002
1000
,  // measure 18
1003
0100
0010
0000
0002
1000
1003
0001
,  // measure 19
0010
1000
0010
0001
0100
0000
0001
1000
,  // measure 20
0100
1000
0001
1000
0010
0100
1000
0100
,  // measure 21
0010
1000
0001
0100
0010
0000
0000
1001
,  // measure 22
1001
0000
1001
0000
0000
0110
0110
0000
,  // measure 23
0110
0000
0000
0000
0010
0000
0100
0000
0010
0000
1002
0000
0000
1003
0100
0001
,  // measure 24
0100
1000
0000
0100
0010
0001
1000
0010
0000
1000
0010
0001
0020
0000
1030
0001
,  // measure 25
0000
0010
0100
1000
0001
0100
0010
0100
0000
0001
0000
1002
0000
1003
0010
0001
,  // measure 26
0010
1000
0100
0010
0001
1000
0010
1000
0000
0100
0010
0001
1000
0001
0010
1000
,  // measure 27
0010
0001
1000
0100
0010
1000
0010
0100
0000
1010
0000
2001
0000
3001
0010
0001
,  // measure 28
0100
0010
1000
0100
1000
0010
0100
0001
0010
0001
0100
0010
0000
0000
1000
0100
,  // measure 29
0020
0000
0031
1000
0010
1000
0001
0010
0100
0010
0000
1002
0000
1003
0010
0100
,  // measure 30
0001
1000
0000
1100
0000
1100
0000
1001
0000
0220
0000
0330
0000
0000
0001
0100
,  // measure 31
1000
0000
0100
0000
0000
0000
0001
0000
0010
0000
0001
0000
1000
0000
0100
0000
0010
0000
0001
0000
1000
0000
0000
0000
1010
0000
0000
1010
0000
0000
0000
0000
,  // measure 32
1000
0000
0000
0000
0000
0000
0000
0000
0101
0000
0000
0101
0000
0000
0000
0000
0001
0000
0000
0000
0000
0000
0000
0000
1000
0000
0100
0000
0001
0000
0100
0000
,  // measure 33
1000
0001
0000
0000
1000
0010
0001
0010
1000
0100
0010
0001
2000
0000
3100
0010
,  // measure 34
0001
0010
0100
0000
2000
0000
3001
0100
0010
0100
0001
0000
1002
0000
0000
0100
,  // measure 35
0103
0000
0000
0010
1000
1001
0000
1010
0000
0110
0000
0202
0000
0000
0000
0000
,  // measure 36
0000
0000
0000
0000
0303
0000
0000
0000
0000
0000
0000
0000
1002
0000
0000
0000
0000
0000
0000
0000
1000
0000
0000
0000
1003
0000
0000
0000
0000
0000
0000
0000
0100
0000
0000
0000
0000
0000
0000
0000
2000
0000
0000
0000
0001
0000
0000
0000
3002
0003
0000
0000
0000
0000
0000
0000
2000
0000
0000
0000
0001
0000
0000
0000
,  // measure 37
3001
0000
0100
0000
0002
1000
1003
0001
0100
1000
0200
0000
0301
0000
1000
0100
,  // measure 38
0010
0000
0001
0000
0000
0000
0100
0000
0010
0000
2000
0000
0000
0000
0000
0000
0000
0000
0000
0000
3010
0000
0000
0000
0010
0000
0000
0000
1001
0000
0000
0001
,  // measure 39
0000
0000
0101
0000
0000
0000
0000
0000
1001
0000
0000
1000
0000
0000
2200
0000
0000
0000
0000
0000
0000
0000
3300
0000
0000
0000
0000
0000
2001
0000
0000
0000
,  // measure 40
0000
0001
3001
1000
0100
0000
2000
0001
,  // measure 41
3001
1000
0010
0001
0010
1000
0100
0000
,  // measure 42
2000
0001
3001
1000
0010
0000
2000
0001
,  // measure 43
3001
1000
0100
0001
0100
1000
0010
0000
,  // measure 44
1000
0001
0010
0001
1000
0001
0100
0010
,  // measure 45
0001
0010
0100
0001
1000
0010
0100
0000
,  // measure 46
0000
1001
1001
0000
1001
0000
0000
0110
,  // measure 47
0110
0110
0000
0000
;

//---------------dance-single - ----------------
#NOTES:
     dance-single:
     :
     Beginner:
     3:
     0.122011,0.178374,0.236774,0.000000,0.025369,101.000000,73.000000,28.000000,0.000000,0.000000,0.000000,0.122011,0.178374,0.236774,0.000000,0.025369,101.000000,73.000000,28.000000,0.000000,0.000000,0.000000:
// measure 0
0000
0000
0000
0000
,  // measure 1
0000
0000
0000
0000
,  // measure 2
0000
0000
0000
0000
,  // measure 3
0000
1001
0000
0000
0000
0000
0001
0000
0000
0000
0000
0000
0000
0000
0000
0000
,  // measure 4
0000
1000
0000
1000
0000
0000
0000
0000
,  // measure 5
0000
0110
0000
0000
0000
0000
0010
0000
0000
0000
0000
0000
0000
0000
0000
0000
,  // measure 6
0000
0100
0000
0100
0000
0000
0000
0000
,  // measure 7
0000
1001
0000
0000
0000
1001
0000
0000
,  // measure 8
0000
0010
0000
0000
0000
0100
0000
0000
,  // measure 9
0000
0001
0000
0001
0000
1000
0000
1000
,  // measure 10
0000
0001
0000
0000
0000
0000
0000
0000
,  // measure 11
0000
0000
0000
0000
0000
0000
0000
0000
0000
1001
0000
0000
0000
0000
0001
0000
,  // measure 12
0000
0000
0000
0000
0000
1001
0000
1000
,  // measure 13
0000
0000
0000
0000
0000
1001
0000
0001
,  // measure 14
0000
0000
0000
0000
0000
1001
0000
0000
,  // measure 15
1001
0000
0000
0000
0000
0110
0000
0000
,  // measure 16
0000
0100
0000
0010
,  // measure 17
0000
0000
0000
0110
,  // measure 18
0000
0010
0000
0100
,  // measure 19
0000
0000
0000
1001
,  // measure 20
0000
0001
0000
0001
,  // measure 21
0000
0000
0001
0000
0000
0000
0000
1001
,  // measure 22
0000
0000
0000
0000
0000
1001
0000
0000
,  // measure 23
0000
0000
0000
0000
0000
0110
0000
0000
,  // measure 24
0100
0000
0000
0010
,  // measure 25
0010
0000
0000
0110
,  // measure 26
0100
0000
0000
0010
,  // measure 27
0010
0000
0000
0000
0000
0000
0000
0000
0000
0000
0000
1001
0000
0000
0000
0000
,  // measure 28
0001
0000
0000
1000
,  // measure 29
0000
0000
0000
0000
0000
0000
0000
0000
0000
0000
0000
1001
0000
0000
0000
0000
,  // measure 30
1000
0000
0000
0001
,  // measure 31
0000
0000
0000
0110
,  // measure 32
0000
0100
0000
0000
,  // measure 33
0000
0000
0000
0110
,  // measure 34
0000
0010
0000
1001
,  // measure 35
0000
0000
0000
0000
,  // measure 36
0000
0000
0000
1001
0000
0000
0000
0000
0000
0000
0000
0000
0000
0000
1001
0000
,  // measure 37
0000
0000
0000
0000
0000
0000
0000
0100
,  // measure 38
0000
0010
0000
0000
0000
1000
0000
0001
,  // measure 39
0000
0000
1001
0000
0000
0000
0000
1001
,  // measure 40
0000
0000
0000
1000
,  // measure 41
0000
0000
0000
0000
,  // measure 42
1001
0000
0000
0001
,  // measure 43
0000
0000
0000
0000
,  // measure 44
1000
0000
1000
0000
,  // measure 45
0001
0000
0001
0000
,  // measure 46
0000
1001
0000
0000
0000
0000
0000
1001
;
