#TITLE:Boomy and The Boost;
#SUBTITLE:;
#ARTIST:Eagle;
#TITLETRANSLIT:;
#SUBTITLETRANSLIT:;
#ARTISTTRANSLIT:;
#GENRE:;
#CREDIT:DigiMindAxel;
#BANNER:Boomy and The Boost.png;
#BACKGROUND:Boomy and The Boost-bg.png;
#LYRICSPATH:;
#CDTITLE:beatmania IIDX.png;
#MUSIC:Boomy and The Boost.ogg;
#OFFSET:-0.552000;
#SAMPLESTART:33.631996;
#SAMPLELENGTH:12.000000;
#SELECTABLE:YES;
#BPMS:0.000000=174.000000
;
#STOPS:
;
#BGCHANGES:;
#KEYSOUNDS:;
#ATTACKS:;

//---------------dance-single - ----------------
#NOTES:
     dance-single:
     :
     Easy:
     6:
     0.266822,0.342672,0.075313,0.097906,0.000000,248.000000,238.000000,10.000000,13.000000,0.000000,0.000000,0.266822,0.342672,0.075313,0.097906,0.000000,248.000000,238.000000,10.000000,13.000000,0.000000,0.000000:
// measure 0
0000
0000
0000
0000
,  // measure 1
0000
0000
0000
0000
,  // measure 2
0000
0000
0000
0000
,  // measure 3
0000
0000
0000
0000
,  // measure 4
0000
0000
0000
0000
,  // measure 5
2000
0000
0000
0000
,  // measure 6
3002
0000
0000
0000
,  // measure 7
0023
0000
0000
0000
,  // measure 8
0230
0000
0000
0000
,  // measure 9
1300
0100
0000
0000
,  // measure 10
0010
0001
0000
0000
,  // measure 11
0010
0100
0000
0000
,  // measure 12
2000
0000
3002
0000
,  // measure 13
1003
0010
0000
0000
,  // measure 14
0100
0001
0000
0000
,  // measure 15
0010
0100
0000
0000
,  // measure 16
2000
0000
3002
0000
,  // measure 17
0013
0010
0010
0000
,  // measure 18
0100
1000
0100
1000
,  // measure 19
0001
0001
0001
0000
,  // measure 20
0010
0001
0010
0001
,  // measure 21
0100
0100
0100
0000
,  // measure 22
0010
1000
0010
1000
,  // measure 23
0001
0001
0001
0000
,  // measure 24
0010
0000
0000
0010
0000
0000
0000
0000
,  // measure 25
1001
0001
0010
0100
,  // measure 26
1000
1000
0001
0001
,  // measure 27
1000
0001
0010
0100
,  // measure 28
1000
0001
0001
1000
,  // measure 29
1000
0010
0100
0001
,  // measure 30
0100
0100
0010
0010
,  // measure 31
1000
0100
0010
0001
,  // measure 32
1000
1000
0001
0000
,  // measure 33
0010
0001
0100
0010
,  // measure 34
1000
1000
0001
0001
,  // measure 35
0010
0100
1000
0010
,  // measure 36
0100
0000
0000
0110
0000
0000
0000
0000
,  // measure 37
0001
0010
0100
0010
,  // measure 38
0001
0001
0100
0100
,  // measure 39
0001
0010
0100
1000
,  // measure 40
0002
0000
2003
0000
,  // measure 41
3001
0000
1000
0000
0000
0100
0000
0000
,  // measure 42
1000
0000
0000
0100
0000
0000
0010
0000
,  // measure 43
0000
0000
0001
0000
0000
0100
0000
0000
,  // measure 44
0001
0000
0000
0100
0000
0000
0001
0000
,  // measure 45
0000
0000
0010
0000
0000
0100
0000
0000
,  // measure 46
0010
0000
0000
0100
0000
0000
1000
0000
,  // measure 47
0000
0000
0010
0000
0000
0100
0000
0000
,  // measure 48
0010
0200
0000
0000
,  // measure 49
0301
1000
0000
0000
,  // measure 50
0100
0010
0000
0000
,  // measure 51
0001
0100
0000
0000
,  // measure 52
0001
1000
0000
0000
,  // measure 53
0100
0010
0000
0000
,  // measure 54
0001
0010
0000
0000
,  // measure 55
0100
0010
0000
0000
,  // measure 56
0001
0100
0000
0000
,  // measure 57
0001
1000
0001
1000
,  // measure 58
0100
1000
0100
0000
,  // measure 59
0010
0001
0010
0001
,  // measure 60
0100
0010
0100
0000
,  // measure 61
0010
1000
0010
1000
,  // measure 62
0001
0010
0001
0000
,  // measure 63
0100
0010
0100
0010
,  // measure 64
0100
0001
0100
0000
,  // measure 65
0001
0010
0100
1000
,  // measure 66
0001
0001
0001
0000
,  // measure 67
1000
0100
0010
0001
,  // measure 68
1000
1000
1000
0000
,  // measure 69
0010
0100
0001
0100
,  // measure 70
0010
0010
0010
0000
,  // measure 71
0100
0001
1000
0100
,  // measure 72
0010
0000
0000
0010
0000
0000
0000
0000
,  // measure 73
1001
0000
0001
0000
0000
0100
0000
0000
,  // measure 74
0010
0000
0000
1000
0000
0000
0100
0000
,  // measure 75
0010
0000
0000
0110
0000
0000
0000
0000
,  // measure 76
0010
0000
0000
0110
0000
0000
0000
0000
,  // measure 77
0000
0000
0001
0000
0000
0010
0000
0000
,  // measure 78
0100
0000
0000
1000
0000
0000
0001
0000
,  // measure 79
0100
0000
0000
0110
0000
0000
0000
0000
,  // measure 80
0100
0000
0000
0110
0000
0000
0000
0000
,  // measure 81
0000
0000
0001
0000
0000
0100
0000
0000
,  // measure 82
0010
0000
0000
0100
0000
0000
0001
0000
,  // measure 83
0100
0000
0000
0110
0000
0000
0000
0000
,  // measure 84
0100
0000
0000
0110
0000
0000
0000
0000
,  // measure 85
0000
0000
0010
0000
0000
1000
0000
0000
,  // measure 86
0100
0000
0000
0010
0000
0000
0001
0000
,  // measure 87
0100
0010
0100
0010
,  // measure 88
1000
0010
0100
0001
,  // measure 89
2002
0000
0000
0000
,  // measure 90
0000
0000
0000
0000
,  // measure 91
3003
0000
0000
0000
;

//---------------dance-single - ----------------
#NOTES:
     dance-single:
     :
     Medium:
     11:
     0.484152,0.548275,0.459407,0.188281,0.203344,450.000000,389.000000,61.000000,25.000000,0.000000,0.000000,0.484152,0.548275,0.459407,0.188281,0.203344,450.000000,389.000000,61.000000,25.000000,0.000000,0.000000:
// measure 0
0000
0000
0000
0000
,  // measure 1
0000
0000
0000
0000
,  // measure 2
0000
0000
0000
0000
,  // measure 3
0000
0000
0000
0000
,  // measure 4
0000
0000
0000
0000
,  // measure 5
1000
0100
0000
0000
,  // measure 6
0010
0100
1000
0000
,  // measure 7
0001
0100
0000
0000
,  // measure 8
0010
0100
0001
1000
,  // measure 9
0200
2000
0000
3300
,  // measure 10
0010
0001
0010
0002
0000
0000
0003
0000
,  // measure 11
0200
0020
0000
0330
,  // measure 12
1000
0100
0010
0001
,  // measure 13
2000
0020
0000
3030
,  // measure 14
0100
0001
0100
0002
0000
0000
0003
0000
,  // measure 15
0020
0200
0000
0330
,  // measure 16
1000
0100
1000
0000
0010
0100
0001
0000
,  // measure 17
1001
1001
1001
0010
,  // measure 18
0000
0100
1000
0000
1100
0000
1100
0000
,  // measure 19
1001
1001
1001
0100
,  // measure 20
0000
0010
0001
0000
0011
0000
0011
0000
,  // measure 21
0110
0110
0110
0010
,  // measure 22
0000
0100
0001
0000
0101
0000
0101
0000
,  // measure 23
1001
1001
1001
0010
,  // measure 24
0100
1000
0000
0100
1000
0000
0000
0000
,  // measure 25
1001
0000
0000
0000
0001
0000
0000
0010
0000
0000
0001
0000
0000
0010
0000
0000
,  // measure 26
0100
0000
0000
1000
0000
0000
0100
0000
0000
1000
0000
0000
0001
0000
1000
0000
,  // measure 27
0001
0000
0000
0000
1000
0000
0000
0010
0000
0000
1000
0000
0000
0010
0000
0000
,  // measure 28
0100
0000
0000
0001
0000
0000
0100
0000
0000
0001
0000
0000
1000
0000
0001
0000
,  // measure 29
2000
0000
0000
0000
3020
0000
0000
0130
0000
0000
0001
0000
0000
0100
0000
0000
,  // measure 30
0010
0000
0000
0100
0000
0000
0010
0000
0000
1000
0000
0000
0010
0000
0000
0000
,  // measure 31
0110
0110
0110
0010
,  // measure 32
0000
1000
0001
0000
1001
0000
0000
0000
,  // measure 33
0011
0000
0000
0000
0001
0000
0000
0010
0000
0000
0100
0000
0000
0010
0000
0000
,  // measure 34
0001
0000
0000
0100
0000
0000
0010
0000
0000
0100
0000
0000
0001
0000
1000
0000
,  // measure 35
0100
0000
0000
0000
0010
0000
0000
0001
0000
0000
1000
0000
0000
0001
0000
0000
,  // measure 36
0110
0000
0000
0110
0000
0000
0220
0000
0000
0000
0000
0000
0330
0000
0000
0000
,  // measure 37
1001
0000
0000
0000
1000
0000
0000
0100
0000
0000
1000
0000
0000
0100
0000
0000
,  // measure 38
0010
0000
0000
0001
0000
0000
0010
0000
0000
0001
0000
0000
0100
0000
0010
0000
,  // measure 39
0200
0302
2003
3020
,  // measure 40
0130
0000
0000
0000
0110
0000
0000
0000
0010
0000
0000
0010
0000
0000
0010
0000
,  // measure 41
1002
0000
0000
0000
0103
0000
0000
0100
0000
0000
0001
0000
0000
0001
0000
0000
,  // measure 42
0100
0000
0000
0100
0000
0000
0001
0000
0000
0001
0000
0000
1000
0000
0100
0000
,  // measure 43
0010
0000
0000
0000
1001
0000
0000
1000
0000
0000
0001
0000
0000
0001
0000
0000
,  // measure 44
0010
0000
0000
0010
0000
0000
0001
0000
0000
0001
0000
0000
0010
0000
0100
0000
,  // measure 45
1000
0000
0000
0000
1001
0000
0000
0001
0000
0000
0100
0000
0000
0100
0000
0000
,  // measure 46
0001
0000
0000
0001
0000
0000
0100
0000
0000
0100
0000
0000
0010
0000
1000
0000
,  // measure 47
0100
0000
0000
0000
1001
0000
0000
1000
0000
0000
0100
0000
0000
0100
0000
0000
,  // measure 48
0010
0001
0010
0000
0100
0010
0100
0000
,  // measure 49
1010
0010
0000
0100
,  // measure 50
0001
1000
0100
0010
0000
0001
0100
0000
,  // measure 51
0101
0001
0001
0000
,  // measure 52
0010
0100
1000
0000
0100
0000
0100
0000
,  // measure 53
1001
1000
0000
0100
,  // measure 54
0010
0001
1000
0100
0000
0010
0100
0000
,  // measure 55
0110
0001
0001
0000
,  // measure 56
1001
0001
0010
0100
,  // measure 57
1000
0001
0100
0000
0001
0100
0001
0000
,  // measure 58
1000
0100
0010
0000
0011
0000
0001
0000
,  // measure 59
0010
0100
1000
0100
0000
0100
0000
0000
,  // measure 60
0010
0001
1000
0001
0000
0001
0000
0000
,  // measure 61
0010
0100
1000
0000
0010
0100
0010
0000
,  // measure 62
0100
0001
0010
0000
0011
0000
0001
0000
,  // measure 63
0010
0100
1000
0010
0000
0010
0000
0000
,  // measure 64
0100
0001
1000
0100
0000
0100
0000
0000
,  // measure 65
0110
0110
0110
1000
,  // measure 66
0010
0100
0001
0000
0101
0000
0101
0000
,  // measure 67
1001
1001
1001
0010
,  // measure 68
0100
1000
0010
0000
1010
0000
1010
0000
,  // measure 69
1000
0001
0010
0000
0001
0010
0001
0000
,  // measure 70
0010
0100
1000
0000
0100
1000
0100
0000
,  // measure 71
0020
0032
0203
0320
,  // measure 72
1030
0001
0000
1000
0001
0000
0000
0000
,  // measure 73
1001
0000
0000
0000
1000
0000
0000
0100
0000
0000
1000
0000
0000
0100
0000
0000
,  // measure 74
0010
0000
0000
0001
0000
0000
0100
0000
0000
0001
0000
0000
0010
0000
0000
0000
,  // measure 75
1100
0000
0100
1000
0000
0100
1000
0000
,  // measure 76
0110
0000
0001
0010
0000
0001
0010
0000
,  // measure 77
1001
0000
0000
0000
0001
0000
0000
0100
0000
0000
0001
0000
0000
0100
0000
0000
,  // measure 78
0010
0000
0000
1000
0000
0000
0100
0000
0000
1000
0000
0000
0010
0000
0000
0000
,  // measure 79
1001
0000
0001
0010
0000
0001
0010
0000
,  // measure 80
0110
0000
1000
0010
0000
1000
0010
0000
,  // measure 81
1001
0000
0000
0000
1000
0000
0000
0100
0000
0000
1000
0000
0000
0001
0000
0000
,  // measure 82
1000
0000
0000
0100
0000
0000
1000
0000
0000
0001
0000
0000
1000
0000
0000
0000
,  // measure 83
1001
0000
0001
0100
0000
0001
0100
0000
,  // measure 84
0110
0000
1000
0100
0000
1000
0100
0000
,  // measure 85
1001
0000
0000
0000
0001
0000
0000
0010
0000
0000
0001
0000
0000
0100
0000
0000
,  // measure 86
0010
0000
0000
1000
0000
0000
0100
0000
0000
0010
0000
0000
0001
0000
0000
0000
,  // measure 87
1000
0010
1000
0010
0100
0001
1000
0000
,  // measure 88
0100
0010
0100
0010
0001
0100
0010
0000
,  // measure 89
2002
0000
0000
0000
,  // measure 90
0000
0000
0000
0000
,  // measure 91
3003
0000
0000
0000
;

//---------------dance-single - ----------------
#NOTES:
     dance-single:
     :
     Hard:
     14:
     0.653067,0.753879,0.820907,0.489532,0.278656,607.000000,498.000000,109.000000,65.000000,0.000000,0.000000,0.653067,0.753879,0.820907,0.489532,0.278656,607.000000,498.000000,109.000000,65.000000,0.000000,0.000000:
// measure 0
0000
0000
0000
0000
,  // measure 1
0000
0000
0000
0000
,  // measure 2
0000
0000
0000
0000
,  // measure 3
0000
0000
0000
0000
,  // measure 4
0000
0000
0000
0000
0000
0000
0000
0001
,  // measure 5
1000
0100
1000
0002
0000
0000
0000
0000
,  // measure 6
0013
0100
1000
0020
0000
0000
0000
0130
,  // measure 7
0001
0010
0001
0200
0000
0000
0000
0000
,  // measure 8
0301
0010
0100
1000
0001
0100
0010
1000
,  // measure 9
0001
0010
0001
2000
0000
0000
0000
0000
,  // measure 10
3100
0010
0001
0200
0000
0000
0000
0301
,  // measure 11
1000
0100
1000
0002
0000
0000
0000
0000
,  // measure 12
1003
0000
0100
0000
0001
0100
1000
0001
,  // measure 13
1000
0100
1000
0002
0000
0000
0000
0000
,  // measure 14
0103
0010
1000
0200
0000
0000
0000
1300
,  // measure 15
0100
0010
0001
2000
0000
0000
0000
3000
,  // measure 16
0001
0100
1000
0100
0001
0010
0100
0010
,  // measure 17
1001
0000
0000
0000
1001
0000
0000
0000
1001
0000
0000
0100
0000
0000
0010
0000
,  // measure 18
0000
0000
0100
0000
0100
0000
0000
0000
1001
0000
0000
0100
0000
0000
0010
0000
,  // measure 19
0011
0000
0000
0000
0011
0000
0000
0000
0011
0000
0000
0100
0000
0000
1000
0000
,  // measure 20
0000
0000
0010
0000
0010
0000
0000
0000
1001
0000
0000
0010
0000
0000
0100
0000
,  // measure 21
0101
0000
0000
0000
0101
0000
0000
0000
0101
0000
0000
0010
0000
0000
1000
0000
,  // measure 22
0000
0000
0001
0000
0001
0000
0000
0000
1001
0000
0000
0010
0000
0000
0100
0000
,  // measure 23
1100
0000
0000
0000
1100
0000
0000
0000
1100
0000
0000
0010
0000
0000
0001
0000
,  // measure 24
1000
1000
0000
0010
0010
1000
0001
1000
,  // measure 25
1001
0000
0000
0000
0200
0000
0000
0320
0000
0000
0032
0000
0000
2003
0000
0000
,  // measure 26
3002
0000
0000
0203
0000
0000
2300
0000
0000
3200
0000
0000
0301
0000
0010
0000
,  // measure 27
0100
0000
0000
0000
2000
0000
0000
3020
0000
0000
0230
0000
0000
0302
0000
0000
,  // measure 28
2003
0000
0000
3020
0000
0000
0032
0000
0000
0023
0000
0000
1030
0000
0100
0000
,  // measure 29
0010
0000
0000
0000
0200
0000
0000
2300
0000
0000
3020
0000
0000
0032
0000
0000
,  // measure 30
0023
0000
0000
2030
0000
0000
3200
0000
0000
0320
0000
0000
0130
0000
1000
0000
,  // measure 31
1001
0000
0000
0000
1001
0000
0000
0000
0011
0000
0000
0100
0000
0000
1000
0000
,  // measure 32
0000
0010
0010
0000
0220
0000
0330
0000
,  // measure 33
1001
0000
0000
0000
0002
0000
0000
2003
0000
0000
3200
0000
0000
0302
0000
0000
,  // measure 34
0203
0000
0000
2300
0000
0000
3001
0000
0100
0000
0010
0000
0100
0000
0001
0000
,  // measure 35
1000
0000
0100
0000
2000
0000
0000
3002
0000
0000
0023
0000
0000
0130
0000
0000
,  // measure 36
1001
0000
0000
1001
0000
0000
2002
0000
0000
0000
0000
0000
3003
0000
0000
0000
,  // measure 37
1000
0000
0010
0000
0100
0010
0100
0000
0010
0000
1000
0000
0001
0010
0001
0000
,  // measure 38
0020
0000
0000
0032
0000
0000
0203
0000
0000
2300
0000
0000
3100
0000
0001
0000
,  // measure 39
2000
0000
0001
0001
0000
0001
3001
0000
,  // measure 40
1001
0000
0000
0000
1001
0000
0000
0000
1100
0000
0000
0010
0000
0000
0001
0000
,  // measure 41
1001
0000
0000
0000
1010
0000
0000
0010
0000
0000
1010
0000
0000
0010
0000
0000
,  // measure 42
1010
0000
0000
0010
0000
0000
1010
0000
0000
0010
0000
0000
0100
0010
0100
0000
,  // measure 43
1001
0000
0000
0000
0011
0000
0000
0010
0000
0000
0011
0000
0000
0010
0000
0000
,  // measure 44
0011
0000
0000
0010
0000
0000
0011
0000
0000
0010
0000
0000
0100
0010
0100
0000
,  // measure 45
1010
0000
0000
0000
1001
0000
0000
0001
0000
0000
1001
0000
0000
0001
0000
0000
,  // measure 46
1001
0000
0000
0001
0000
0000
1001
0000
0000
0001
0000
0000
0100
0010
0100
0000
,  // measure 47
1010
0000
0000
0000
1001
0000
0000
1000
0000
0000
1001
0000
0000
1000
0000
0000
,  // measure 48
1000
0010
0100
0001
1000
0100
0010
0001
,  // measure 49
1000
1000
0010
0010
0000
0000
0200
0000
,  // measure 50
0301
0010
0100
1000
0000
1000
0010
1000
,  // measure 51
0001
0200
0000
0001
0000
0301
0000
0000
,  // measure 52
1000
0020
0000
1000
0000
1030
0010
0100
,  // measure 53
0001
0010
0100
1000
0000
0000
0002
0000
,  // measure 54
1003
0010
0100
0010
0000
0010
0100
0010
,  // measure 55
1000
0002
0000
0010
0000
0013
0000
0100
,  // measure 56
1000
0020
0000
1000
0000
1030
0001
1000
,  // measure 57
0100
0010
0001
1000
0010
0001
0020
0000
,  // measure 58
1030
0100
0010
0001
1000
0001
0010
0001
,  // measure 59
1001
0200
0000
1300
0010
0100
0010
0000
,  // measure 60
1001
0020
0000
0031
0100
0010
0100
0001
,  // measure 61
1000
0100
0010
0001
0100
1000
0200
0000
,  // measure 62
0301
0010
0100
1000
0001
0100
0010
0100
,  // measure 63
1001
0200
0000
0301
0010
0100
0010
0000
,  // measure 64
1001
0020
0000
1030
0100
0010
0100
1000
,  // measure 65
1001
0000
0000
0000
1001
0000
0000
0000
1010
0000
0000
0100
0000
0000
0001
0000
,  // measure 66
0000
0000
0100
0000
0110
0000
0000
0000
1010
0000
0000
0100
0000
0000
0001
0000
,  // measure 67
1001
0000
0000
0000
1001
0000
0000
0000
1001
0000
0000
0010
0000
0000
0100
0000
,  // measure 68
0000
0000
1000
0000
1010
0000
0000
0000
1001
0000
0000
0100
0000
0000
0010
0000
,  // measure 69
1001
1000
0001
0001
0010
0100
1000
0001
,  // measure 70
1000
0010
0110
1000
0100
1000
0010
0100
,  // measure 71
1001
0001
1000
1000
0100
0010
0001
0100
,  // measure 72
0010
0010
0000
0100
0100
0001
1000
0001
,  // measure 73
1000
0000
0000
0000
1100
0000
0000
0011
0000
0000
1100
0000
0000
0011
0000
0000
,  // measure 74
1001
0000
0000
0110
0000
0000
1001
0000
0000
0110
0000
0000
1001
0000
0000
0000
,  // measure 75
0101
0100
0001
1001
0000
1000
1000
0100
,  // measure 76
0011
0010
0001
1001
0000
1000
1000
0100
,  // measure 77
0010
0000
0000
0000
1010
0000
0000
0101
0000
0000
1010
0000
0000
0101
0000
0000
,  // measure 78
1001
0000
0000
0110
0000
0000
1001
0000
0000
0110
0000
0000
1001
0000
0000
0000
,  // measure 79
0011
0001
1000
1000
0010
0100
0001
0000
,  // measure 80
1100
0000
1000
0000
0001
0000
0001
0000
0100
0000
0010
0000
1000
0000
0010
0100
,  // measure 81
0010
0000
0000
0000
0101
0000
0000
1001
0000
0000
0101
0000
0000
1001
0000
0000
,  // measure 82
1100
0000
0000
0110
0000
0000
1100
0000
0000
0110
0000
0000
1100
0000
0000
0000
,  // measure 83
0011
0001
1000
1010
0000
0100
0100
0010
,  // measure 84
1100
0000
1000
0000
0001
0000
0101
0000
0000
0000
0010
0000
0010
0000
0100
0010
,  // measure 85
0100
0000
0000
0000
0101
0000
0000
1001
0000
0000
0101
0000
0000
1001
0000
0000
,  // measure 86
0110
0000
0000
1100
0000
0000
0110
0000
0000
1100
0000
0000
0110
0000
0000
0000
,  // measure 87
0001
0000
1000
0000
0010
0000
1000
0000
0001
0100
0000
0001
1000
0000
0001
0000
,  // measure 88
0010
0001
0010
0000
0100
0000
1000
0000
0001
1000
0001
0000
0100
0000
0010
0000
,  // measure 89
2020
0000
0000
0000
,  // measure 90
0000
0000
0000
0000
,  // measure 91
3030
0000
0000
0000
;

//---------------dance-single - ----------------
#NOTES:
     dance-single:
     :
     Challenge:
     16:
     0.904826,1.062283,1.001657,0.331375,0.723000,841.000000,708.000000,133.000000,44.000000,0.000000,0.000000,0.904826,1.062283,1.001657,0.331375,0.723000,841.000000,708.000000,133.000000,44.000000,0.000000,0.000000:
// measure 0
0000
0000
0000
0000
,  // measure 1
0000
0000
0000
0000
,  // measure 2
0000
0000
0000
0000
,  // measure 3
0000
0000
0000
0000
,  // measure 4
0000
0000
0000
0000
0000
0000
0000
0000
0000
0000
0000
0000
0000
0000
1000
0001
,  // measure 5
1000
0010
0100
0002
0000
0000
0000
0000
,  // measure 6
1003
0000
0100
0000
0010
0000
0002
0000
0000
0000
0000
0000
0000
0000
1003
0001
,  // measure 7
1000
0010
0100
0002
0000
0000
0000
0000
,  // measure 8
1003
0000
0010
0000
0001
0000
0010
0000
0100
0000
0001
0000
1000
0000
0100
1000
,  // measure 9
0010
0010
0100
0200
0000
0001
0301
0000
,  // measure 10
1000
0000
0100
0000
0010
0000
0020
0000
0000
0000
0001
0000
0031
0000
0010
0100
,  // measure 11
1000
0000
1000
0000
0010
0000
0020
0000
0000
0000
0100
0000
0130
0000
0001
1000
,  // measure 12
0001
0000
0010
0000
0100
0000
0100
0000
0010
0000
0010
0000
0001
0000
0100
0010
,  // measure 13
1000
1000
0001
0002
0000
0100
0103
0000
,  // measure 14
0001
0000
0010
0000
0100
0000
0200
0000
0000
0000
0010
0000
0310
0000
0001
1000
,  // measure 15
0010
0010
0100
0200
0000
0001
0301
0000
,  // measure 16
1000
0010
0001
0010
0100
0001
1000
0010
,  // measure 17
0101
0000
0000
0000
0101
0000
0000
0000
0101
0000
0000
0110
0000
0000
1010
0000
,  // measure 18
0000
0000
1001
0000
1001
0000
0000
0000
0011
0000
0000
0110
0000
0000
1100
0000
,  // measure 19
1001
0000
0000
0000
1001
0000
0000
0000
1001
0000
0000
0110
0000
0000
0101
0000
,  // measure 20
0000
0000
1001
0000
1001
0000
0000
0000
0110
0000
0000
0011
0000
0000
1100
0000
,  // measure 21
1001
0000
0010
0000
0100
0000
1000
0000
0001
0000
1000
0010
0000
0100
0001
0000
,  // measure 22
1000
0000
1001
0000
0010
0000
0100
0000
1000
0000
0001
0100
0000
0010
1000
0000
,  // measure 23
0001
1000
0001
1000
0010
0100
0010
0100
0001
0010
0100
1000
0100
0010
0001
0100
,  // measure 24
0002
1000
1003
0002
1000
1003
0010
0010
,  // measure 25
1001
0000
0000
0000
0110
0000
0000
0101
0000
0000
0110
0000
0000
0101
0000
0000
,  // measure 26
0110
0000
0000
1001
0000
0000
1100
0000
0000
0011
0000
0000
1100
0000
0010
0000
,  // measure 27
0001
0000
0000
0000
0110
0000
0000
1010
0000
0000
0110
0000
0000
1010
0000
0000
,  // measure 28
0110
0000
0000
1001
0000
0000
0011
0000
0000
1100
0000
0000
0011
0000
0100
0000
,  // measure 29
1000
0000
0000
0000
0011
0000
0000
0110
0000
0000
0011
0000
0000
0110
0000
0000
,  // measure 30
1100
0000
0000
0110
0000
0000
0011
0000
0000
1001
0000
0000
1100
0000
0010
0000
,  // measure 31
0101
0000
0000
0000
0101
0000
0000
0000
0101
0000
0000
1001
0000
0000
1100
0000
,  // measure 32
0000
0110
0110
0000
2002
0000
3003
0000
,  // measure 33
0010
0100
0010
0000
0110
0000
1000
0100
1000
0000
1100
0000
0001
1000
0001
0000
,  // measure 34
1001
0000
0010
0001
0010
0000
0011
0000
1000
0001
0000
1000
0001
0000
0001
0000
,  // measure 35
0100
0001
0100
0000
0101
0000
0010
0100
0010
0000
0110
0000
1000
0010
1000
0000
,  // measure 36
1001
0000
0000
0110
0000
0000
1001
0000
1000
0001
0000
1000
0001
0010
0100
0000
,  // measure 37
1000
0010
1000
0000
1010
0000
0100
0010
0100
0000
0110
0000
0001
1000
0001
0000
,  // measure 38
1001
0000
0010
0001
0010
0000
0011
0000
1000
0001
0000
1000
0001
0000
0001
0000
,  // measure 39
0020
0000
0200
0300
0000
0002
0003
0030
,  // measure 40
1001
0000
0000
0000
1001
0000
0000
0000
1001
0000
0000
1100
0000
0000
0011
0000
,  // measure 41
2002
0000
3003
0000
0100
1000
0000
1000
0100
0000
0010
0001
0000
0001
0010
0000
,  // measure 42
0100
1000
0000
1000
0100
0000
0010
0001
0000
0001
0010
0000
0001
0010
0100
2000
,  // measure 43
0002
0000
3003
0000
0100
0001
0000
0001
0100
0000
0010
1000
0000
1000
0010
0000
,  // measure 44
0100
0001
0000
0001
0100
0000
0010
1000
0000
1000
0010
0000
1000
0010
0100
0002
,  // measure 45
2000
0000
3003
0000
0100
1000
0000
1000
0100
0000
1000
0001
0000
0001
1000
0000
,  // measure 46
0100
1000
0000
1000
0100
0000
1000
0001
0000
0001
1000
0000
0100
0010
0001
0020
,  // measure 47
0200
0000
0330
0000
1000
0010
0000
0010
1000
0000
0001
1000
0000
1000
0001
0000
,  // measure 48
0010
0001
0010
0000
0100
0010
0100
0000
1000
0100
1000
0000
0001
0100
0010
0100
,  // measure 49
0001
0010
0100
2000
0000
0000
3020
0000
,  // measure 50
1030
0000
0100
0000
0010
0000
0002
0000
0000
0000
0100
0000
0103
0000
0010
1000
,  // measure 51
0001
0010
0100
1010
0000
1010
0000
0000
,  // measure 52
0001
0010
0100
1010
0000
1010
0010
1000
,  // measure 53
0200
0010
0010
0010
0000
0000
0320
0000
,  // measure 54
0031
0000
0010
0000
0100
0000
2000
0000
0000
0000
0010
0000
3010
0000
0100
0001
,  // measure 55
1000
0100
0010
0101
0000
0101
0000
0001
,  // measure 56
1000
0000
0100
0000
0010
0000
0101
0000
0000
0000
0101
0000
0000
0000
0010
1000
,  // measure 57
0001
0010
1000
0001
0010
0100
0002
0000
,  // measure 58
1003
0000
0100
0000
0001
0000
1000
0000
0100
0000
0010
0000
1000
0000
0010
0100
,  // measure 59
0001
0010
0100
1010
0010
0110
0000
0000
,  // measure 60
0001
0000
0010
0000
0100
0000
1010
0000
0010
0000
0110
0000
0001
0000
0010
0100
,  // measure 61
1000
0010
0001
0010
0100
0001
2000
0000
,  // measure 62
3001
0000
0100
0000
1000
0000
0100
0000
0010
0000
1000
0000
0001
0000
0010
0001
,  // measure 63
1000
0100
0010
0101
0100
0110
0000
0000
,  // measure 64
1000
0100
0010
0101
0100
0110
1000
0001
,  // measure 65
1001
0000
1000
0000
1100
0000
0100
0000
0101
0000
0000
1001
0000
0000
0110
0000
,  // measure 66
0000
0000
1001
0000
1001
0000
0000
0000
0011
0000
0000
0110
0000
0000
1100
0000
,  // measure 67
1001
0000
0001
0000
0011
0000
0010
0000
1010
0000
0000
1001
0000
0000
0110
0000
,  // measure 68
0000
0000
1001
0000
1001
0000
0000
0000
1010
0000
0000
0110
0000
0000
0101
0000
,  // measure 69
1001
0000
1000
0000
1100
0000
0100
0000
0110
0000
0001
0010
0100
0010
0001
0000
,  // measure 70
0100
0000
0110
0000
0110
0000
0001
0000
1001
0000
0010
1000
0100
1000
0010
0000
,  // measure 71
0100
0001
0100
0001
0010
0100
0010
0100
1000
0010
0100
0001
1000
0100
0010
0001
,  // measure 72
2000
0001
3001
2000
0001
3001
0100
0100
,  // measure 73
2002
0000
3003
0000
1000
0100
0000
0100
0010
0000
0001
0010
0000
0010
0100
0000
,  // measure 74
1000
0100
0000
0100
0010
0000
0001
0010
0000
0010
0100
0000
1000
0001
0100
0001
,  // measure 75
1000
0100
0011
1001
0000
1100
0100
0100
,  // measure 76
1001
0010
1100
1001
0000
0101
0100
0100
,  // measure 77
2002
0000
3003
0000
0100
0010
0000
0010
1000
0000
0010
0100
0000
0100
0001
0000
,  // measure 78
0100
0010
0000
0010
1000
0000
0010
0100
0000
0100
0001
0000
0010
0100
1000
0001
,  // measure 79
0100
0000
0100
0000
0001
1000
0000
0001
1000
0000
0001
0010
0001
0010
0100
0000
,  // measure 80
1010
0000
0010
0000
1000
0001
0000
1000
0001
0000
1000
0010
1000
0010
0100
0000
,  // measure 81
2002
0000
3003
0000
0100
1000
0100
1000
0001
0100
0010
0100
0010
0100
0001
0000
,  // measure 82
0010
0100
0010
0100
0010
0001
0010
0001
1000
0010
0100
0010
0100
0010
1000
0010
,  // measure 83
0100
0000
0100
0000
0001
1000
0000
0001
1000
0000
0100
0010
0100
1000
0001
0000
,  // measure 84
0101
0000
0100
0000
0001
1000
0000
0001
1000
0000
0010
0100
0010
1000
0001
0000
,  // measure 85
2002
0000
3003
0000
0010
0001
0010
0001
1000
0010
0100
0010
0100
0010
1000
0000
,  // measure 86
0100
0010
0100
0010
0100
1000
0100
1000
0001
0100
0010
0100
0010
0100
0001
1000
,  // measure 87
0100
0010
0001
0000
1000
0100
0010
0000
0001
0100
0010
1000
0010
0100
0001
0000
,  // measure 88
1000
0100
1000
0010
0100
0001
0010
0100
1000
0100
0001
0100
1000
0001
0010
0100
,  // measure 89
2002
0000
0000
0000
,  // measure 90
0000
0000
0000
0000
,  // measure 91
3003
0000
0000
0000
;

//---------------dance-single - ----------------
#NOTES:
     dance-single:
     :
     Beginner:
     2:
     0.095755,0.201084,0.097906,0.000000,0.000000,89.000000,76.000000,13.000000,0.000000,0.000000,0.000000,0.095755,0.201084,0.097906,0.000000,0.000000,89.000000,76.000000,13.000000,0.000000,0.000000,0.000000:
0000
0000
0000
0000
,
0000
0000
0000
0000
,
0000
0000
0000
0000
,
0000
0000
0000
0000
,
0000
0000
0000
0000
,
0000
0000
0000
0000
,
0000
0000
0000
0000
,
0000
0000
0000
0000
,
0000
0000
0000
0000
,
0001
0000
0000
0000
,
1000
0000
0000
0000
,
0100
0000
0000
0000
,
0000
0000
0000
0000
,
1000
0000
0000
0000
,
0001
0000
0000
0000
,
0010
0000
0000
0000
,
0000
0000
0000
0000
,
1001
0000
0000
0000
,
0001
0000
0000
0000
,
1001
0000
0000
0000
,
1000
0000
0000
0000
,
0010
0000
0010
0000
,
0010
0000
0010
0000
,
0010
0000
0010
0000
,
0010
0000
0000
0000
,
1001
0000
0000
0000
,
0100
0000
0000
0000
,
0010
0000
0000
0000
,
0001
0000
0000
0000
,
0100
0000
0000
0000
,
0001
0000
0000
0000
,
1000
0000
1000
0000
,
1000
0000
1000
0000
,
0100
0000
0000
0000
,
0010
0000
0000
0000
,
0001
0000
0000
0000
,
0100
0000
0000
0000
,
0010
0000
0000
0000
,
0100
0000
0000
0000
,
0001
0000
0000
0000
,
1000
0000
0000
0000
,
1001
0000
0000
0000
,
0000
0000
0000
0000
,
0000
1001
0000
0000
,
0000
0000
0000
0000
,
0000
1001
0000
0000
,
0000
0000
0000
0000
,
0000
1001
0000
0000
,
0000
0000
0000
0000
,
0110
0000
0000
0000
,
0000
0000
0000
0000
,
0000
0000
0000
0000
,
0000
0000
0000
0000
,
0010
0000
0000
0000
,
0000
0000
0000
0000
,
0000
0000
0000
0000
,
0000
0000
0000
0000
,
0100
0000
0000
0000
,
0001
0000
0000
0000
,
0100
0000
0000
0000
,
0001
0000
0000
0000
,
1000
0000
0000
0000
,
0100
0000
0000
0000
,
1000
0000
0000
0000
,
0100
0000
0000
0000
,
0010
0000
0010
0000
,
0010
0000
0000
0000
,
0001
0000
0001
0000
,
0001
0000
0000
0000
,
0100
0000
0100
0000
,
0100
0000
0000
0000
,
0010
0000
0100
0000
,
0010
0000
0000
0000
,
1001
0000
0000
0000
,
0000
0000
0000
0000
,
0010
0000
0000
0000
,
0010
0000
0000
0000
,
1001
0000
0000
0000
,
0000
0000
0000
0000
,
0100
0000
0000
0000
,
0100
0000
0000
0000
,
1001
0000
0000
0000
,
0000
0000
0000
0000
,
0010
0000
0000
0000
,
0010
0000
0000
0000
,
1001
0000
0000
0000
,
0000
0000
0000
0000
,
0100
0000
0010
0000
,
0100
0000
0010
0000
,
1001
0000
0000
0000
;
