#VERSION:0.83;
#TITLE:Bling-Bang-Bang-Born;
#SUBTITLE:;
#ARTIST:Creepy Nuts;
#TITLETRANSLIT:;
#SUBTITLETRANSLIT:;
#ARTISTTRANSLIT:;
#GENRE:;
#ORIGIN:;
#CREDIT:DigiMindAxel;
#BANNER:Bling-Bang-Bang-Born.png;
#BACKGROUND:Bling-Bang-Bang-Born-bg.png;
#PREVIEWVID:;
#JACKET:Bling-Bang-Bang-Born-jacket.png;
#CDIMAGE:;
#DISCIMAGE:;
#LYRICSPATH:;
#CDTITLE:DigiMindAxel original simfile.png;
#MUSIC:Bling-Bang-Bang-Born.ogg;
#OFFSET:-0.390000;
#SAMPLESTART:63.014286;
#SAMPLELENGTH:12.000000;
#SELECTABLE:YES;
#BPMS:0.000=157.000;
#STOPS:;
#DELAYS:;
#WARPS:;
#TIMESIGNATURES:0.000=4=4;
#TICKCOUNTS:0.000=4;
#COMBOS:0.000=1;
#SPEEDS:0.000=1.000=0.000=0;
#SCROLLS:0.000=1.000;
#FAKES:;
#LABELS:0.000=Song Start;
#BGCHANGES:-1.500=Bling-Bang-Bang-Born.avi=1.000=1=0=0=StretchNoLoop==CrossFade==,
99999=-nosongbg-=1.000=0=0=0 // don't automatically add -songbackground-
;
#KEYSOUNDS:;
#ATTACKS:
;

//---------------dance-single - ----------------
#NOTEDATA:;
#CHARTNAME:;
#STEPSTYPE:dance-single;
#DESCRIPTION:;
#CHARTSTYLE:;
#DIFFICULTY:Easy;
#METER:5;
#RADARVALUES:0.285997,0.289572,0.098999,0.109999,0.000000,182.000000,173.000000,9.000000,10.000000,0.000000,0.000000,0.000000,0.000000,0.000000,0.285997,0.289572,0.098999,0.109999,0.000000,182.000000,173.000000,9.000000,10.000000,0.000000,0.000000,0.000000,0.000000,0.000000;
#CREDIT:;
#NOTES:
0000
0000
0000
0000
,
0000
0000
0000
0000
,
0000
0000
0000
0000
,
0000
0000
0000
0000
,
0000
0000
0000
0000
,
0001
0001
0001
0000
,
1000
1000
1000
0000
,
0001
0001
1000
1000
,
0100
0010
0001
0100
,
0010
0100
0010
0100
,
0001
0100
0001
0100
,
0001
0010
0100
1000
,
0001
0001
0001
0001
,
2000
0000
3001
0000
,
0200
0000
0310
0000
,
2000
0000
3001
0000
,
0200
0000
0310
0000
,
1000
0100
0010
0001
,
0100
0010
0100
0000
,
0010
1000
0001
1000
,
0100
0010
0001
0000
,
0100
0001
1000
0001
,
0000
0001
0000
0001
,
0010
0100
1000
0001
,
0100
0010
0100
0000
,
0010
1000
0001
0100
,
0001
0100
0001
1000
,
0100
1000
0100
0010
,
0001
0010
0001
0000
,
0100
0001
0100
0010
,
0100
0010
1000
0000
,
0100
1000
0010
1000
,
0001
0010
0001
0000
,
0001
0001
0001
1000
,
0100
0010
0001
0000
,
1001
0000
1001
0000
,
0220
0000
0000
0330
,
1000
1000
1000
1000
,
0010
0100
0001
0000
,
1001
0000
1001
0000
,
0220
0000
0330
0000
,
0100
0010
0100
0001
,
0010
0100
1000
0000
,
0010
1000
0010
0100
,
0001
0010
0100
0000
,
1000
0001
1000
0100
,
0010
0001
1000
0000
,
1001
0000
1001
0000
,
0220
0000
0330
0000
,
0001
0001
1000
0100
,
0010
0001
1000
0000
,
0001
0001
1000
0010
,
0100
0001
1000
0000
,
0001
0001
1000
0100
,
0010
0001
1000
0000
,
0001
0001
1000
0010
,
0100
0001
1000
0000
,
0001
0001
0001
0001
,
0001
0001
0100
0000
;

//---------------dance-single - ----------------
#NOTEDATA:;
#CHARTNAME:;
#STEPSTYPE:dance-single;
#DESCRIPTION:;
#CHARTSTYLE:;
#DIFFICULTY:Medium;
#METER:9;
#RADARVALUES:0.389710,0.450445,0.263997,0.351996,0.027500,248.000000,224.000000,24.000000,32.000000,0.000000,0.000000,0.000000,0.000000,0.000000,0.389710,0.450445,0.263997,0.351996,0.027500,248.000000,224.000000,24.000000,32.000000,0.000000,0.000000,0.000000,0.000000,0.000000;
#CREDIT:;
#NOTES:
0000
0000
0000
0000
,
0000
0000
0000
0000
,
0000
0000
0000
0000
,
0000
0000
0000
0000
,
0000
0000
0000
0000
,
0100
0000
0000
0000
0100
0000
0000
0000
0100
0000
0000
0100
0000
0000
0100
0000
,
0010
0000
0000
0000
0010
0000
0000
0000
0010
0000
0000
0010
0000
0000
0010
0000
,
0100
0000
0000
0000
0100
0000
0000
0000
0100
0000
0000
0100
0000
0000
0100
0000
,
0110
0000
0000
0000
,
0000
1000
0000
0100
0000
0001
0100
1000
,
0000
0001
0000
0100
0000
1000
0100
0001
,
0000
1000
0000
0010
0000
0001
0010
1000
,
0000
0001
0000
0100
0000
1000
0100
0001
,
2000
0000
0000
0100
3100
0000
0000
0000
,
0010
0000
0000
0010
0000
0000
0010
0000
0001
0000
0000
0000
0000
0000
0000
0000
,
0020
0000
0000
0100
0130
0000
0000
0000
,
1000
0000
0000
1000
0000
0000
1000
0000
0010
0000
0000
0000
0000
0000
0000
0000
,
1001
0000
0000
1000
0000
0001
0010
0001
,
1000
0000
0000
1000
0000
0001
0010
0001
,
1000
0000
0000
1000
0000
0001
0100
0001
,
1000
0000
0000
1000
0000
0001
0100
0001
,
1000
0100
0010
2001
,
3000
1002
0003
2001
,
3001
0000
0000
0001
0000
1000
0100
1000
,
0001
0000
0000
0001
0000
1000
0100
1000
,
0001
0000
0010
0000
0100
1000
0001
0000
,
1000
0000
0010
0000
0100
0001
1000
0000
,
0100
0000
0010
0000
0001
1000
0010
0000
,
0100
0000
0001
0000
0010
0100
1000
0000
,
0001
0100
0010
0000
0100
0001
0010
0000
,
0100
1000
0010
0000
1010
0000
0000
0000
,
1000
0100
0010
0000
0001
0010
0100
0000
,
1000
0100
0010
0000
0110
0000
0000
0000
,
0010
0000
0010
0000
0010
0100
0010
0000
,
0100
0000
0100
0000
0100
0010
0100
0000
,
2020
3030
0220
0330
,
0202
0000
0000
0303
,
0100
0000
0100
0000
0100
0010
0100
0000
,
0010
0000
0010
0000
0010
0100
0010
0000
,
0202
0303
0220
0330
,
2020
0000
3030
0000
,
2000
0000
0000
0001
3002
0000
0000
0010
,
0023
0000
0000
0100
0130
0000
0000
0000
,
2000
0000
0000
0001
3002
0000
0000
0100
,
0203
0000
0000
0010
0310
0000
0000
0000
,
2000
0000
0000
0001
3002
0000
0000
0010
,
0023
0000
0000
0100
0130
0000
0000
0000
,
2200
3300
0220
0330
,
0022
0000
0033
0000
,
1001
0000
1001
0000
1000
0010
0100
0000
,
0001
0010
0100
1000
0001
0000
0000
0000
,
1001
0000
1001
0000
0001
0100
0010
0000
,
1000
0100
0010
0001
1000
0000
0000
0000
,
1001
0000
1001
0000
1000
0100
0010
0000
,
0001
0100
0010
1000
0100
0000
0000
0000
,
1001
0000
1001
0000
0001
0010
0100
0000
,
1000
0010
0100
0001
0010
0000
0000
0000
,
0001
1000
0000
0100
0000
0001
0000
0100
,
0000
1000
0000
0001
1000
0000
0000
0000
;

//---------------dance-single - ----------------
#NOTEDATA:;
#CHARTNAME:;
#STEPSTYPE:dance-single;
#DESCRIPTION:;
#CHARTSTYLE:;
#DIFFICULTY:Hard;
#METER:12;
#RADARVALUES:0.562566,0.611319,0.439996,0.098999,0.208998,358.000000,318.000000,40.000000,9.000000,0.000000,0.000000,0.000000,0.000000,0.000000,0.562566,0.611319,0.439996,0.098999,0.208998,358.000000,318.000000,40.000000,9.000000,0.000000,0.000000,0.000000,0.000000,0.000000;
#CREDIT:;
#NOTES:
0000
0000
0000
0000
,
0000
0000
0000
0000
,
0000
0000
0000
0000
,
0000
0000
0000
0000
,
0000
0000
0000
0000
,
1000
0000
0000
0000
1000
0000
0000
0000
1000
0000
0000
0100
0000
0000
0010
0000
,
0001
0000
0000
0000
0001
0000
0000
0000
0001
0000
0000
0010
0000
0000
0100
0000
,
1000
0000
0000
0000
1000
0000
0000
0000
1000
0000
0000
0100
0000
0000
0010
0000
,
1001
0000
0000
0000
,
1000
0000
0000
0010
0000
0000
0100
0000
0000
0000
0001
0000
0001
0000
1000
0000
,
0001
0000
0000
0100
0000
0000
0010
0000
0000
0000
1000
0000
1000
0000
0001
0000
,
1000
0000
0000
0100
0000
0000
0010
0000
0000
0000
0001
0000
0001
0000
1000
0000
,
0001
0000
0000
0010
0000
0000
0100
0000
0000
0000
1000
0000
1000
0000
0001
0000
,
0101
0000
0000
1000
1100
0000
0000
0000
,
0011
0000
0000
0100
0000
0000
1000
0000
1001
0000
0000
0000
0000
0000
0000
0000
,
1010
0000
0000
0001
0011
0000
0000
0000
,
1100
0000
0000
0010
0000
0000
0001
0000
1001
0000
0000
0000
0000
0000
0000
0000
,
1000
0010
0100
0001
0001
0100
1000
0100
,
0001
0010
0100
1000
1000
0010
0001
0010
,
1000
0100
0010
0001
0001
0100
1000
0100
,
0001
0010
0100
1000
1000
0001
0100
1000
,
0100
0001
0010
0100
1000
0000
2010
0000
,
3001
2010
3001
2010
,
3001
0000
0000
0100
0000
0000
1000
0000
0000
0010
0000
0000
0001
0000
1000
0000
,
0100
0000
0000
0010
0000
0000
0001
0000
1000
0000
0001
0000
0001
0000
1000
0000
,
0001
0100
1000
0100
0001
0010
0100
1000
,
0001
0010
1000
0010
0001
0100
0010
1000
,
0100
0001
0100
1000
0001
0010
0100
1000
,
0010
0001
0010
1000
0100
1000
1000
0001
,
1000
0010
0001
0010
0100
0001
0010
0100
,
1000
0000
0010
0000
0001
0000
0010
0000
0100
0000
0000
0001
0000
0000
1000
0000
,
0001
0100
1000
0100
1000
0100
0001
1000
,
0001
0010
1000
0010
1001
0000
0000
0000
,
0001
0000
0000
0001
0000
0000
0001
0000
0000
0000
1000
0000
1000
0000
0001
0000
,
0100
0000
0000
0100
0000
0000
0100
0000
0000
0000
0001
0000
0001
0000
1000
0000
,
1100
0000
0001
1000
1010
0000
0110
0000
,
2002
0000
0000
3003
,
1000
0000
0000
1000
0000
0000
1000
0000
0000
0000
0001
0000
0001
0000
1000
0000
,
0100
0000
0000
0100
0000
0000
0100
0000
0000
0000
1000
0000
1000
0000
0001
0000
,
0011
0000
1000
0001
0101
0000
0110
0000
,
2002
0000
3003
0000
,
1000
0000
0000
0100
0000
0000
0001
0000
1000
0000
0000
0010
0000
0000
0001
0000
,
1000
0000
0000
0100
0000
0000
0001
0000
1001
0000
1000
0000
0100
0000
0010
0000
,
0001
0000
0000
0100
0000
0000
1000
0000
0001
0000
0000
0010
0000
0000
1000
0000
,
0001
0000
0000
0100
0000
0000
1000
0000
1001
0000
0001
0000
0010
0000
0100
0000
,
1000
0000
0000
0100
0000
0000
0001
0000
1000
0000
0000
0010
0000
0000
0001
0000
,
1000
0000
0000
0100
0000
0000
0001
0000
1001
0000
0000
0000
0100
0000
0010
0000
,
1010
0000
0010
0100
0011
0000
0110
0000
,
2002
0000
3003
0000
,
1001
0000
0000
0000
1001
0000
0000
0000
0001
0100
0000
0010
0000
0100
0001
0000
,
1000
0100
0001
0100
1000
0100
1100
0000
,
1001
0000
0000
0000
1001
0000
0000
0000
1000
0100
0000
0010
0000
0100
1000
0000
,
0001
0100
1000
0100
0001
0010
0011
0000
,
1001
0000
0000
0000
1001
0000
0000
0000
0001
0010
0000
1000
0000
0010
0001
0000
,
1000
0100
0001
0100
1000
0010
0110
0000
,
1001
0000
0000
0000
1001
0000
0000
0000
1000
0010
0000
0001
0000
0010
1000
0000
,
0001
0100
1000
0100
0001
0010
0110
0000
,
1000
0001
1000
0001
1000
0001
1000
0001
,
1000
0001
1000
0001
0100
0000
0000
0000
;

//---------------dance-single - ----------------
#NOTEDATA:;
#CHARTNAME:;
#STEPSTYPE:dance-single;
#DESCRIPTION:;
#CHARTSTYLE:;
#DIFFICULTY:Challenge;
#METER:14;
#RADARVALUES:0.769992,0.900891,0.725993,0.483995,0.516995,490.000000,424.000000,66.000000,44.000000,0.000000,0.000000,0.000000,0.000000,0.000000,0.769992,0.900891,0.725993,0.483995,0.516995,490.000000,424.000000,66.000000,44.000000,0.000000,0.000000,0.000000,0.000000,0.000000;
#CREDIT:;
#NOTES:
// measure 0
0000
0000
0000
0000
,  // measure 1
0000
0000
0000
0000
,  // measure 2
0000
0000
0000
0000
,  // measure 3
0000
0000
0000
0000
,  // measure 4
0000
0000
0000
0000
,  // measure 5
1001
0000
0000
0000
0001
0000
0001
0000
0010
0100
1000
0001
0100
0000
0100
0000
,  // measure 6
1001
0000
0000
0000
1000
0000
1000
0000
0100
0010
0001
0100
0010
0000
0010
0000
,  // measure 7
1000
0001
1000
0000
1000
0001
1000
0000
0001
0100
0010
1000
0010
0000
0010
0000
,  // measure 8
2002
0000
0000
3003
,  // measure 9
0001
0000
0000
0100
0001
0000
2000
0000
0000
0000
0100
0000
3100
0000
0010
0000
,  // measure 10
0001
0000
0000
0100
0001
0000
2000
0000
0000
0000
0100
0000
3100
0000
0010
0000
,  // measure 11
0001
0000
0100
0000
0001
0010
0100
0000
1000
0000
0010
0000
1000
0100
0010
0000
,  // measure 12
0001
0100
1000
0100
0001
0010
1000
0010
,  // measure 13
0002
0000
0000
1000
1003
0001
0010
0100
,  // measure 14
2000
0000
0000
0001
0000
0000
0001
0000
3001
0000
1000
0000
0100
0000
0010
0000
,  // measure 15
0002
0000
0000
0100
0103
0001
0010
0100
,  // measure 16
2000
0000
0000
0010
0000
0000
0010
0000
3010
0000
1000
0001
1000
0000
0010
0000
,  // measure 17
0100
0000
0010
0000
1000
0100
0010
0000
0001
0000
0100
0001
0100
0001
1000
0000
,  // measure 18
0100
0000
0010
0001
0010
0001
1000
0000
0010
0000
0100
0001
0100
0001
1000
0000
,  // measure 19
0100
0000
0010
0001
0010
0001
1000
0000
0001
0000
0010
0100
0010
0100
1000
0000
,  // measure 20
0001
0000
0100
0010
0100
0010
1000
0000
0100
0000
0010
0000
0001
0100
0001
0100
,  // measure 21
0010
0000
1000
0001
1000
0001
0010
0000
0100
0000
1000
0000
0002
0100
0000
0000
,  // measure 22
1003
0000
0000
0000
0002
0100
0000
0000
1003
0000
0000
0000
0002
0100
0000
0000
,  // measure 23
1003
0000
0100
0010
0000
0100
0010
0000
0001
1000
0000
0001
1000
0000
0100
1000
,  // measure 24
0100
0000
0010
0001
0000
0010
0001
0000
2000
0000
0001
0000
3001
0000
1000
0100
,  // measure 25
0010
0000
0001
0100
0001
0100
0010
0000
0110
0000
0001
0100
1000
0000
0100
0010
,  // measure 26
1000
0000
0001
1000
0001
1000
0010
0000
1010
0000
0001
0000
0010
0100
1000
0001
,  // measure 27
0100
0000
0001
1000
0001
1000
0100
0000
1100
0000
0010
0000
0001
0010
0100
1000
,  // measure 28
0001
0000
0100
0001
0100
0001
1000
0000
1001
0000
0010
0000
0010
0000
0110
0000
,  // measure 29
1000
0000
0100
1000
0100
1000
0001
0000
0101
0000
1000
0010
0001
0000
0010
0100
,  // measure 30
0001
0000
0010
0100
0010
0100
1000
0000
1010
0000
0000
0110
0000
0000
0101
0000
,  // measure 31
1000
0000
0001
0010
0100
0000
0110
0000
1000
0000
0001
0100
0010
0000
0110
0000
,  // measure 32
1000
0000
0100
0010
0001
1000
0010
0000
1010
0000
0000
0000
0000
0000
0000
0000
,  // measure 33
0001
0010
1000
0010
0001
0100
1000
0100
,  // measure 34
0001
0010
1000
0010
0001
0000
1001
0200
,  // measure 35
0020
0330
1001
0020
0200
0330
1001
0000
,  // measure 36
2010
0001
0010
3001
,  // measure 37
1000
0100
0001
0100
1000
0010
0001
0010
,  // measure 38
1000
0100
0001
0100
1000
0000
1001
0020
,  // measure 39
0200
0330
1001
0200
0020
0330
1001
0000
,  // measure 40
0202
0000
0303
0000
,  // measure 41
0011
0000
0000
0110
0000
0000
1000
0000
0011
0000
0000
0110
0000
0000
1000
0000
,  // measure 42
0011
0000
0000
0110
0000
0000
1000
0000
1001
0000
0010
0000
0100
0000
0010
0000
,  // measure 43
1100
0000
0000
0110
0000
0000
0001
0000
1100
0000
0000
0110
0000
0000
0001
0000
,  // measure 44
1100
0000
0000
0110
0000
0000
0001
0000
1001
0000
0100
0000
0010
0000
0100
0000
,  // measure 45
0101
0000
0000
0110
0000
0000
1000
0000
0101
0000
0000
0110
0000
0000
1000
0000
,  // measure 46
0101
0000
0000
0110
0000
0000
1000
0000
1001
0000
0000
0000
0011
0000
0001
0000
,  // measure 47
2002
3003
1100
1000
2002
3003
0110
0000
,  // measure 48
1002
0000
0000
1000
0000
0000
1000
0000
0000
0000
0100
0000
0103
0000
0000
0000
,  // measure 49
2002
0000
3003
0000
2002
0000
3003
0000
0001
0100
0000
0010
0000
1000
0100
0010
,  // measure 50
0001
0001
0100
0100
0010
1010
0101
0000
,  // measure 51
2002
0000
3003
0000
2002
0000
3003
0000
1000
0010
0000
0100
0000
0001
0010
0100
,  // measure 52
1000
1000
0010
0010
0100
0101
1010
0000
,  // measure 53
2002
0000
3003
0000
2002
0000
3003
0000
0001
0010
0000
0100
0000
1000
0010
0100
,  // measure 54
0001
0001
1000
1000
0100
0011
1100
0000
,  // measure 55
2002
0000
3003
0000
2002
0000
3003
0000
0001
0010
0000
0100
0000
1000
0010
0100
,  // measure 56
0001
0001
0010
0010
0100
1100
0011
0000
,  // measure 57
0001
0100
1000
0100
1000
0100
1000
0100
,  // measure 58
1000
0100
1000
0100
0001
0000
0000
0000
;

//---------------dance-single - ----------------
#NOTEDATA:;
#CHARTNAME:;
#STEPSTYPE:dance-single;
#DESCRIPTION:;
#CHARTSTYLE:;
#DIFFICULTY:Beginner;
#METER:2;
#RADARVALUES:0.127284,0.225223,0.098999,0.000000,0.000000,81.000000,72.000000,9.000000,0.000000,0.000000,0.000000,0.000000,0.000000,0.000000,0.127284,0.225223,0.098999,0.000000,0.000000,81.000000,72.000000,9.000000,0.000000,0.000000,0.000000,0.000000,0.000000,0.000000;
#CREDIT:;
#NOTES:
0000
0000
0000
0000
,
0000
0000
0000
0000
,
0000
0000
0000
0000
,
0000
0000
0000
0000
,
0000
0000
0000
0000
,
1000
0000
0000
0000
,
0100
0000
0000
0000
,
0010
0000
0000
0000
,
0001
0000
0000
0000
,
1000
0000
0000
0000
,
1000
0000
0000
0000
,
0010
0000
0000
0000
,
0100
0000
0100
0000
,
0100
0000
0000
0000
,
0001
0000
0000
0000
,
0010
0000
0000
0000
,
0100
0000
0000
0000
,
1000
0000
0001
0000
,
1000
0000
0000
0000
,
0100
0000
1000
0000
,
0100
0000
0000
0000
,
0010
0000
0001
0000
,
0000
0000
0000
0000
,
0100
0000
0010
0000
,
1000
0000
0000
0000
,
0001
0000
0001
0000
,
1000
0000
1000
0000
,
0001
0000
0001
0000
,
1000
0000
1000
0000
,
0100
0000
0100
0000
,
0010
0000
0010
0000
,
0001
0000
0001
0000
,
0001
0000
0000
0000
,
1001
0000
0000
0000
,
0000
0000
0000
0000
,
1000
0000
0001
0000
,
1000
0000
0000
0000
,
1001
0000
0000
0000
,
0000
0000
0000
0000
,
0001
0000
1000
0000
,
0001
0000
0000
0000
,
0100
0000
0100
0000
,
0100
0000
0110
0000
,
0010
0000
0010
0000
,
0010
0000
0110
0000
,
0100
0000
0100
0000
,
0100
0000
0110
0000
,
0010
0000
0100
0000
,
0001
0000
0000
0000
,
1001
0000
0000
0000
,
1000
0000
0000
0000
,
1001
0000
0000
0000
,
0001
0000
0000
0000
,
1001
0000
0000
0000
,
1000
0000
0000
0000
,
1001
0000
0000
0000
,
0001
0000
0000
0000
,
0010
0000
0000
0000
,
0000
0000
0100
0000
;
