#TITLE:冒険でしょでしょ?;
#SUBTITLE:(DJ Bouche EURO Mix);
#ARTIST:Remixed by DJ Bouche;
#TITLETRANSLIT:BOUKEN DESHO DESHO?;
#SUBTITLETRANSLIT:;
#ARTISTTRANSLIT:;
#GENRE:;
#CREDIT:DigiMindAxel;
#BANNER:BOUKEN DESHO DESHO (DJ Bouche EURO Mix).png;
#BACKGROUND:BOUKEN DESHO DESHO (DJ Bouche EURO Mix)-bg.png;
#LYRICSPATH:BOUKEN DESHO DESHO (DJ Bouche EURO Mix).lrc;
#CDTITLE:DigiMindAxel original simfile.png;
#MUSIC:BOUKEN DESHO DESHO (DJ Bouche EURO Mix).ogg;
#OFFSET:-0.337000;
#SAMPLESTART:47.039997;
#SAMPLELENGTH:12.000000;
#SELECTABLE:YES;
#BPMS:0.000000=156.000000
;
#STOPS:
;
#BGCHANGES:;
#KEYSOUNDS:;
#ATTACKS:;

//---------------dance-single - ----------------
#NOTES:
     dance-single:
     :
     Easy:
     5:
     0.273684,0.310526,0.189474,0.136842,0.000000,182.000000,164.000000,18.000000,13.000000,0.000000,0.000000,0.273684,0.310526,0.189474,0.136842,0.000000,182.000000,164.000000,18.000000,13.000000,0.000000,0.000000:
0000
0000
0000
0000
,
0000
0000
0000
0000
,
0000
0000
0000
0000
,
0000
0000
0000
0000
,
1000
1000
1000
0000
,
1001
0010
0100
0010
,
0001
1000
0010
0000
,
1000
0001
1000
0001
,
0010
0100
1000
0000
,
0001
0010
0100
0010
,
0001
0100
0001
0000
,
1000
0100
1000
0100
,
0010
0001
0100
0000
,
1001
0010
0100
0010
,
1000
0100
0010
0001
,
1000
0100
1000
0002
,
0000
0000
0000
0000
,
1003
0010
0100
0010
,
1000
0100
0010
0001
,
1000
0000
0100
0000
1000
0000
0000
2002
,
0000
0000
0000
3003
,
0020
0000
0000
0000
0032
0000
0000
1003
,
0000
1001
1001
0000
,
1000
0010
0100
0010
,
1000
0100
0010
0001
,
0200
0000
0000
0000
0302
0000
0000
1003
,
0000
1001
1001
0000
,
0001
0000
0010
0000
,
0100
0000
0000
0000
1000
0000
0000
0002
,
0000
0000
0000
0000
0000
0000
0000
1003
,
0000
0000
0000
0000
,
1001
0000
1001
0000
,
1000
0010
0100
0010
,
1000
0100
0010
0000
,
0001
0100
0001
1000
,
1001
0000
1001
0000
,
1000
0100
0010
0001
,
1000
0000
1001
0000
,
0001
0010
0100
0010
,
0001
1000
0001
1000
,
0001
0010
0100
0000
,
1000
0001
1000
0001
,
1000
0100
0010
0001
,
1000
0010
1000
0000
,
0010
0100
0010
0100
,
1001
0000
0000
0001
0000
0000
1001
0000
,
0000
1000
0000
0000
1000
0000
0001
0000
,
2002
0000
0000
3003
,
0000
0000
0000
0000
,
1001
0010
0100
1000
,
0001
0100
0001
0000
,
1000
0010
1000
0001
,
0010
0100
1000
0000
,
1001
0100
0010
0001
,
1000
0010
0100
0000
,
0001
0100
0001
1000
,
0100
0010
0001
1000
,
0020
0000
0000
0030
,
2002
0000
0000
0000
,
3003
0000
0000
0000
;

//---------------dance-single - ----------------
#NOTES:
     dance-single:
     :
     Hard:
     12:
     0.554887,0.590000,0.452632,0.157895,0.031579,369.000000,326.000000,43.000000,15.000000,0.000000,0.000000,0.554887,0.590000,0.452632,0.157895,0.031579,369.000000,326.000000,43.000000,15.000000,0.000000,0.000000:
0000
0000
0000
0000
,
0000
0000
0000
0000
,
0000
0000
0000
0000
,
0000
0000
0000
0000
,
0001
0000
0001
0000
0001
0000
0001
1000
,
1001
0000
1000
0100
1000
0001
0010
0100
,
0000
0110
0000
1001
0000
1001
0000
0000
,
1000
1000
1000
0010
1000
0001
0010
0001
,
0000
0011
0000
1001
0000
1001
0000
0100
,
1001
0000
0001
0010
0001
1000
0010
1000
,
0000
1010
0000
1001
0000
1001
0000
0000
,
0001
0001
0001
0100
0001
1000
0100
0010
,
0000
0110
0000
1001
0000
1001
0000
0000
,
1001
0000
0000
0000
2000
0000
0000
0000
3001
0000
0010
0000
0001
0000
1000
0010
,
1000
0000
0001
0010
0001
0000
1000
0010
1000
0000
0100
0000
0010
0000
0001
0000
,
0100
0000
0001
0010
0100
1000
0000
1001
,
0000
1100
0000
1001
0000
0011
0000
0000
,
1001
0000
0000
0000
0002
0000
0000
0000
1003
0000
0100
0000
1000
0000
0001
0100
,
0001
0000
1000
0100
1000
0000
0001
0100
0001
0000
0010
0000
0100
0000
0000
0000
,
1000
0010
0100
0001
1000
0100
0000
1001
,
0000
0001
1000
0001
0000
0010
0001
0010
,
0200
0000
1300
0010
0200
0000
0301
0010
,
0100
1000
0001
1000
0100
0000
0000
0000
,
1000
0010
0100
0010
1000
1000
0000
0100
,
0010
0001
0100
0010
0100
0001
1000
0000
,
0200
0000
1300
0001
0200
0000
0301
1000
,
0100
0010
0100
1000
0010
0000
0100
0010
,
1000
0100
0001
0100
1000
0100
0010
0100
,
1000
0010
0001
0010
1000
0100
0010
0002
,
0000
1000
1000
0000
1003
0100
0010
0002
,
2000
0000
0000
3003
,
1100
0000
1001
0000
1100
0000
1000
0010
,
0100
0001
1000
0100
0010
0001
1000
0100
,
0010
0000
0101
0000
1001
0000
1000
0010
,
0100
0001
1000
0100
0000
1000
0100
0010
,
1001
0101
1001
1010
,
1000
0100
0010
0001
1000
0010
0100
0001
,
1000
0000
1100
0000
1002
0000
0010
0013
,
0000
0100
1000
0001
0000
1001
0000
0000
,
0001
0010
0001
0100
0001
0010
0001
0100
,
0000
0010
1000
0001
0000
1001
0000
0000
,
1000
0100
1000
0010
1000
0100
1000
0010
,
0000
0010
0000
0100
0000
0100
0000
0001
,
0000
0010
0100
1000
0001
0001
0000
0001
,
1000
0010
0100
0001
0000
0010
0100
1000
,
0001
0010
0100
1000
0001
0100
1000
0100
,
0001
0100
0010
1000
1001
0000
1100
0000
,
0012
0000
0000
0000
0000
0000
0000
1000
,
0000
1000
1000
0000
1000
1003
0000
0001
,
1001
0000
1000
0001
0010
0001
1000
0100
,
0001
0100
1000
0010
0001
0010
1000
0000
,
0001
0001
0001
1000
0100
1000
0001
0010
,
1000
0010
0001
0100
1000
0100
0001
0000
,
1001
0000
1000
0100
0010
0100
1000
0010
,
0001
0010
1000
0100
0001
0100
1000
0000
,
0001
0001
0001
0100
1000
0100
0001
0010
,
1000
0010
0001
0000
0101
0000
0110
0000
,
2020
0000
0000
3030
,
2002
0000
0000
0000
,
3003
0000
0000
0000
;

//---------------dance-single - ----------------
#NOTES:
     dance-single:
     :
     Medium:
     10:
     0.421053,0.527895,0.336842,0.147368,0.000000,280.000000,248.000000,32.000000,14.000000,0.000000,0.000000,0.421053,0.527895,0.336842,0.147368,0.000000,280.000000,248.000000,32.000000,14.000000,0.000000,0.000000:
0000
0000
0000
0000
,
0000
0000
0000
0000
,
0000
0000
0000
0000
,
0000
0000
0000
0000
,
0001
0001
0001
0001
,
1000
0100
1000
0100
0010
0001
0010
0001
,
0000
0010
0000
1000
0000
0010
0000
0000
,
0001
0000
0010
0001
0100
0010
1000
0100
,
0000
0001
0000
0100
0000
1000
0000
0000
,
1001
0000
0100
0001
0100
0001
1000
0100
,
0000
0001
0000
0100
0000
1000
0000
0000
,
0001
0000
0010
0001
0010
0100
1000
0001
,
0000
0100
0000
1000
0000
0100
0000
0000
,
1001
0000
0001
0000
0100
0000
0001
1000
,
0000
0100
0000
0010
0001
0010
0100
1000
,
0001
0000
0100
0000
1000
0000
0100
0001
,
0000
0100
0000
0010
0000
1000
0000
0000
,
1001
0000
1000
0000
0100
0000
1000
0001
,
0000
0100
0000
1000
0000
0100
0001
0000
,
0010
0000
0100
0000
1000
0001
0000
1001
,
0000
1001
0000
1001
0000
0001
0010
0100
,
2000
0000
0000
0000
3020
0000
0000
0130
,
0000
0001
0001
0000
1001
0000
0000
1000
,
0010
0100
0001
0000
0010
0100
0000
1000
,
0000
0100
0000
0001
0000
0100
1000
0000
,
0002
0000
0000
0000
0203
0000
0000
0310
,
0000
1000
1000
0000
1000
0000
0001
0000
,
1001
0000
0010
0100
1000
0000
1001
0000
,
0100
0010
0001
0000
1001
0000
0100
0020
,
0000
0000
0031
0000
0001
0010
0100
2000
,
0002
0000
0000
3003
,
1100
1001
1100
1001
,
0001
0010
0100
1000
0001
0100
0001
0000
,
1000
0000
0110
0000
0012
0000
0000
1003
,
0000
0001
1000
0100
0000
0000
0000
0000
,
1001
0011
1001
1100
,
1000
0010
0100
0001
1000
0100
1000
0000
,
1001
0000
0101
0000
0120
0000
0000
1030
,
0000
0010
0100
0001
0000
0001
0000
0000
,
1000
0100
0010
0000
0001
0010
0100
1000
,
0000
0000
0001
0001
0000
1001
0000
0000
,
1000
0010
0100
0000
0001
0100
0010
1000
,
0000
0100
0000
0001
0000
0100
0000
1000
,
0000
0000
0100
0010
0001
0000
0011
0000
,
0100
1000
0010
0100
0000
0001
0010
0100
,
1001
0000
0000
0101
0000
0000
1001
0000
,
0000
1010
0000
0000
0010
0000
0010
0000
,
2002
0000
0000
0000
0000
3003
0000
0001
,
0000
0001
1000
0000
1000
0001
0000
0001
,
1000
0000
0001
0010
0001
0010
0100
1000
,
0000
0100
0000
0001
0000
0100
0000
0000
,
1000
0000
0100
1000
0010
0100
0001
0010
,
0000
1000
0000
0010
0000
0001
0000
0000
,
1001
0000
1000
0100
1000
0100
0010
0001
,
0000
0100
0000
1000
0000
0100
0000
0000
,
0001
0000
0010
0001
0010
0100
1000
0010
,
0000
0001
0000
0010
0000
1000
0000
0000
,
2002
0000
0000
0003
,
0200
0000
0000
0000
,
3300
0000
0000
0000
;

//---------------dance-single - ----------------
#NOTES:
     dance-single:
     :
     Challenge:
     14:
     0.738346,0.776316,0.947368,0.378947,0.278947,491.000000,401.000000,90.000000,36.000000,0.000000,0.000000,0.738346,0.776316,0.947368,0.378947,0.278947,491.000000,401.000000,90.000000,36.000000,0.000000,0.000000:
0000
0000
0000
0000
,
0000
0000
0000
0000
,
0000
0000
0000
0000
,
0000
0000
0000
0000
,
1000
0000
0000
0000
1000
0000
0000
0000
1000
0000
0010
0100
0010
0000
1010
0000
,
1001
0000
0001
0100
0001
0010
0100
1100
,
0000
0011
0000
1100
0000
0012
0000
1003
,
0001
0100
0010
0100
0001
0000
1000
0100
0010
0000
0100
0000
1000
0000
1010
0000
,
0000
0101
0000
1010
0000
0101
0000
0110
,
1001
0000
1100
0001
0100
0001
1000
1100
,
0000
0011
0000
1100
0000
0012
0000
1003
,
0001
0100
0010
0100
0001
0000
1000
0100
0010
0000
0100
0000
1000
0000
1010
0000
,
0000
0101
0000
1010
0000
0101
0000
0000
,
1001
0000
0000
0000
0001
0000
0100
0000
0001
0000
1000
0000
0100
0000
1000
0001
,
0010
0000
0001
1000
0100
0000
1000
0001
0010
0000
0100
0000
0100
0000
0100
0000
,
0010
0000
0001
0000
1000
0000
0100
0000
0001
0000
0010
0000
1000
0100
0010
0000
,
0000
0000
0101
0000
0100
0000
0110
0000
0000
0000
1001
0000
0010
0100
0010
0100
,
0001
1000
0100
0000
1000
0000
0001
0000
0100
0000
0001
0000
1000
0000
0010
0100
,
0001
0000
0100
0010
1000
0000
0010
0100
0001
0000
0100
0000
0100
0000
0100
0000
,
0001
0000
0100
0000
1000
0000
0010
0000
0001
0000
1000
0000
0001
0010
0200
0000
,
0000
0000
1000
0000
1000
0000
1000
0000
0000
0000
0310
0000
0001
0100
0010
0100
,
0001
0100
1000
0100
0001
0010
0100
1000
,
0001
0100
0110
1000
2020
0000
3030
0000
,
0001
0010
0001
0010
0100
1000
0100
1000
0010
0100
0010
0000
1000
0100
0020
0000
,
0000
0000
0001
0000
0001
0000
0001
0000
0000
0000
0130
0000
1000
0010
0100
0010
,
1000
0100
0001
0100
1000
0010
0001
0010
,
1000
0010
0110
0001
0011
0000
0100
0010
,
1001
0010
0100
1000
1010
0001
0010
0100
,
1001
0100
0010
0001
0101
1000
0100
0020
,
0000
0001
0001
0000
0031
0100
0010
2000
,
0020
0000
0000
3030
,
0100
0000
0010
0000
1001
0000
0100
1000
0100
0000
0010
0000
0001
0000
0200
0000
,
1300
0200
0301
0200
1300
0200
0301
0010
,
0101
0000
0000
0000
1001
0000
0100
0000
0020
0000
0000
0000
0031
0000
0100
0001
,
1000
0100
0010
0001
0000
0001
0100
0010
,
0010
0000
0100
0000
1001
0000
0000
0000
0001
0100
0001
0000
1000
0000
0200
0000
,
0301
0200
1300
0200
0301
0200
1300
0100
,
0011
0000
1010
0000
1002
0000
0103
0110
,
0000
1100
0010
0001
1000
1020
0000
0000
,
1030
0100
0010
0100
2000
0000
3001
0100
0001
0010
0100
0010
0001
0000
0101
0000
,
0000
0010
0010
0110
0000
2020
0000
3030
,
0001
0010
0100
0010
0001
0000
0100
0010
1000
0100
0010
0100
1000
0000
1010
0000
,
0010
0110
0100
0101
0001
2001
0000
3100
,
0010
0000
0000
0000
0001
0100
0010
0000
1000
0100
0010
0000
0010
0000
0001
0000
,
0101
0110
1010
1001
0000
1100
0010
0001
,
1001
0100
0010
1001
0010
0100
1001
0100
,
0010
1001
0010
0100
1100
0000
0101
0000
,
2002
0000
0000
0000
0000
0000
3003
0110
,
0000
0110
0110
0000
1001
1001
0000
1100
,
1001
0000
0000
0000
0100
1000
0010
0000
0100
0010
0100
0010
1000
0000
1100
0000
,
0001
0011
1000
1100
0001
0022
0000
0033
,
0001
0100
0010
0100
0001
0000
1000
0100
0010
0000
0001
0000
1000
0000
1010
0000
,
0001
0101
1000
1010
0001
0101
0000
1001
,
1001
0000
0000
0000
1100
0000
0001
0000
1000
0100
0010
0000
0001
0000
0101
0000
,
1000
1100
0001
0011
1000
2020
0000
3030
,
1000
0001
0010
0001
1000
0000
0010
0100
0001
0000
0010
0000
0100
0000
1100
0000
,
0010
0110
0001
0011
0100
0220
0000
0330
,
0202
0000
0000
0000
0000
0000
0000
0303
,
2002
0000
0000
0000
,
3003
0000
0000
0000
;

//---------------dance-single - ----------------
#NOTES:
     dance-single:
     :
     Beginner:
     3:
     0.174436,0.213684,0.115789,0.000000,0.000000,116.000000,105.000000,11.000000,0.000000,0.000000,0.000000,0.174436,0.213684,0.115789,0.000000,0.000000,116.000000,105.000000,11.000000,0.000000,0.000000,0.000000:
// measure 0
0000
0000
0000
0000
,  // measure 1
0000
0000
0000
0000
,  // measure 2
0000
0000
0000
0000
,  // measure 3
0000
0000
0000
0000
,  // measure 4
1000
0000
1000
0000
,  // measure 5
1001
0000
0001
0000
,  // measure 6
0010
0001
0010
0000
,  // measure 7
0001
0000
0001
0000
,  // measure 8
0100
0010
0100
0000
,  // measure 9
1001
0000
1000
0000
,  // measure 10
0100
1000
0100
0000
,  // measure 11
1000
0000
1000
0000
,  // measure 12
0010
0100
0010
0000
,  // measure 13
1001
0000
0001
0000
,  // measure 14
0001
0000
0001
0000
,  // measure 15
1000
0000
1000
0000
,  // measure 16
1000
0000
1000
0000
,  // measure 17
0100
0000
0100
0000
,  // measure 18
0100
0000
0100
0000
,  // measure 19
0010
0000
0010
0000
,  // measure 20
0010
0000
0000
0000
,  // measure 21
1001
0000
0001
0000
,  // measure 22
1000
0000
0000
0000
,  // measure 23
0100
0000
1000
0000
,  // measure 24
0010
0000
0000
0000
,  // measure 25
0100
0000
0001
0000
,  // measure 26
0010
0000
0000
0000
,  // measure 27
1001
0000
0010
0000
,  // measure 28
0100
0000
1000
0000
,  // measure 29
0001
0000
0000
0000
,  // measure 30
0000
0000
0000
0000
,  // measure 31
1001
0000
1000
0000
,  // measure 32
0001
0100
0001
0000
,  // measure 33
0001
0000
0001
0000
,  // measure 34
1000
0000
1000
0000
,  // measure 35
1001
0000
0001
0000
,  // measure 36
1000
0100
1000
0000
,  // measure 37
0001
0000
0001
0000
,  // measure 38
0100
0000
0100
0000
,  // measure 39
0010
0000
0100
0000
,  // measure 40
0001
0000
0000
0000
,  // measure 41
0100
0000
0010
0000
,  // measure 42
1000
0000
0000
0000
,  // measure 43
0001
0000
0010
0000
,  // measure 44
0100
0000
1000
0000
,  // measure 45
1001
0000
0000
1001
,  // measure 46
0000
0000
0000
0000
,  // measure 47
1001
0000
0000
0000
,  // measure 48
0000
0000
0000
0000
,  // measure 49
0010
0000
0010
0000
,  // measure 50
0100
0010
0100
0000
,  // measure 51
0001
0000
0001
0000
,  // measure 52
1000
0001
1000
0000
,  // measure 53
0100
0000
0100
0000
,  // measure 54
1000
0100
1000
0000
,  // measure 55
0010
0000
0010
0000
,  // measure 56
0100
0010
0100
0001
,  // measure 57
1000
0000
0000
0000
,  // measure 58
1001
0000
0000
0000
;
